osu file format v14

[General]
AudioFilename: audio.mp3
AudioLeadIn: 0
PreviewTime: 113793
Countdown: 0
SampleSet: Soft
StackLeniency: 0.4
Mode: 0
LetterboxInBreaks: 0
WidescreenStoryboard: 0

[Editor]
Bookmarks: 243593,265993
DistanceSpacing: 0.74
BeatDivisor: 4
GridSize: 16
TimelineZoom: 1.4

[Metadata]
Title:Glimmer feat. Hatsune Miku
TitleUnicode:Glimmer feat. 初音ミク
Artist:Hachioji P x kz(livetune)
ArtistUnicode:八王子P × kz(livetune)
Creator:Log Off Now
Version:Fly Away
Source:
Tags:electronic japanese vocaloid hideout hachioji-p hachiojip 8#Prince
BeatmapID:3790814
BeatmapSetID:1845419

[Difficulty]
HPDrainRate:5
CircleSize:4
OverallDifficulty:8.5
ApproachRate:9
SliderMultiplier:2
SliderTickRate:1

[Events]
//Background and Video events
0,0,"glimmer.jpg",0,0
//Break Periods
2,144588,153388
//Storyboard Layer 0 (Background)
//Storyboard Layer 1 (Fail)
//Storyboard Layer 2 (Pass)
//Storyboard Layer 3 (Foreground)
//Storyboard Layer 4 (Overlay)
//Storyboard Sound Samples

[TimingPoints]
388,400,4,2,1,40,1,0
388,-125,4,2,1,40,0,0
6788,-111.111111111111,4,2,2,40,0,0
13188,-111.111111111111,4,2,2,45,0,0
25988,-100,4,2,1,55,0,0
38788,-100,4,2,1,65,0,0
45188,-100,4,2,3,65,0,0
48388,-83.3333333333333,4,2,3,70,0,0
50588,-83.3333333333333,4,2,1,60,0,0
51188,-83.3333333333333,4,2,4,65,0,0
51388,-83.3333333333333,4,2,1,65,0,0
51588,-83.3333333333333,4,2,3,80,0,1
75588,-83.3333333333333,4,2,3,80,0,0
76188,-83.3333333333333,4,2,1,60,0,0
76788,-83.3333333333333,4,2,4,60,0,0
77188,-90.9090909090909,4,2,3,70,0,0
89988,-100,4,2,3,60,0,0
101588,-100,4,2,1,60,0,0
102788,-100,4,2,1,65,0,0
109188,-100,4,2,3,65,0,0
112388,-83.3333333333333,4,2,3,70,0,0
113988,-83.3333333333333,4,2,5,70,0,0
114088,-83.3333333333333,4,2,3,70,0,0
114588,-83.3333333333333,4,2,5,70,0,0
114688,-83.3333333333333,4,2,3,70,0,0
115188,-83.3333333333333,4,2,4,70,0,0
115588,-83.3333333333333,4,2,3,80,0,1
139588,-83.3333333333333,4,2,3,80,0,0
140188,-83.3333333333333,4,2,1,60,0,0
140788,-100,4,2,1,60,0,0
141088,-100,4,2,1,5,0,0
141188,-100,4,2,2,50,0,0
153988,-100,4,2,2,60,0,0
179588,-250,4,2,2,50,0,0
184388,-125,4,2,1,40,0,0
192388,-90.9090909090909,4,2,5,55,0,0
194588,-83.3333333333333,4,2,5,55,0,0
195588,-58.8235294117647,4,2,3,70,0,0
197788,-83.3333333333333,4,2,1,60,0,0
198388,-83.3333333333333,4,2,4,70,0,0
198788,-83.3333333333333,4,2,3,80,0,1
208388,-71.4285714285714,4,2,3,80,0,1
209988,-83.3333333333333,4,2,3,80,0,1
222788,-83.3333333333333,4,2,3,80,0,0
223388,-83.3333333333333,4,2,1,65,0,0
223988,-83.3333333333333,4,2,4,80,0,0
224388,-83.3333333333333,4,2,3,70,0,0
236788,-83.3333333333333,4,2,4,70,0,0
236988,-83.3333333333333,4,2,1,70,0,0
237188,-90.9090909090909,4,2,3,65,0,0
249988,-125,4,2,1,65,0,0
250188,-125,4,2,1,45,0,0
253088,-125,4,2,1,5,0,0
253188,-125,4,2,1,45,0,0
259488,-125,4,2,1,5,0,0
259588,-125,4,2,1,45,0,0
262788,-500,4,2,1,45,0,0
265988,-500,4,2,1,5,0,0

[Colours]
Combo1 : 237,218,150
Combo2 : 141,243,228
Combo3 : 201,159,217
Combo4 : 248,135,152

[HitObjects]
204,160,388,6,0,P|250:149|299:138,2,80,2|0|2,0:0|0:0|0:0,0:0:0:0:
118,190,1188,1,2,0:0:0:0:
187,351,1588,1,0,0:0:0:0:
243,196,1988,1,2,0:0:0:0:
177,258,2188,1,0,0:0:0:0:
262,278,2388,1,2,0:0:0:0:
233,114,2788,2,0,P|224:57|216:13,1,80,2|0,0:0|0:0,0:0:0:0:
220,35,3188,1,0,0:0:0:0:
243,196,3588,6,0,P|197:185|148:174,2,80,2|0|2,0:0|0:0|0:0,0:0:0:0:
329,226,4388,1,2,0:0:0:0:
105,274,4788,1,0,0:0:0:0:
285,328,5188,1,2,0:0:0:0:
226,259,5388,1,0,0:0:0:0:
173,336,5588,2,0,P|117:348|71:362,1,80,2|0,0:0|0:0,0:0:0:0:
22,307,5988,2,0,P|2:270|16:230,1,80,2|0,0:0|0:0,0:0:0:0:
89,183,6388,2,0,P|109:146|95:106,1,80,2|0,0:0|0:0,0:0:0:0:
47,48,6688,5,2,0:0:0:0:
47,48,6788,2,0,L|194:73,1,134.999995880127,2|0,1:2|0:0,0:0:0:0:
211,148,7188,1,0,1:0:0:0:
317,51,7588,2,0,P|361:30|439:81,1,134.999995880127,10|0,0:0|0:0,0:0:0:0:
462,146,7988,1,0,1:0:0:0:
317,243,8388,5,2,0:0:0:0:
340,161,8588,1,0,0:0:0:0:
300,259,8788,1,2,1:2:0:0:
433,366,9188,2,0,L|409:225,1,134.999995880127,10|0,0:0|0:0,0:0:0:0:
352,176,9588,1,0,1:0:0:0:
264,321,9988,6,0,P|206:338|124:376,1,134.999995880127,2|0,1:2|0:0,0:0:0:0:
68,327,10388,1,0,1:0:0:0:
176,198,10788,2,0,P|201:149|147:64,1,134.999995880127,10|0,0:0|0:0,0:0:0:0:
104,35,11188,1,0,1:0:0:0:
34,253,11588,5,2,1:2:0:0:
97,201,11788,1,2,0:0:0:0:
178,325,11988,1,2,1:2:0:0:
109,280,12188,1,0,0:0:0:0:
187,243,12388,1,10,0:0:0:0:
256,290,12588,1,2,0:0:0:0:
252,376,12788,1,2,1:2:0:0:
178,325,12988,1,0,0:0:0:0:
333,259,13188,6,0,B|425:251|403:336|511:314,1,179.999994506836,6|0,1:2|0:0,0:0:0:0:
396,175,13788,1,2,0:0:0:0:
343,345,13988,2,0,P|290:384|175:343,1,179.999994506836,2|0,0:0|0:0,0:0:0:0:
126,196,14588,5,2,0:0:0:0:
49,310,14788,2,0,P|109:291|228:259,1,179.999994506836,2|2,0:0|0:0,0:0:0:0:
271,326,15388,2,0,P|301:281|234:178,1,179.999994506836,2|0,0:0|0:0,0:0:0:0:
246,181,15988,1,0,0:0:0:0:
401,99,16188,5,2,0:0:0:0:
308,42,16388,2,0,P|319:112|339:225,1,179.999994506836,2|0,0:0|0:0,0:0:0:0:
193,267,16988,1,2,0:0:0:0:
267,325,17188,2,0,P|278:254|298:141,1,179.999994506836,2|0,0:0|0:0,0:0:0:0:
239,73,17788,5,0,0:0:0:0:
192,191,17988,2,0,P|154:222|103:231,1,89.9999972534181,2|0,0:0|0:0,0:0:0:0:
10,197,18388,1,2,0:0:0:0:
82,143,18588,2,0,P|97:231|112:320,1,179.999994506836,2|0,0:0|0:0,0:0:0:0:
112,320,19188,1,0,0:0:0:0:
240,235,19388,5,2,0:0:0:0:
276,354,19588,2,0,P|324:375|405:283,1,179.999994506836,2|0,0:0|0:0,0:0:0:0:
322,194,20188,2,0,P|397:207|524:231,1,179.999994506836,2|0,0:0|0:0,0:0:0:0:
498,226,20788,1,0,0:0:0:0:
460,86,20988,5,2,0:0:0:0:
393,159,21188,2,0,P|381:107|369:55,1,89.9999972534181,2|0,0:0|0:0,0:0:0:0:
256,15,21588,1,2,0:0:0:0:
208,114,21788,2,0,P|290:93|319:88,1,89.9999972534181,2|0,0:0|0:0,0:0:0:0:
356,237,22188,2,0,P|274:216|245:211,1,89.9999972534181,2|0,0:0|0:0,0:0:0:0:
140,51,22588,1,2,0:0:0:0:
140,51,22688,1,2,0:0:0:0:
140,51,22788,2,0,P|150:105|174:244,2,179.999994506836,2|0|2,0:0|0:0|0:0,0:0:0:0:
72,211,23988,1,0,0:0:0:0:
306,109,24388,5,2,0:0:0:0:
258,254,24588,1,2,0:0:0:0:
227,156,24788,1,2,0:0:0:0:
344,241,24988,1,0,0:0:0:0:
302,329,25188,1,2,0:0:0:0:
258,254,25388,1,2,0:0:0:0:
394,313,25588,1,2,0:0:0:0:
214,364,25788,1,2,0:0:0:0:
420,310,25988,6,0,P|466:282|476:209,1,100,2|2,0:0|0:3,0:0:0:0:
390,179,26388,1,0,0:0:0:0:
390,179,26488,1,0,0:0:0:0:
390,179,26588,2,0,L|402:260,1,50,2|0,0:0|0:0,0:0:0:0:
473,153,26788,2,0,L|456:42,1,100,2|2,0:0|0:3,0:0:0:0:
311,16,27188,1,0,0:0:0:0:
375,82,27388,5,2,0:0:0:0:
302,198,27588,2,0,L|285:87,1,100,2|2,0:0|0:3,0:0:0:0:
210,38,27988,1,2,0:0:0:0:
124,166,28188,2,0,P|171:125|222:126,1,100,2|0,0:0|0:0,0:0:0:0:
322,218,28588,1,2,0:3:0:0:
209,261,28788,1,0,0:0:0:0:
209,261,28888,1,2,0:0:0:0:
209,261,28988,2,0,L|202:209,1,50,2|0,0:0|0:0,0:0:0:0:
298,251,29188,6,0,L|312:349,2,100,2|2|0,0:0|0:3|0:0,0:0:0:0:
280,89,29788,1,2,0:0:0:0:
201,211,29988,2,0,P|150:242|92:239,1,100,2|2,0:0|0:3,0:0:0:0:
33,138,30388,1,0,0:0:0:0:
203,33,30588,1,2,0:0:0:0:
130,151,30788,6,0,L|115:52,1,100,2|2,0:0|0:3,0:0:0:0:
218,164,31188,1,2,0:0:0:0:
97,271,31388,2,0,P|160:241|244:323,1,200,2|2,0:0|0:3,0:0:0:0:
151,378,31988,2,0,L|163:315,1,50
185,206,32188,1,2,0:0:0:0:
265,301,32388,6,0,P|339:321|372:332,1,100,2|2,0:0|0:3,0:0:0:0:
512,239,32788,1,2,0:0:0:0:
410,154,32988,2,0,P|425:228|451:350,1,200,2|2,0:0|0:3,0:0:0:0:
344,245,33588,1,0,0:0:0:0:
495,140,33788,5,2,0:0:0:0:
466,250,33988,1,2,0:0:0:0:
394,75,34188,2,0,P|348:42|282:45,1,100,2|0,0:0|0:0,0:0:0:0:
178,189,34588,1,2,0:0:0:0:
319,124,34788,1,2,0:0:0:0:
97,73,34988,1,2,0:0:0:0:
206,171,35188,1,0,0:0:0:0:
19,226,35388,1,2,0:0:0:0:
123,153,35588,6,0,L|99:266,1,100,2|2,0:0|0:3,0:0:0:0:
222,382,35988,2,0,L|198:269,1,100
290,126,36388,2,0,P|340:97|399:112,1,100,2|2,0:0|0:3,0:0:0:0:
455,278,36788,2,0,P|466:218|486:118,1,150
447,50,37188,5,2,0:0:0:0:
303,169,37388,1,2,0:0:0:0:
388,125,37588,1,2,0:0:0:0:
207,68,37788,1,2,0:0:0:0:
262,250,37988,1,2,0:0:0:0:
319,80,38188,1,0,0:0:0:0:
203,171,38388,1,2,0:0:0:0:
347,223,38588,1,2,0:0:0:0:
200,34,38788,5,10,0:0:0:0:
65,221,39188,1,10,0:0:0:0:
323,302,39588,1,10,0:0:0:0:
264,230,39888,1,2,0:0:0:0:
264,230,39988,1,10,0:0:0:0:
235,313,40188,1,2,0:0:0:0:
287,144,40388,5,10,0:0:0:0:
404,327,40788,1,10,0:0:0:0:
155,343,41188,1,10,0:0:0:0:
222,272,41488,1,2,0:0:0:0:
222,272,41588,1,10,0:0:0:0:
245,358,41788,1,2,0:0:0:0:
204,184,41988,5,10,0:0:0:0:
155,343,42188,1,2,0:0:0:0:
309,280,42388,1,10,0:0:0:0:
109,208,42588,1,2,0:0:0:0:
265,94,42788,1,10,0:0:0:0:
213,260,42988,1,2,0:0:0:0:
114,117,43188,1,10,0:0:0:0:
288,190,43388,1,2,0:0:0:0:
157,334,43588,5,10,0:0:0:0:
440,235,43988,1,10,0:0:0:0:
218,84,44388,1,10,0:0:0:0:
293,149,44688,1,2,0:0:0:0:
293,149,44788,1,10,0:0:0:0:
311,61,44988,1,2,0:0:0:0:
270,235,45188,5,12,0:0:0:0:
149,141,45388,1,8,0:0:0:0:
102,226,45588,1,8,0:0:0:0:
287,144,45788,1,8,0:0:0:0:
317,318,45988,5,8,0:0:0:0:
237,261,46188,1,8,0:0:0:0:
237,261,46288,1,8,0:0:0:0:
237,261,46388,1,8,0:0:0:0:
460,184,46588,1,8,0:0:0:0:
403,331,46788,5,8,0:0:0:0:
343,123,46988,1,8,0:0:0:0:
233,335,47188,1,8,0:0:0:0:
374,235,47388,1,8,0:0:0:0:
157,137,47588,1,8,0:0:0:0:
263,238,47788,1,8,0:0:0:0:
263,238,47888,1,8,0:0:0:0:
263,238,47988,1,8,0:0:0:0:
232,32,48188,1,8,0:0:0:0:
136,244,48388,5,8,0:0:0:0:
90,261,48488,1,8,0:0:0:0:
42,251,48588,1,8,0:0:0:0:
8,215,48688,1,8,0:0:0:0:
0,166,48788,1,8,0:0:0:0:
20,121,48888,1,8,0:0:0:0:
61,95,48988,1,8,0:0:0:0:
111,97,49088,1,8,0:0:0:0:
151,126,49188,2,0,P|187:140|232:133,1,59.9999981689454,8|8,0:0|0:0,0:0:0:0:
243,18,49388,2,0,P|216:34|199:63,1,59.9999981689454,8|8,0:0|0:0,0:0:0:0:
212,223,49588,5,10,0:0:0:0:
253,207,49688,1,8,0:0:0:0:
283,174,49788,1,10,0:0:0:0:
292,131,49888,1,8,0:0:0:0:
278,89,49988,1,10,0:0:0:0:
23,261,50588,6,0,L|106:280,1,59.9999981689454,2|0,0:0|0:0,0:0:0:0:
139,337,50788,2,0,L|267:315,1,119.999996337891,10|0,0:0|1:0,0:0:0:0:
313,254,51088,1,2,0:0:0:0:
313,254,51188,1,8,0:0:0:0:
148,173,51388,1,2,0:0:0:0:
262,64,51588,5,4,1:2:0:0:
282,100,51688,1,0,0:0:0:0:
288,136,51788,1,0,0:0:0:0:
273,162,51888,1,0,0:0:0:0:
243,191,51988,1,8,0:0:0:0:
223,226,52088,1,0,0:0:0:0:
223,259,52188,6,0,P|252:314|288:321,1,59.9999981689454,2|0,0:0|0:0,0:0:0:0:
421,272,52388,2,0,P|362:258|280:242,1,119.999996337891,2|0,1:2|0:0,0:0:0:0:
259,323,52688,2,0,P|317:334|376:348,1,119.999996337891,2|0,0:0|0:0,0:0:0:0:
458,347,52988,2,0,P|482:330|496:303,1,59.9999981689454,2|0,0:0|0:0,0:0:0:0:
407,179,53188,5,2,1:2:0:0:
383,147,53288,1,0,0:0:0:0:
378,108,53388,1,0,0:0:0:0:
390,72,53488,1,0,0:0:0:0:
419,46,53588,1,8,0:0:0:0:
457,38,53688,1,0,0:0:0:0:
493,53,53788,6,0,L|480:133,1,59.9999981689454,2|0,0:0|0:0,0:0:0:0:
388,218,53988,2,0,L|411:76,1,119.999996337891,2|0,1:2|0:0,0:0:0:0:
340,23,54288,2,0,L|320:141,1,119.999996337891,2|0,0:0|0:0,0:0:0:0:
305,225,54588,2,0,P|286:248|221:259,1,59.9999981689454,2|0,0:0|0:0,0:0:0:0:
128,159,54788,6,0,P|190:148|238:181,1,119.999996337891,2|0,1:2|0:0,0:0:0:0:
196,348,55088,1,0,0:0:0:0:
196,348,55188,2,0,P|181:272|168:208,1,119.999996337891,10|0,0:0|0:0,0:0:0:0:
71,111,55488,1,0,0:0:0:0:
71,111,55588,6,0,P|82:169|94:228,1,119.999996337891,2|0,1:2|0:0,0:0:0:0:
10,356,55888,2,0,P|59:312|134:332,1,119.999996337891,2|0,0:0|0:0,0:0:0:0:
199,384,56188,2,0,L|187:317,1,59.9999981689454,2|0,0:0|0:0,0:0:0:0:
170,201,56388,5,2,1:2:0:0:
206,181,56488,1,0,0:0:0:0:
242,175,56588,1,0,0:0:0:0:
268,190,56688,1,0,0:0:0:0:
297,220,56788,1,8,0:0:0:0:
332,240,56888,1,0,0:0:0:0:
366,241,56988,6,0,P|417:209|428:176,1,59.9999981689454,2|0,0:0|0:0,0:0:0:0:
341,101,57188,2,0,L|355:174,1,59.9999981689454,2|0,1:2|0:0,0:0:0:0:
500,230,57388,1,0,1:0:0:0:
500,230,57488,1,2,1:2:0:0:
500,230,57588,2,0,L|486:303,1,59.9999981689454,8|0,1:2|0:0,0:0:0:0:
423,384,57788,2,0,L|411:325,1,59.9999981689454,2|0,1:2|0:0,0:0:0:0:
273,172,57988,5,2,1:2:0:0:
237,152,58088,1,0,0:0:0:0:
201,146,58188,1,0,0:0:0:0:
175,161,58288,1,0,0:0:0:0:
146,191,58388,1,8,0:0:0:0:
111,211,58488,1,0,0:0:0:0:
77,212,58588,6,0,P|26:180|15:147,1,59.9999981689454,2|0,0:0|0:0,0:0:0:0:
79,11,58788,2,0,L|99:154,1,119.999996337891,2|0,1:2|0:0,0:0:0:0:
189,214,59088,2,0,L|171:95,1,119.999996337891,2|0,0:0|0:0,0:0:0:0:
164,16,59388,2,0,P|188:-2|235:-1,1,59.9999981689454,2|0,0:0|0:0,0:0:0:0:
264,129,59588,5,2,1:2:0:0:
279,165,59688,1,0,0:0:0:0:
310,189,59788,1,0,0:0:0:0:
348,197,59888,1,0,0:0:0:0:
385,185,59988,1,8,0:0:0:0:
411,156,60088,1,0,0:0:0:0:
416,117,60188,6,0,L|407:55,1,59.9999981689454,2|0,0:0|0:0,0:0:0:0:
492,184,60388,2,0,L|472:302,1,119.999996337891,2|0,1:2|0:0,0:0:0:0:
374,383,60688,2,0,L|394:265,1,119.999996337891,2|0,0:0|0:0,0:0:0:0:
407,182,60988,2,0,P|388:159|323:148,1,59.9999981689454,2|0,0:0|0:0,0:0:0:0:
162,172,61188,6,0,P|223:159|312:143,1,119.999996337891,2|0,1:2|0:0,0:0:0:0:
177,346,61488,2,0,P|143:293|91:219,1,119.999996337891,2|0,0:0|0:0,0:0:0:0:
269,233,61788,2,0,L|240:294,1,59.9999981689454,2|0,0:0|0:0,0:0:0:0:
141,160,61988,6,0,P|202:147|291:131,1,119.999996337891,2|0,1:2|0:0,0:0:0:0:
151,347,62288,2,0,P|117:294|65:220,1,119.999996337891,2|0,0:0|0:0,0:0:0:0:
283,253,62588,2,0,L|254:314,1,59.9999981689454,2|0,0:0|0:0,0:0:0:0:
121,138,62788,6,0,P|159:86|231:81,1,119.999996337891,2|0,1:2|0:0,0:0:0:0:
282,124,63088,1,0,0:0:0:0:
282,124,63188,1,8,0:0:0:0:
182,350,63388,5,0,1:0:0:0:
175,312,63488,1,8,0:0:0:0:
168,270,63588,2,0,L|158:210,1,59.9999981689454,10|0,1:2|0:0,0:0:0:0:
291,64,63788,2,0,L|281:124,1,59.9999981689454,10|0,0:0|0:0,0:0:0:0:
274,361,63988,5,8,0:0:0:0:
265,320,64088,1,8,0:0:0:0:
257,281,64188,1,8,0:0:0:0:
249,241,64288,1,8,0:0:0:0:
241,202,64388,2,0,P|313:152|439:230,1,239.999992675781,4|8,1:2|0:0,0:0:0:0:
361,351,64988,5,2,0:0:0:0:
361,351,65088,1,0,0:0:0:0:
361,351,65188,2,0,L|333:209,1,119.999996337891,2|0,1:2|0:0,0:0:0:0:
392,87,65488,2,0,L|415:204,1,119.999996337891,2|0,0:0|0:0,0:0:0:0:
504,237,65788,2,0,L|492:178,1,59.9999981689454,2|0,0:0|0:0,0:0:0:0:
468,69,65988,5,2,1:2:0:0:
453,33,66088,1,0,0:0:0:0:
422,9,66188,1,0,0:0:0:0:
384,1,66288,1,0,0:0:0:0:
347,13,66388,1,8,0:0:0:0:
321,42,66488,1,0,0:0:0:0:
309,81,66588,6,0,L|320:139,1,59.9999981689454,2|0,0:0|0:0,0:0:0:0:
348,275,66788,2,0,P|306:325|238:329,1,119.999996337891,2|0,1:2|0:0,0:0:0:0:
154,214,67088,2,0,P|222:233|282:254,1,119.999996337891,2|0,0:0|0:0,0:0:0:0:
99,271,67388,2,0,P|78:237|81:199,1,59.9999981689454,2|0,0:0|0:0,0:0:0:0:
175,329,67588,6,0,P|107:348|47:369,1,119.999996337891,2|0,1:2|0:0,0:0:0:0:
0,201,67888,1,0,0:0:0:0:
0,201,67988,2,0,P|42:148|96:145,1,119.999996337891,10|0,0:0|0:0,0:0:0:0:
193,235,68288,1,0,0:0:0:0:
193,235,68388,6,0,P|225:254|263:260,1,59.9999981689454,2|0,1:2|0:0,0:0:0:0:
359,168,68588,2,0,P|326:186|302:216,1,59.9999981689454,2|0,0:0|0:0,0:0:0:0:
339,346,68788,2,0,P|332:306|312:258,1,59.9999981689454,10|0,0:0|0:0,0:0:0:0:
237,165,68988,2,0,P|241:135|250:106,1,59.9999981689454,2|0,0:0|0:0,0:0:0:0:
359,25,69188,5,0,1:2:0:0:
384,16,69288,1,0,0:0:0:0:
410,16,69388,1,0,0:0:0:0:
434,28,69488,1,0,0:0:0:0:
452,48,69588,1,8,0:0:0:0:
462,73,69688,1,0,0:0:0:0:
460,99,69788,6,0,P|403:142|373:139,1,59.9999981689454,2|0,0:0|0:0,0:0:0:0:
289,88,69988,2,0,P|351:109|372:120,1,59.9999981689454,2|0,1:2|0:0,0:0:0:0:
255,242,70188,2,0,P|226:249|198:260,1,59.9999981689454,2|0,0:0|0:0,0:0:0:0:
117,85,70388,2,0,P|125:112|132:143,1,59.9999981689454,10|0,0:0|0:0,0:0:0:0:
0,288,70588,2,0,P|6:258|15:229,1,59.9999981689454,2|0,1:2|0:0,0:0:0:0:
208,359,70788,5,14,1:2:0:0:
208,359,70888,2,0,P|124:344|38:327,1,119.999996337891,8|8,0:0|0:0,0:0:0:0:
212,277,71188,2,0,L|290:292,1,59.9999981689454,0|0,1:0|0:0,0:0:0:0:
319,360,71388,2,0,L|377:348,1,59.9999981689454,8|0,0:2|0:0,0:0:0:0:
500,212,71588,5,0,1:2:0:0:
500,212,71688,2,0,P|423:214|390:281,1,119.999996337891,8|8,0:0|0:0,0:0:0:0:
457,342,71988,2,0,L|468:283,1,59.9999981689454,0|0,1:2|0:0,0:0:0:0:
311,158,72188,2,0,L|322:216,1,59.9999981689454,8|0,0:0|0:0,0:0:0:0:
220,369,72388,5,4,1:2:0:0:
220,369,72488,2,0,L|247:223,1,119.999996337891,8|8,0:0|0:0,0:0:0:0:
155,157,72788,2,0,L|168:230,1,59.9999981689454,0|0,1:2|0:0,0:0:0:0:
319,75,72988,6,0,L|332:2,1,59.9999981689454,10|0,0:0|0:0,0:0:0:0:
233,97,73188,1,2,1:2:0:0:
233,97,73288,1,8,0:0:0:0:
233,97,73388,2,0,L|246:170,1,59.9999981689454,10|0,0:0|0:0,0:0:0:0:
366,213,73588,2,0,L|379:140,1,59.9999981689454,2|0,1:2|0:0,0:0:0:0:
226,323,73788,2,0,L|239:396,1,59.9999981689454,10|0,0:0|0:0,0:0:0:0:
319,293,73988,5,4,1:2:0:0:
296,258,74088,1,8,0:0:0:0:
258,240,74188,1,8,0:0:0:0:
216,239,74288,1,8,0:0:0:0:
177,253,74388,1,8,0:0:0:0:
146,280,74488,1,8,0:0:0:0:
110,300,74588,1,8,0:0:0:0:
68,296,74688,1,8,0:0:0:0:
33,273,74788,5,8,1:2:0:0:
12,239,74888,1,8,0:0:0:0:
8,197,74988,1,8,0:0:0:0:
19,157,75088,1,8,0:0:0:0:
50,129,75188,1,8,0:0:0:0:
91,124,75288,1,8,0:0:0:0:
122,150,75388,1,8,0:0:0:0:
127,190,75488,1,8,0:0:0:0:
87,203,75588,5,4,1:2:0:0:
208,168,76188,5,2,0:0:0:0:
256,248,76388,1,2,0:0:0:0:
352,88,76588,1,2,0:3:0:0:
400,168,76788,1,10,0:0:0:0:
218,364,77188,6,0,P|231:292|242:230,1,110.000003356934,6|0,1:2|0:0,0:0:0:0:
253,176,77488,1,0,0:0:0:0:
253,176,77588,2,0,P|221:131|179:122,1,55.0000016784668,8|0,0:0|0:0,0:0:0:0:
71,227,77788,2,0,P|129:212|191:197,1,110.000003356934,0|0,0:0|1:0,0:0:0:0:
397,340,78188,6,0,P|365:331|333:316,1,55.0000016784668,2|0,0:0|0:0,0:0:0:0:
294,257,78388,2,0,P|281:228|282:189,1,55.0000016784668,10|0,0:0|0:0,0:0:0:0:
298,126,78588,2,0,P|316:100|350:82,1,55.0000016784668,2|0,0:0|0:0,0:0:0:0:
412,66,78788,5,0,1:2:0:0:
372,220,78988,1,0,0:0:0:0:
372,220,79088,1,0,0:0:0:0:
372,220,79188,1,8,0:0:0:0:
258,38,79388,6,0,P|214:21|159:22,1,55.0000016784668,2|0,0:0|0:0,0:0:0:0:
59,83,79588,2,0,L|86:209,1,110.000003356934,2|0,1:2|0:0,0:0:0:0:
139,323,79888,2,0,L|163:216,1,110.000003356934,2|0,0:0|0:0,0:0:0:0:
181,138,80188,1,2,0:0:0:0:
266,284,80388,5,0,1:2:0:0:
293,314,80488,1,0,0:0:0:0:
331,329,80588,1,0,0:0:0:0:
371,325,80688,1,0,0:0:0:0:
406,302,80788,1,8,0:0:0:0:
325,136,80988,2,0,P|333:190|342:244,1,110.000003356934,0|0,0:0|1:2,0:0:0:0:
431,61,81388,6,0,L|360:77,1,55.0000016784668,2|0,0:0|0:0,0:0:0:0:
250,183,81588,2,0,L|179:167,1,55.0000016784668,10|0,0:0|0:0,0:0:0:0:
155,22,81788,1,2,0:0:0:0:
37,121,81988,6,0,P|91:112|145:103,1,110.000003356934,2|0,1:2|0:0,0:0:0:0:
227,93,82288,1,2,0:0:0:0:
227,93,82388,1,8,0:0:0:0:
154,281,82588,2,0,P|117:235|143:159,1,110.000003356934,2|0,0:0|1:0,0:0:0:0:
311,89,82988,1,2,0:0:0:0:
311,89,83088,1,0,0:0:0:0:
311,89,83188,2,0,L|295:170,1,55.0000016784668,8|0,0:0|0:0,0:0:0:0:
268,296,83388,1,0,1:0:0:0:
132,190,83588,6,0,P|186:199|240:209,1,110.000003356934,2|0,1:2|0:0,0:0:0:0:
323,226,83888,1,0,0:0:0:0:
323,226,83988,2,0,P|368:194|377:152,1,55.0000016784668,8|0,0:0|0:0,0:0:0:0:
479,297,84188,2,0,P|459:239|449:177,1,110.000003356934,0|0,0:0|1:0,0:0:0:0:
487,20,84588,6,0,P|478:52|463:84,1,55.0000016784668,2|0,0:0|0:0,0:0:0:0:
404,123,84788,2,0,P|375:136|336:135,1,55.0000016784668,10|0,0:0|0:0,0:0:0:0:
273,119,84988,2,0,P|247:101|229:67,1,55.0000016784668,2|0,0:0|0:0,0:0:0:0:
207,1,85188,5,0,1:2:0:0:
163,213,85388,1,0,0:0:0:0:
163,213,85488,1,0,0:0:0:0:
163,213,85588,1,8,0:0:0:0:
45,96,85788,6,0,P|71:102|105:112,1,55.0000016784668,2|0,0:0|0:0,0:0:0:0:
292,208,85988,2,0,L|166:235,1,110.000003356934,2|0,1:2|0:0,0:0:0:0:
70,383,86288,2,0,L|94:276,1,110.000003356934,2|0,0:0|0:0,0:0:0:0:
111,193,86588,1,2,0:0:0:0:
231,336,86788,2,0,P|287:360|341:338,1,110.000003356934,0|0,1:2|0:0,0:0:0:0:
387,290,87088,1,0,0:0:0:0:
387,290,87188,1,8,0:0:0:0:
272,66,87388,6,0,P|245:72|212:82,1,55.0000016784668,2|0,0:0|0:0,0:0:0:0:
25,178,87588,2,0,L|151:205,1,110.000003356934,2|0,1:2|0:0,0:0:0:0:
247,353,87888,2,0,L|223:246,1,110.000003356934,2|0,0:0|0:0,0:0:0:0:
206,163,88188,1,2,0:0:0:0:
345,29,88388,5,4,1:2:0:0:
388,11,88488,1,8,0:0:0:0:
434,20,88588,1,8,0:0:0:0:
468,52,88688,1,8,0:0:0:0:
480,98,88788,2,0,L|466:172,1,55.0000016784668,8|8,0:0|0:3,0:0:0:0:
379,201,88988,5,8,0:3:0:0:
379,201,89088,1,8,0:3:0:0:
379,201,89188,2,0,L|399:88,1,110.000003356934,8|0,0:3|0:0,0:0:0:0:
337,30,89488,1,4,0:3:0:0:
337,30,89588,2,0,P|282:4|254:7,1,55.0000016784668,8|0,0:0|0:0,0:0:0:0:
225,66,89788,2,0,P|170:92|142:89,1,55.0000016784668,4|0,0:3|0:0,0:0:0:0:
67,30,89988,6,0,B|98:73|98:73|60:176,1,150,6|0,1:2|0:0,0:0:0:0:
0,228,90388,1,0,1:0:0:0:
0,228,90488,1,2,0:0:0:0:
0,228,90588,1,2,0:0:0:0:
102,356,90788,2,0,P|91:298|80:237,1,100,2|0,1:2|0:0,0:0:0:0:
169,115,91188,1,0,1:0:0:0:
220,290,91388,6,0,L|152:275,1,50,2|0,0:0|0:0,0:0:0:0:
125,187,91588,2,0,L|249:214,1,100,2|0,1:2|0:0,0:0:0:0:
271,361,91988,1,2,1:2:0:0:
306,177,92188,2,0,P|345:143|426:154,1,100,2|0,0:0|1:0,0:0:0:0:
478,292,92588,1,2,0:0:0:0:
380,226,92788,1,2,1:2:0:0:
450,70,92988,5,2,0:0:0:0:
512,168,93188,2,0,L|379:136,1,100,2|0,1:2|0:0,0:0:0:0:
379,21,93588,1,0,1:0:0:0:
247,204,93788,2,0,L|315:189,1,50,2|0,0:0|0:0,0:0:0:0:
342,101,93988,2,0,L|218:128,1,100,2|0,1:2|0:0,0:0:0:0:
193,273,94388,1,0,1:0:0:0:
291,368,94588,5,2,0:0:0:0:
169,259,94788,2,0,P|117:251|64:284,1,100,2|0,1:2|0:0,0:0:0:0:
36,340,95088,2,0,P|21:288|1:236,1,100,2|0,0:0|0:0,0:0:0:0:
64,184,95388,1,2,0:0:0:0:
160,341,95588,1,0,1:0:0:0:
194,338,95688,1,0,0:0:0:0:
224,322,95788,1,0,0:0:0:0:
244,294,95888,1,0,0:0:0:0:
250,260,95988,1,0,1:0:0:0:
147,162,96188,5,2,0:0:0:0:
280,57,96388,2,0,L|261:164,1,100,2|0,1:2|0:0,0:0:0:0:
169,259,96788,1,2,1:2:0:0:
293,371,96988,2,0,L|274:264,1,100,2|0,0:0|1:2,0:0:0:0:
423,181,97388,1,2,0:0:0:0:
369,262,97588,1,2,1:2:0:0:
298,118,97788,5,2,0:0:0:0:
469,26,97988,1,2,1:2:0:0:
411,166,98188,2,0,P|347:154|292:146,1,100,2|0,0:0|1:0,0:0:0:0:
220,36,98588,2,0,P|173:13|118:27,1,100,2|0,0:0|1:0,0:0:0:0:
74,210,98988,1,2,0:0:0:0:
160,97,99188,1,2,1:2:0:0:
0,156,99388,1,2,0:0:0:0:
150,276,99588,6,0,P|163:221|176:172,1,100,0|0,1:0|0:0,0:0:0:0:
65,76,99988,2,0,P|77:124|89:173,1,100,0|0,1:0|0:0,0:0:0:0:
209,324,100388,2,0,P|154:337|105:350,1,100,0|0,1:0|0:0,0:0:0:0:
4,232,100788,2,0,P|52:244|105:260,1,100,0|0,1:0|0:0,0:0:0:0:
202,103,101188,6,0,B|167:148|167:148|193:263,1,150,4|0,1:2|0:0,0:0:0:0:
209,324,101588,1,8,0:0:0:0:
274,252,101788,1,8,0:3:0:0:
89,173,101988,1,8,0:0:0:0:
295,107,102188,1,8,0:3:0:0:
295,107,102288,1,8,0:0:0:0:
295,107,102388,1,8,0:0:0:0:
179,213,102588,1,4,0:3:0:0:
407,297,102788,5,14,0:0:0:0:
296,20,103188,1,10,0:0:0:0:
236,294,103588,1,10,0:0:0:0:
304,237,103888,1,2,0:0:0:0:
304,237,103988,1,10,0:0:0:0:
221,208,104188,1,2,0:0:0:0:
390,260,104388,5,10,0:0:0:0:
79,169,104788,1,10,0:0:0:0:
396,102,105188,1,10,0:0:0:0:
332,174,105488,1,2,0:0:0:0:
332,174,105588,1,10,0:0:0:0:
308,80,105788,1,2,0:0:0:0:
350,262,105988,5,10,0:0:0:0:
237,151,106188,1,2,0:0:0:0:
422,192,106388,1,10,0:0:0:0:
248,289,106588,1,2,0:0:0:0:
330,147,106788,1,10,0:0:0:0:
139,93,106988,1,2,0:0:0:0:
183,229,107188,1,10,0:0:0:0:
268,51,107388,1,2,0:0:0:0:
335,284,107588,5,10,0:0:0:0:
77,175,107988,1,10,0:0:0:0:
368,101,108388,1,10,0:0:0:0:
283,127,108688,1,2,0:0:0:0:
283,127,108788,1,10,0:0:0:0:
301,39,108988,1,2,0:0:0:0:
260,213,109188,5,12,0:0:0:0:
348,193,109388,1,8,0:0:0:0:
167,143,109588,1,8,0:0:0:0:
220,73,109788,1,8,0:0:0:0:
249,296,109988,5,8,0:0:0:0:
174,240,110188,1,8,0:0:0:0:
174,240,110288,1,8,0:0:0:0:
174,240,110388,1,8,0:0:0:0:
286,130,110588,1,8,0:0:0:0:
329,324,110788,5,8,0:0:0:0:
197,154,110988,1,8,0:0:0:0:
124,359,111188,1,8,0:0:0:0:
257,248,111388,1,8,0:0:0:0:
48,148,111588,1,8,0:0:0:0:
281,78,111788,1,8,0:0:0:0:
281,78,111888,1,8,0:0:0:0:
281,78,111988,1,8,0:0:0:0:
175,244,112188,1,8,0:0:0:0:
88,53,112388,5,8,0:0:0:0:
131,50,112488,1,8,0:0:0:0:
172,64,112588,1,8,0:0:0:0:
198,98,112688,1,8,0:0:0:0:
220,136,112788,1,8,0:0:0:0:
254,162,112888,1,8,0:0:0:0:
297,165,112988,1,8,0:0:0:0:
338,150,113088,1,8,0:0:0:0:
372,123,113188,2,0,P|386:87|379:42,1,59.9999981689454,8|8,0:0|0:0,0:0:0:0:
298,9,113388,2,0,L|309:84,1,59.9999981689454,8|8,0:0|0:0,0:0:0:0:
230,104,113588,2,0,L|222:45,3,59.9999981689454,8|8|8|8,0:0|0:0|0:0|0:0,0:0:0:0:
236,188,113988,5,8,0:0:0:0:
201,181,114088,1,0,1:0:0:0:
166,173,114188,1,8,0:3:0:0:
131,166,114288,1,8,0:3:0:0:
96,158,114388,1,4,0:3:0:0:
60,151,114488,1,4,0:3:0:0:
23,145,114588,5,8,0:0:0:0:
34,178,114688,1,0,1:0:0:0:
45,213,114788,1,8,0:3:0:0:
56,246,114888,1,8,0:3:0:0:
67,281,114988,1,4,0:3:0:0:
78,315,115088,1,4,0:3:0:0:
87,350,115188,6,0,B|100:385|100:385|140:234,1,179.999994506836,8|0,0:0|0:0,0:0:0:0:
169,118,115588,6,0,P|229:81|284:100,1,119.999996337891,6|0,1:2|0:0,0:0:0:0:
335,150,115888,1,0,0:0:0:0:
335,150,115988,2,0,P|346:205|334:225,1,59.9999981689454,8|0,0:0|0:0,0:0:0:0:
311,282,116188,6,0,P|260:306|238:300,1,59.9999981689454,2|0,0:0|0:0,0:0:0:0:
137,198,116388,2,0,P|195:209|254:223,1,119.999996337891,2|0,1:2|0:0,0:0:0:0:
335,370,116688,2,0,P|393:356|452:344,1,119.999996337891,2|0,0:0|0:0,0:0:0:0:
420,212,116988,2,0,P|399:232|390:261,1,59.9999981689454,2|0,0:0|0:0,0:0:0:0:
502,221,117188,5,2,1:2:0:0:
498,179,117288,1,0,0:0:0:0:
475,148,117388,1,0,0:0:0:0:
441,129,117488,1,0,0:0:0:0:
402,128,117588,1,8,0:0:0:0:
368,146,117688,1,0,0:0:0:0:
345,176,117788,6,0,P|313:195|271:194,1,59.9999981689454,2|0,0:0|0:0,0:0:0:0:
208,44,117988,2,0,B|238:97|238:97|207:179,1,119.999996337891,2|0,1:2|0:0,0:0:0:0:
143,283,118288,2,0,B|113:230|113:230|144:148,1,119.999996337891,2|0,0:0|0:0,0:0:0:0:
217,328,118588,2,0,P|198:351|133:362,1,59.9999981689454,2|0,0:0|0:0,0:0:0:0:
219,239,118788,6,0,P|281:255|362:281,1,119.999996337891,2|0,1:2|0:0,0:0:0:0:
448,375,119088,1,0,0:0:0:0:
448,375,119188,2,0,P|411:311|449:246,1,119.999996337891,10|0,0:0|0:0,0:0:0:0:
488,159,119488,1,0,0:0:0:0:
488,159,119588,6,0,L|499:217,1,59.9999981689454,2|0,1:2|0:0,0:0:0:0:
407,111,119788,1,2,0:0:0:0:
407,111,119888,2,0,P|456:67|531:87,1,119.999996337891,2|0,0:0|0:0,0:0:0:0:
408,193,120188,2,0,P|368:184|341:159,1,59.9999981689454,2|0,0:0|0:0,0:0:0:0:
251,73,120388,5,2,1:2:0:0:
255,104,120488,1,0,0:0:0:0:
260,136,120588,1,0,0:0:0:0:
266,168,120688,1,0,0:0:0:0:
270,200,120788,1,8,0:0:0:0:
276,232,120888,1,0,0:0:0:0:
281,264,120988,6,0,P|254:300|235:309,1,59.9999981689454
141,225,121188,2,0,L|214:239,1,59.9999981689454,2|0,1:2|0:0,0:0:0:0:
167,366,121388,1,0,1:2:0:0:
167,366,121488,1,2,1:2:0:0:
167,366,121588,2,0,L|150:293,1,59.9999981689454,8|0,0:0|0:0,0:0:0:0:
54,238,121788,2,0,L|66:179,1,59.9999981689454,2|0,1:2|0:0,0:0:0:0:
255,106,121988,5,2,1:2:0:0:
233,135,122088,1,0,0:0:0:0:
201,149,122188,1,0,0:0:0:0:
165,144,122288,1,0,0:0:0:0:
137,122,122388,1,8,0:0:0:0:
124,89,122488,1,0,0:0:0:0:
129,54,122588,6,0,P|147:33|197:25,1,59.9999981689454,2|0,0:0|0:0,0:0:0:0:
282,123,122788,2,0,L|262:266,1,119.999996337891,2|0,1:2|0:0,0:0:0:0:
195,374,123088,2,0,L|177:255,1,119.999996337891,2|0,0:0|0:0,0:0:0:0:
326,297,123388,2,0,P|303:317|256:320,1,59.9999981689454,2|0,0:0|0:0,0:0:0:0:
148,173,123588,5,2,1:2:0:0:
160,142,123688,1,0,0:0:0:0:
186,122,123788,1,0,0:0:0:0:
218,116,123888,1,0,0:0:0:0:
249,126,123988,1,8,0:0:0:0:
270,150,124088,1,0,0:0:0:0:
275,183,124188,6,0,L|264:251,1,59.9999981689454,2|0,0:0|0:0,0:0:0:0:
137,344,124388,2,0,L|255:324,1,119.999996337891,2|0,1:2|0:0,0:0:0:0:
432,209,124688,2,0,L|415:327,1,119.999996337891,2|0,0:0|0:0,0:0:0:0:
327,374,124988,2,0,L|335:314,1,59.9999981689454,2|0,0:0|0:0,0:0:0:0:
387,126,125188,6,0,P|326:139|237:155,1,119.999996337891,2|0,1:2|0:0,0:0:0:0:
128,9,125488,2,0,P|162:62|214:136,1,119.999996337891,2|0,0:0|0:0,0:0:0:0:
172,250,125788,2,0,L|201:189,1,59.9999981689454,2|0,0:0|0:0,0:0:0:0:
391,152,125988,6,0,P|330:165|241:181,1,119.999996337891,2|0,1:2|0:0,0:0:0:0:
107,23,126288,2,0,P|141:76|193:150,1,119.999996337891,2|0,0:0|0:0,0:0:0:0:
180,272,126588,2,0,L|209:211,1,59.9999981689454,2|0,0:0|0:0,0:0:0:0:
213,349,126788,6,0,P|142:353|103:304,1,119.999996337891,2|0,1:2|0:0,0:0:0:0:
103,241,127088,1,0,0:0:0:0:
103,241,127188,1,8,0:0:0:0:
303,134,127388,5,0,1:0:0:0:
296,172,127488,1,8,0:0:0:0:
289,214,127588,2,0,L|279:274,1,59.9999981689454,10|0,0:0|0:0,0:0:0:0:
470,359,127788,2,0,L|460:299,1,59.9999981689454,10|0,0:0|0:0,0:0:0:0:
366,246,127988,5,8,0:0:0:0:
374,285,128088,1,8,0:0:0:0:
383,326,128188,1,8,0:0:0:0:
175,369,128388,6,0,L|214:132,1,239.999992675781,6|8,1:2|0:0,0:0:0:0:
57,31,128988,5,2,0:0:0:0:
57,31,129088,1,0,0:0:0:0:
57,31,129188,2,0,P|99:76|176:66,1,119.999996337891,2|0,1:2|0:0,0:0:0:0:
321,27,129488,2,0,L|298:144,1,119.999996337891,2|0,0:0|0:0,0:0:0:0:
238,246,129788,2,0,L|226:187,1,59.9999981689454,2|0,0:0|0:0,0:0:0:0:
313,223,129988,5,2,1:2:0:0:
318,261,130088,1,0,0:0:0:0:
303,297,130188,1,0,0:0:0:0:
274,323,130288,1,0,0:0:0:0:
236,331,130388,1,8,0:0:0:0:
199,319,130488,1,0,0:0:0:0:
170,292,130588,6,0,P|141:276|114:269,1,59.9999981689454,2|0,0:0|0:0,0:0:0:0:
0,367,130788,2,0,P|25:310|41:250,1,119.999996337891,2|0,1:2|0:0,0:0:0:0:
32,139,131088,2,0,P|68:180|150:165,1,119.999996337891,2|0,0:0|0:0,0:0:0:0:
129,52,131388,2,0,P|108:86|111:124,1,59.9999981689454,2|0,0:0|0:0,0:0:0:0:
167,259,131588,6,0,P|223:239|281:224,1,119.999996337891,2|0,1:2|0:0,0:0:0:0:
432,82,131888,1,0,0:0:0:0:
432,82,131988,2,0,P|385:117|376:175,1,119.999996337891,10|0,0:0|0:0,0:0:0:0:
307,227,132288,1,0,0:0:0:0:
307,227,132388,6,0,P|333:250|377:257,1,59.9999981689454,2|0,1:2|0:0,0:0:0:0:
409,322,132588,2,0,P|432:296|439:252,1,59.9999981689454,2|0,0:0|0:0,0:0:0:0:
509,222,132788,2,0,P|483:199|439:192,1,59.9999981689454,10|0,0:0|0:0,0:0:0:0:
407,125,132988,2,0,P|384:151|377:195,1,59.9999981689454,2|0,0:0|0:0,0:0:0:0:
306,355,133188,2,0,P|294:283|277:205,1,119.999996337891,0|0,1:2|0:0,0:0:0:0:
224,174,133488,1,0,0:0:0:0:
224,174,133588,1,8,0:0:0:0:
367,45,133788,6,0,P|304:82|274:79,1,59.9999981689454,2|0,0:0|0:0,0:0:0:0:
192,21,133988,2,0,L|250:34,1,59.9999981689454,2|0,1:2|0:0,0:0:0:0:
139,139,134188,2,0,L|126:80,1,59.9999981689454,2|0,0:0|0:0,0:0:0:0:
284,153,134388,2,0,L|271:211,1,59.9999981689454,10|0,0:0|0:0,0:0:0:0:
98,370,134588,2,0,L|85:312,1,59.9999981689454,2|0,1:2|0:0,0:0:0:0:
194,209,134788,5,12,1:2:0:0:
194,209,134888,2,0,P|179:293|162:379,1,119.999996337891,8|8,0:0|0:0,0:0:0:0:
51,214,135188,2,0,L|129:229,1,59.9999981689454,0|0,1:2|0:0,0:0:0:0:
247,361,135388,2,0,L|305:349,1,59.9999981689454,8|0,0:0|0:0,0:0:0:0:
389,215,135588,5,0,1:0:0:0:
389,215,135688,2,0,B|356:270|356:270|394:341,1,119.999996337891,8|8,0:0|0:0,0:0:0:0:
508,283,135988,2,0,L|449:272,1,59.9999981689454,0|0,1:0|0:0,0:0:0:0:
333,140,136188,2,0,L|392:129,1,59.9999981689454,8|0,0:0|0:0,0:0:0:0:
275,273,136388,5,4,1:2:0:0:
275,273,136488,2,0,P|260:189|243:103,1,119.999996337891,8|8,0:0|0:0,0:0:0:0:
273,18,136788,2,0,L|286:91,1,59.9999981689454,0|0,1:0|0:0,0:0:0:0:
116,145,136988,6,0,L|189:158,1,59.9999981689454,10|0,0:0|0:0,0:0:0:0:
302,283,137188,1,2,1:2:0:0:
302,283,137288,1,8,0:0:0:0:
302,283,137388,2,0,L|315:210,1,59.9999981689454,10|0,0:0|0:0,0:0:0:0:
166,66,137588,2,0,L|176:125,1,59.9999981689454,2|0,1:2|0:0,0:0:0:0:
43,373,137788,2,0,L|53:313,1,59.9999981689454,10|0,0:0|0:0,0:0:0:0:
72,209,137988,5,4,1:2:0:0:
95,174,138088,1,8,0:0:0:0:
133,156,138188,1,8,0:0:0:0:
175,155,138288,1,8,0:0:0:0:
214,169,138388,1,8,0:0:0:0:
245,196,138488,1,8,0:0:0:0:
281,216,138588,1,8,0:0:0:0:
323,212,138688,1,8,0:0:0:0:
358,189,138788,5,8,1:2:0:0:
379,155,138888,1,8,0:0:0:0:
383,113,138988,1,8,0:0:0:0:
372,73,139088,1,8,0:0:0:0:
341,45,139188,1,8,0:0:0:0:
300,40,139288,1,8,0:0:0:0:
269,66,139388,1,8,0:0:0:0:
264,106,139488,1,8,0:0:0:0:
304,119,139588,5,4,1:2:0:0:
212,359,140188,5,2,0:0:0:0:
132,311,140388,1,2,0:0:0:0:
292,215,140588,1,2,0:0:0:0:
192,123,140788,2,0,L|216:273,1,150,2|0,0:0|0:0,0:0:0:0:
287,315,141188,5,0,1:0:0:0:
256,192,141288,12,4,144388,0:0:0:0:
74,215,153988,5,4,1:2:0:0:
131,280,154188,2,0,P|198:298|325:333,1,200,0|0,1:0|0:0,0:0:0:0:
415,238,154788,1,8,0:0:0:0:
415,238,154988,1,8,0:0:0:0:
493,309,155188,2,0,P|445:347|400:345,1,100,2|0,0:0|1:0,0:0:0:0:
295,203,155588,6,0,P|312:257|325:310,1,100,2|0,1:2|0:0,0:0:0:0:
431,144,155988,2,0,P|443:95|458:47,1,100,2|0,1:2|0:0,0:0:0:0:
319,188,156388,1,10,0:0:0:0:
462,138,156588,1,10,0:0:0:0:
317,25,156788,2,0,B|198:30|240:102|132:115,1,200,2|0,0:0|1:0,0:0:0:0:
31,30,157388,5,2,0:0:0:0:
31,30,157488,1,2,0:0:0:0:
31,30,157588,2,0,P|50:99|72:196,1,150,2|0,0:0|0:0,0:0:0:0:
5,312,157988,1,8,0:0:0:0:
5,312,158188,1,8,0:0:0:0:
98,379,158388,2,0,P|128:336|117:285,1,100,2|0,1:2|0:0,0:0:0:0:
85,193,158788,6,0,P|77:139|111:97,1,100,2|0,1:2|0:0,0:0:0:0:
262,141,159188,2,0,P|212:150|164:161,1,100,2|0,1:2|0:0,0:0:0:0:
213,303,159588,2,0,P|262:312|310:323,1,100,10|8,0:0|0:3,0:0:0:0:
375,136,159988,2,0,P|335:179|392:269,1,150,2|0,0:0|0:0,0:0:0:0:
442,316,160388,6,0,B|452:243|472:166|472:166|470:137|433:83,1,200,2|0,1:2|0:0,0:0:0:0:
390,61,160988,1,0,1:0:0:0:
294,205,161188,1,8,0:0:0:0:
294,205,161388,1,8,0:0:0:0:
206,40,161588,2,0,P|272:25|338:15,1,100,2|0,0:0|1:0,0:0:0:0:
139,154,161988,6,0,P|73:139|7:129,1,100,2|0,1:2|1:0,0:0:0:0:
159,309,162388,2,0,P|225:294|291:284,1,100,2|0,1:2|0:0,0:0:0:0:
413,114,162788,1,10,0:0:0:0:
344,267,162988,1,10,0:0:0:0:
166,86,163188,6,0,B|285:91|243:163|351:176,2,200,2|0|0,0:0|1:0|0:0,0:0:0:0:
130,248,164188,1,2,1:2:0:0:
130,248,164288,1,2,0:0:0:0:
130,248,164388,2,0,P|182:194|171:138,1,100,10|8,0:0|0:3,0:0:0:0:
80,71,164788,2,0,P|94:135|104:177,1,100,2|4,0:0|0:3,0:0:0:0:
251,263,165188,6,0,P|261:214|272:165,1,100,2|0,1:2|0:0,0:0:0:0:
400,43,165588,2,0,P|414:107|424:149,1,100,2|0,0:0|1:0,0:0:0:0:
356,277,165988,1,10,0:0:0:0:
501,194,166188,1,10,0:0:0:0:
262,94,166388,1,2,0:0:0:0:
319,192,166588,1,0,1:0:0:0:
396,18,166788,6,0,B|293:-27|294:96|171:1,1,200,4|0,1:2|0:0,0:0:0:0:
60,178,167388,1,0,1:0:0:0:
213,122,167588,1,8,0:0:0:0:
213,122,167788,1,8,0:0:0:0:
126,14,167988,2,0,P|89:54|112:126,1,100,2|0,0:0|1:0,0:0:0:0:
202,208,168388,6,0,P|200:256|164:296,1,100,2|0,1:2|0:0,0:0:0:0:
7,194,168788,2,0,P|69:208|118:221,1,100,2|0,1:2|0:0,0:0:0:0:
237,358,169188,1,10,0:0:0:0:
198,176,169388,1,2,1:2:0:0:
150,339,169588,6,0,B|227:337|287:293|287:293|375:291|473:351,1,300,2|0,0:0|0:0,0:0:0:0:
503,275,170388,2,0,P|484:205|472:147,1,100,2|0,0:0|1:0,0:0:0:0:
499,35,170788,1,8,0:0:0:0:
499,35,170988,1,8,0:0:0:0:
389,144,171188,2,0,P|351:87|261:95,1,150,2|0,0:0|0:0,0:0:0:0:
228,158,171588,6,0,P|247:228|259:286,1,100,0|0,1:2|1:0,0:0:0:0:
143,376,171988,2,0,P|92:375|52:330,1,100,2|0,0:0|1:0,0:0:0:0:
123,189,172388,2,0,P|147:233|128:290,1,100,10|0,0:0|0:0,0:0:0:0:
241,361,172788,2,0,P|289:349|343:339,1,100,2|0,0:0|1:0,0:0:0:0:
399,240,173188,6,0,B|406:184|452:157|452:157|431:111|368:94,2,200,2|0|8,1:2|0:0|0:0,0:0:0:0:
187,130,174388,1,2,0:0:0:0:
287,75,174588,1,0,1:2:0:0:
287,75,174788,2,0,P|274:154|253:279,2,200,0|0|8,1:2|1:0|0:0,0:0:0:0:
176,311,175988,5,2,0:0:0:0:
344,230,176188,1,2,1:2:0:0:
187,130,176388,2,0,B|68:135|110:207|2:220,2,200,2|0|8,1:2|0:0|0:0,0:0:0:0:
279,353,177588,5,2,0:0:0:0:
206,288,177788,1,2,1:2:0:0:
288,247,177988,2,0,P|350:266|475:317,1,200,0|0,1:2|0:0,0:0:0:0:
423,183,178588,1,0,1:0:0:0:
305,342,178788,2,0,P|237:355|105:386,1,200,10|0,0:0|0:0,0:0:0:0:
0,252,179388,1,0,1:2:0:0:
71,101,179588,6,0,B|71:161|71:161|71:224|150:224|150:224|212:224|212:224|261:322|261:322|314:224|314:224|510:224,1,640,6|2,1:2|0:0,0:0:0:0:
299,26,184988,5,0,0:0:0:0:
238,93,185188,2,0,P|172:79|86:63,2,120
286,208,185988,1,2,0:0:0:0:
307,190,186588,5,0,0:0:0:0:
381,267,186788,2,0,P|447:253|533:237,2,120
316,376,187588,1,2,0:0:0:0:
295,356,188188,5,0,0:0:0:0:
223,292,188388,2,0,P|237:226|253:140,2,120
117,372,189188,2,0,P|54:361|33:328,1,80,2|0,0:0|0:0,0:0:0:0:
89,214,189588,2,0,P|101:265|109:307,1,80
15,187,189988,2,0,P|42:150|128:147,2,120
21,269,190788,1,2,0:0:0:0:
45,258,191388,5,0,0:0:0:0:
91,333,191588,1,2,0:0:0:0:
206,212,191788,1,0,0:0:0:0:
128,250,191988,1,2,0:0:0:0:
263,366,192188,5,0,0:0:0:0:
263,366,192288,1,0,0:0:0:0:
263,366,192388,2,0,P|276:301|291:222,1,110.000003356934,12|0,0:0|0:0,0:0:0:0:
357,219,192688,2,0,P|344:154|329:75,1,110.000003356934,8|0,0:0|0:0,0:0:0:0:
269,65,192988,1,10,0:0:0:0:
185,193,193188,6,0,P|128:216|68:178,1,110.000003356934,10|0,0:0|0:0,0:0:0:0:
30,139,193488,2,8,P|7:82|45:22,1,110.000003356934
100,66,193788,1,10,0:0:0:0:
119,72,193888,1,8,0:0:0:0:
138,78,193988,1,10,0:0:0:0:
271,27,194188,1,8,0:0:0:0:
271,27,194288,2,0,L|247:159,1,110.000003356934,8|8,0:0|0:0,0:0:0:0:
234,215,194588,6,0,P|257:251|303:264,1,59.9999981689454,10|0,0:0|0:0,0:0:0:0:
431,161,194788,2,0,P|370:175|295:196,1,119.999996337891,8|0,0:0|0:0,0:0:0:0:
230,331,195088,2,0,P|167:353|113:301,1,119.999996337891,10|0,0:0|0:0,0:0:0:0:
89,253,195388,1,10,0:0:0:0:
222,54,195588,6,0,B|260:33|260:33|229:169,1,170.000003242493,4|0,1:2|0:0,0:0:0:0:
341,299,195888,2,0,B|378:276|378:276|245:235,1,170.000003242493,4|0,1:2|0:0,0:0:0:0:
58,186,196188,2,0,L|77:273,1,85.0000016212464,4|0,1:2|0:0,0:0:0:0:
188,353,196388,6,0,B|149:373|149:373|180:237,1,170.000003242493,4|0,1:2|0:0,0:0:0:0:
73,195,196688,2,0,B|36:172|36:172|169:131,1,170.000003242493,4|0,1:2|0:0,0:0:0:0:
350,83,196988,2,0,L|331:170,1,85.0000016212464,4|0,1:2|0:0,0:0:0:0:
285,369,197188,1,4,1:2:0:0:
254,344,197788,5,2,0:0:0:0:
324,294,197988,2,0,P|388:309|444:322,1,119.999996337891,2|2,0:0|0:3,0:0:0:0:
510,278,198288,1,2,0:0:0:0:
510,278,198388,2,0,P|509:212|490:193,1,59.9999981689454,8|0,0:0|0:0,0:0:0:0:
470,145,198588,1,2,0:0:0:0:
262,348,198788,5,4,1:2:0:0:
242,312,198888,1,0,0:0:0:0:
241,270,198988,1,0,0:0:0:0:
263,235,199088,1,0,0:0:0:0:
294,208,199188,1,8,0:0:0:0:
311,170,199288,1,0,0:0:0:0:
311,128,199388,6,0,P|282:73|246:66,1,59.9999981689454,2|0,0:0|0:0,0:0:0:0:
113,164,199588,2,0,P|172:150|254:134,1,119.999996337891,2|0,1:2|0:0,0:0:0:0:
362,33,199888,2,0,P|304:22|245:8,1,119.999996337891,2|0,0:0|0:0,0:0:0:0:
126,78,200188,2,0,P|172:69|236:57,1,59.9999981689454,2|0,0:0|0:0,0:0:0:0:
311,163,200388,5,2,1:2:0:0:
335,195,200488,1,0,0:0:0:0:
340,234,200588,1,0,0:0:0:0:
328,270,200688,1,0,0:0:0:0:
299,296,200788,1,8,0:0:0:0:
261,304,200888,1,0,0:0:0:0:
224,291,200988,6,0,P|184:272|135:262,1,59.9999981689454,2|0,0:0|0:0,0:0:0:0:
45,367,201188,2,0,P|80:327|68:225,1,119.999996337891,2|0,1:2|0:0,0:0:0:0:
16,137,201488,2,0,P|73:181|137:133,1,119.999996337891,2|0,0:0|0:0,0:0:0:0:
238,98,201788,2,0,P|261:117|272:182,1,59.9999981689454,2|0,0:0|0:0,0:0:0:0:
173,285,201988,6,0,P|184:231|203:115,1,119.999996337891,2|0,1:2|0:0,0:0:0:0:
347,106,202288,1,0,0:0:0:0:
347,106,202388,2,0,P|354:169|319:214,1,119.999996337891,10|0,0:0|0:0,0:0:0:0:
159,99,202688,1,0,0:0:0:0:
159,99,202788,6,0,P|166:139|175:187,1,59.9999981689454,2|0,1:2|0:0,0:0:0:0:
88,276,202988,1,0,0:0:0:0:
88,276,203088,2,0,P|143:241|214:273,1,119.999996337891,2|0,0:0|0:0,0:0:0:0:
165,381,203388,2,0,P|159:351|154:321,1,59.9999981689454,2|0,0:0|0:0,0:0:0:0:
249,158,203588,5,2,1:2:0:0:
281,141,203688,1,0,0:0:0:0:
317,138,203788,1,0,0:0:0:0:
350,153,203888,1,0,0:0:0:0:
365,186,203988,1,8,0:0:0:0:
363,222,204088,1,0,0:0:0:0:
346,254,204188,6,0,P|319:276|288:280,1,59.9999981689454,2|0,0:0|0:0,0:0:0:0:
205,218,204388,2,0,L|219:289,1,59.9999981689454,2|0,1:2|0:0,0:0:0:0:
384,383,204588,1,0,1:0:0:0:
384,383,204688,1,2,1:2:0:0:
384,383,204788,2,0,L|398:310,1,59.9999981689454,8|0,0:0|0:0,0:0:0:0:
187,239,204988,2,0,L|199:298,1,59.9999981689454,2|0,1:2|0:0,0:0:0:0:
351,171,205188,5,2,1:2:0:0:
371,134,205288,1,0,0:0:0:0:
366,92,205388,1,0,0:0:0:0:
338,61,205488,1,0,0:0:0:0:
297,51,205588,1,8,0:0:0:0:
258,67,205688,1,0,0:0:0:0:
224,95,205788,6,0,P|195:106|150:97,1,59.9999981689454,2|0,0:0|0:0,0:0:0:0:
63,16,205988,2,0,P|79:73|96:159,1,119.999996337891,2|0,1:2|0:0,0:0:0:0:
212,223,206288,2,0,P|196:280|179:366,1,119.999996337891,2|0,0:0|0:0,0:0:0:0:
98,366,206588,2,0,P|104:327|114:280,1,59.9999981689454,2|0,0:0|0:0,0:0:0:0:
160,166,206788,5,2,1:2:0:0:
192,144,206888,1,0,0:0:0:0:
231,144,206988,1,0,0:0:0:0:
265,163,207088,1,0,0:0:0:0:
284,197,207188,1,8,0:0:0:0:
302,230,207288,1,0,0:0:0:0:
332,252,207388,6,0,P|365:264|406:249,1,59.9999981689454,2|0,0:0|0:0,0:0:0:0:
467,130,207588,2,0,L|497:252,1,119.999996337891,2|0,1:2|0:0,0:0:0:0:
387,367,207888,2,0,L|417:245,1,119.999996337891,2|0,0:0|0:0,0:0:0:0:
323,79,208188,1,0,1:0:0:0:
323,79,208288,1,0,1:0:0:0:
323,79,208388,6,0,L|170:122,1,139.999995727539,4|0,1:2|0:0,0:0:0:0:
13,276,208688,2,0,L|166:319,1,139.999995727539,4|0,1:2|0:0,0:0:0:0:
239,227,208988,1,4,1:2:0:0:
463,373,209188,6,0,L|420:220,1,139.999995727539,4|0,1:2|0:0,0:0:0:0:
266,63,209488,2,0,L|223:216,1,139.999995727539,4|0,1:2|0:0,0:0:0:0:
315,289,209788,1,4,1:2:0:0:
458,86,209988,6,0,P|399:50|335:66,1,119.999996337891,6|0,1:2|0:0,0:0:0:0:
334,137,210288,1,0,0:0:0:0:
334,137,210388,1,8,0:0:0:0:
253,349,210588,5,0,1:0:0:0:
246,317,210688,1,8,0:0:0:0:
239,285,210788,1,8,0:0:0:0:
207,77,210988,1,8,0:0:0:0:
367,222,211188,5,8,0:0:0:0:
367,222,211288,1,8,0:0:0:0:
367,222,211388,1,8,0:0:0:0:
55,295,211588,6,0,P|75:223|238:212,1,239.999992675781,6|8,1:2|0:0,0:0:0:0:
317,383,212188,5,2,0:0:0:0:
317,383,212288,1,0,0:0:0:0:
317,383,212388,2,0,P|302:331|284:249,1,119.999996337891,2|0,1:2|0:0,0:0:0:0:
404,146,212688,2,0,P|390:204|374:262,1,119.999996337891,2|0,0:0|0:0,0:0:0:0:
347,77,212988,2,0,P|325:58|281:52,1,59.9999981689454,2|0,0:0|0:0,0:0:0:0:
168,201,213188,5,2,1:2:0:0:
180,230,213288,1,0,0:0:0:0:
205,249,213388,1,0,0:0:0:0:
235,256,213488,1,0,0:0:0:0:
265,246,213588,1,8,0:0:0:0:
286,222,213688,1,0,0:0:0:0:
296,191,213788,6,0,L|281:120,1,59.9999981689454,2|0,0:0|0:0,0:0:0:0:
184,31,213988,2,0,P|128:12|75:40,1,119.999996337891,2|0,1:2|0:0,0:0:0:0:
51,186,214288,2,0,P|87:227|169:212,1,119.999996337891,2|0,0:0|0:0,0:0:0:0:
136,94,214588,2,0,P|127:130|118:166,1,59.9999981689454,2|0,0:0|0:0,0:0:0:0:
254,337,214788,6,0,P|240:275|230:219,1,119.999996337891,2|0,1:2|0:0,0:0:0:0:
210,51,215088,1,0,0:0:0:0:
210,51,215188,2,0,P|245:98|303:107,1,119.999996337891,10|0,0:0|0:0,0:0:0:0:
412,33,215488,1,0,0:0:0:0:
412,33,215588,6,0,P|389:59|382:103,1,59.9999981689454,2|0,1:2|0:0,0:0:0:0:
474,225,215788,2,0,P|434:235|389:247,1,59.9999981689454,2|0,0:0|0:0,0:0:0:0:
300,145,215988,2,0,P|340:155|385:167,1,59.9999981689454,10|0,0:0|0:0,0:0:0:0:
400,321,216188,2,0,P|390:349|369:370,1,59.9999981689454,2|0,0:0|0:0,0:0:0:0:
206,276,216388,2,0,P|274:290|337:307,1,119.999996337891,0|0,1:2|0:0,0:0:0:0:
381,242,216688,1,0,0:0:0:0:
381,242,216788,1,8,0:0:0:0:
264,49,216988,6,0,L|278:110,1,59.9999981689454,2|0,0:0|0:0,0:0:0:0:
198,235,217188,2,0,L|212:174,1,59.9999981689454,2|0,1:2|0:0,0:0:0:0:
138,83,217388,2,0,L|197:95,1,59.9999981689454,2|0,0:0|0:0,0:0:0:0:
352,176,217588,2,0,L|293:188,1,59.9999981689454,10|0,0:0|0:0,0:0:0:0:
132,315,217788,2,0,L|119:257,1,59.9999981689454,2|0,1:2|0:0,0:0:0:0:
226,117,217988,5,0,1:0:0:0:
226,118,218088,2,0,L|190:265,1,119.999996337891,8|8,0:0|0:0,0:0:0:0:
244,350,218388,2,0,P|265:367|322:365,1,59.9999981689454,0|0,1:0|0:0,0:0:0:0:
354,189,218588,2,0,P|324:193|301:211,1,59.9999981689454,8|0,0:0|0:0,0:0:0:0:
388,384,218788,5,0,1:0:0:0:
388,384,218888,2,0,L|352:236,1,119.999996337891,8|8,0:0|0:0,0:0:0:0:
299,97,219188,2,0,L|358:108,1,59.9999981689454,0|0,1:0|0:0,0:0:0:0:
487,206,219388,2,0,L|428:217,1,59.9999981689454,8|0,0:0|0:0,0:0:0:0:
272,296,219588,5,0,1:0:0:0:
272,296,219688,2,0,L|307:148,1,119.999996337891,8|8,0:0|0:0,0:0:0:0:
206,35,219988,2,0,L|223:109,1,59.9999981689454,0|0,1:0|0:0,0:0:0:0:
381,155,220188,6,0,L|398:81,1,59.9999981689454,10|0,0:0|0:0,0:0:0:0:
164,248,220388,1,2,1:2:0:0:
164,248,220488,1,0,0:0:0:0:
164,248,220588,2,0,L|181:322,1,59.9999981689454,10|0,0:0|0:0,0:0:0:0:
337,366,220788,2,0,L|350:307,1,59.9999981689454,2|0,1:2|0:0,0:0:0:0:
226,118,220988,2,0,L|243:192,1,59.9999981689454,10|0,0:0|0:0,0:0:0:0:
130,367,221188,5,0,1:2:0:0:
87,379,221288,1,8,0:0:0:0:
44,365,221388,1,8,0:0:0:0:
17,329,221488,1,8,0:0:0:0:
12,285,221588,1,8,0:0:0:0:
26,242,221688,1,8,0:0:0:0:
60,213,221788,1,8,0:0:0:0:
103,203,221888,1,8,0:0:0:0:
146,209,221988,5,8,1:2:0:0:
183,232,222088,1,8,0:0:0:0:
198,273,222188,1,8,0:0:0:0:
213,314,222288,1,8,0:0:0:0:
251,336,222388,1,8,0:0:0:0:
294,329,222488,1,8,0:0:0:0:
326,299,222588,1,8,0:0:0:0:
330,254,222688,1,8,0:0:0:0:
286,243,222788,5,4,1:2:0:0:
282,65,223388,5,2,0:0:0:0:
134,128,223588,2,0,P|212:146|288:164,1,119.999996337891,2|2,0:0|0:3,0:0:0:0:
486,216,223988,1,8,0:0:0:0:
373,373,224188,5,2,0:0:0:0:
373,373,224288,1,2,0:0:0:0:
373,373,224388,2,0,B|362:328|345:302|345:302|344:256|363:209|363:209|340:171|325:107,2,239.999992675781,6|8|0,1:2|0:0|1:0,0:0:0:0:
403,97,225388,6,0,P|369:72|325:70,1,59.9999981689454,2|0,0:0|0:0,0:0:0:0:
275,87,225588,2,0,P|240:111|197:113,1,59.9999981689454,10|0,0:0|0:0,0:0:0:0:
164,64,225788,2,0,P|142:50|101:39,1,59.9999981689454,2|0,0:0|0:0,0:0:0:0:
41,86,225988,5,0,1:0:0:0:
206,195,226188,1,0,0:0:0:0:
206,195,226288,1,0,0:0:0:0:
206,195,226388,1,8,0:0:0:0:
15,304,226588,6,0,L|31:227,1,59.9999981689454,2|0,0:0|0:0,0:0:0:0:
122,180,226788,2,0,L|90:327,1,119.999996337891,2|0,1:2|0:0,0:0:0:0:
214,371,227088,2,0,L|187:253,1,119.999996337891,2|0,0:0|0:0,0:0:0:0:
331,182,227388,1,2,0:0:0:0:
230,89,227588,5,0,1:0:0:0:
237,121,227688,1,0,0:0:0:0:
244,153,227788,1,0,0:0:0:0:
251,186,227888,1,0,0:0:0:0:
259,218,227988,1,8,0:0:0:0:
289,345,228188,2,0,P|321:363|407:327,1,119.999996337891,0|0,0:0|1:0,0:0:0:0:
502,122,228588,6,0,L|431:138,1,59.9999981689454,2|0,0:0|0:0,0:0:0:0:
369,251,228788,2,0,L|432:265,1,59.9999981689454,10|0,0:0|0:0,0:0:0:0:
306,82,228988,1,2,0:0:0:0:
245,260,229188,6,0,P|192:295|137:282,1,119.999996337891,2|0,1:2|0:0,0:0:0:0:
76,228,229488,1,2,0:0:0:0:
76,228,229588,1,8,0:0:0:0:
243,176,229788,1,2,0:0:0:0:
133,377,229988,1,0,1:2:0:0:
22,162,230188,2,0,L|161:184,1,119.999996337891,2|8,0:0|0:0,0:0:0:0:
339,73,230588,5,2,1:2:0:0:
339,73,230688,1,2,1:2:0:0:
339,73,230788,2,0,B|328:118|311:144|311:144|310:190|329:237|329:237|306:275|291:339,2,239.999992675781,2|8|0,1:2|0:0|1:0,0:0:0:0:
362,351,231788,6,0,P|328:376|284:378,1,59.9999981689454,2|0,0:0|0:0,0:0:0:0:
236,348,231988,2,0,P|201:324|158:322,1,59.9999981689454,10|0,0:0|0:0,0:0:0:0:
111,350,232188,2,0,P|89:364|48:375,1,59.9999981689454,2|0,0:0|0:0,0:0:0:0:
6,311,232388,5,0,1:0:0:0:
191,235,232588,1,0,0:0:0:0:
191,235,232688,1,0,0:0:0:0:
191,235,232788,1,8,0:0:0:0:
73,66,232988,6,0,P|79:92|87:128,1,59.9999981689454,2|0,0:0|0:0,0:0:0:0:
123,277,233188,2,0,P|163:314|250:287,1,119.999996337891,2|0,1:2|0:0,0:0:0:0:
325,144,233488,2,0,P|311:210|299:269,1,119.999996337891,2|0,0:0|0:0,0:0:0:0:
368,338,233788,1,2,0:0:0:0:
506,196,233988,2,0,P|450:159|393:179,1,119.999996337891,0|0,1:2|0:0,0:0:0:0:
387,255,234288,1,0,0:0:0:0:
387,255,234388,1,8,0:0:0:0:
271,45,234588,6,0,P|265:71|257:107,1,59.9999981689454,2|0,0:0|0:0,0:0:0:0:
221,256,234788,2,0,P|181:293|94:266,1,119.999996337891,2|0,1:2|0:0,0:0:0:0:
41,98,235088,2,0,P|55:164|67:223,1,119.999996337891,2|0,0:0|0:0,0:0:0:0:
16,284,235388,1,2,0:0:0:0:
183,181,235588,5,4,1:2:0:0:
229,174,235688,1,8,0:0:0:0:
272,194,235788,1,8,0:0:0:0:
297,235,235888,1,8,0:0:0:0:
297,282,235988,2,0,L|286:354,1,59.9999981689454,8|8,0:0|0:3,0:0:0:0:
397,372,236188,5,10,0:3:0:0:
397,372,236288,1,8,0:3:0:0:
397,372,236388,2,0,B|371:315|371:315|382:244,1,119.999996337891,8|0,0:3|0:0,0:0:0:0:
443,207,236688,1,4,0:3:0:0:
443,207,236788,1,8,0:0:0:0:
264,134,236988,1,2,0:0:0:0:
329,13,237188,5,4,1:2:0:0:
329,13,237288,2,0,L|321:69,1,55.0000016784668
300,215,237488,2,0,B|248:231|248:231|185:193,1,110.000003356934,2|0,0:0|0:0,0:0:0:0:
141,136,237788,2,0,L|133:81,2,55.0000016784668,0|0|0,0:0|0:0|1:0,0:0:0:0:
59,238,238088,2,0,P|135:253|168:314,1,110.000003356934,2|0,0:0|0:0,0:0:0:0:
98,366,238388,2,0,P|80:322|94:284,1,55.0000016784668,8|0,0:0|0:0,0:0:0:0:
200,202,238588,1,0,0:0:0:0:
259,318,238788,5,0,1:2:0:0:
282,350,238888,1,0,0:0:0:0:
320,366,238988,1,0,0:0:0:0:
360,358,239088,2,0,L|337:219,1,110.000003356934,2|0,0:0|0:0,0:0:0:0:
412,190,239388,2,0,L|423:120,2,55.0000016784668,0|0|0,0:0|0:0|1:2,0:0:0:0:
368,61,239688,2,0,P|315:51|270:82,1,110.000003356934,2|0,0:0|0:0,0:0:0:0:
228,158,239988,2,0,P|176:183|152:179,1,55.0000016784668,8|0,0:0|0:0,0:0:0:0:
158,48,240188,2,0,L|168:103,1,55.0000016784668
93,219,240388,5,0,1:2:0:0:
93,219,240488,2,0,L|102:164,1,55.0000016784668
242,263,240688,2,0,L|222:384,1,110.000003356934,2|0,0:0|0:0,0:0:0:0:
163,264,240988,2,0,L|172:209,2,55.0000016784668,0|0|0,0:0|0:0|1:0,0:0:0:0:
185,133,241288,2,0,P|220:102|317:133,1,110.000003356934,2|0,0:0|0:0,0:0:0:0:
302,192,241588,2,0,P|274:188|251:174,1,55.0000016784668,8|0,0:0|0:0,0:0:0:0:
306,25,241788,1,0,0:0:0:0:
386,182,241988,5,0,1:2:0:0:
381,218,242088,1,0,0:0:0:0:
376,254,242188,1,0,0:0:0:0:
371,290,242288,2,0,B|318:314|318:314|246:266,1,110.000003356934,2|0,0:0|0:0,0:0:0:0:
213,228,242588,2,0,L|222:173,2,55.0000016784668,0|0|0,0:0|0:0|1:2,0:0:0:0:
194,345,242888,2,0,P|141:355|96:324,1,110.000003356934,2|0,0:0|0:0,0:0:0:0:
64,247,243188,2,0,P|12:222|-12:226,1,55.0000016784668,10|0,0:0|0:0,0:0:0:0:
0,362,243388,2,0,L|10:307,1,55.0000016784668,2|0,1:2|0:0,0:0:0:0:
142,219,243588,5,0,1:0:0:0:
142,219,243688,2,0,L|123:66,1,110.000003356934,8|8,0:0|0:0,0:0:0:0:
214,24,243988,2,0,P|255:35|275:53,1,55.0000016784668,0|0,1:0|0:0,0:0:0:0:
219,159,244188,2,0,L|209:82,1,55.0000016784668,8|0,0:0|0:0,0:0:0:0:
381,46,244388,1,0,1:0:0:0:
381,46,244488,2,0,L|292:123,1,110.000003356934,8|8,0:0|0:0,0:0:0:0:
416,203,244788,2,0,L|343:129,1,55.0000016784668,0|0,1:0|0:0,0:0:0:0:
264,42,244988,1,8,0:0:0:0:
191,280,245188,5,0,1:0:0:0:
191,280,245288,2,0,L|341:312,1,110.000003356934,8|8,0:0|0:0,0:0:0:0:
349,369,245588,2,0,P|370:344|376:308,1,55.0000016784668,0|0,1:0|0:0,0:0:0:0:
320,190,245788,2,0,P|328:215|347:236,1,55.0000016784668,8|0,0:0|0:0,0:0:0:0:
483,173,245988,1,0,1:0:0:0:
483,173,246088,2,0,L|460:288,1,110.000003356934,8|8,0:0|0:0,0:0:0:0:
412,96,246388,2,0,L|422:41,1,55.0000016784668,0|0,1:0|0:0,0:0:0:0:
398,171,246588,1,8,0:0:0:0:
253,59,246788,5,8,1:2:0:0:
215,30,246888,1,8,0:0:0:0:
169,26,246988,1,8,0:0:0:0:
127,46,247088,1,8,0:0:0:0:
102,85,247188,1,8,0:0:0:0:
101,131,247288,1,8,0:0:0:0:
124,172,247388,1,8,0:0:0:0:
165,194,247488,1,8,0:0:0:0:
210,224,247588,5,8,1:2:0:0:
230,274,247688,1,8,0:0:0:0:
219,328,247788,1,8,0:0:0:0:
181,366,247888,1,8,0:0:0:0:
128,377,247988,2,0,L|115:316,3,55.0000016784668,8|8|8|8,0:0|0:0|0:0|0:0,0:0:0:0:
103,242,248388,5,4,1:2:0:0:
129,247,248488,1,8,0:0:0:0:
156,253,248588,1,8,0:0:0:0:
183,259,248688,1,8,0:0:0:0:
210,264,248788,2,0,L|287:280,1,55.0000016784668,8|8,0:0|0:3,0:0:0:0:
367,358,248988,1,8,0:3:0:0:
367,358,249088,1,8,0:3:0:0:
367,358,249188,2,0,L|336:212,1,110.000003356934,8|0,0:3|0:0,0:0:0:0:
322,139,249488,1,8,0:3:0:0:
322,139,249588,2,0,P|368:104|406:107,1,55.0000016784668,8|0,0:0|0:0,0:0:0:0:
446,191,249788,2,0,L|392:179,1,55.0000016784668,4|0,0:3|0:0,0:0:0:0:
260,66,249988,6,0,L|154:84,2,80,6|0|0,0:0|0:0|0:0,0:0:0:0:
373,11,250788,1,2,0:0:0:0:
448,112,251188,1,0,0:0:0:0:
333,202,251588,5,0,0:0:0:0:
303,119,251788,1,0,0:0:0:0:
339,224,251988,1,0,0:0:0:0:
461,277,252388,1,2,0:0:0:0:
332,363,252788,2,0,P|276:340|192:317,1,120
140,321,253188,6,0,P|85:336|41:353,2,80
216,214,253988,1,2,0:0:0:0:
134,87,254388,1,0,0:0:0:0:
279,124,254788,5,0,0:0:0:0:
309,41,254988,1,0,0:0:0:0:
273,146,255188,1,0,0:0:0:0:
133,203,255588,1,2,0:0:0:0:
214,266,255988,1,0,0:0:0:0:
343,200,256388,6,0,P|351:161|367:94,2,80
236,283,257188,1,2,0:0:0:0:
347,372,257588,1,0,0:0:0:0:
453,296,257988,5,0,0:0:0:0:
370,266,258188,1,0,0:0:0:0:
475,302,258388,1,0,0:0:0:0:
392,182,258788,1,2,0:0:0:0:
285,362,259188,2,0,P|274:302|257:219,1,120
258,162,259588,6,0,P|267:118|290:63,2,80
176,296,260388,1,2,0:0:0:0:
342,218,260788,1,0,0:0:0:0:
228,10,261188,5,2,0:0:0:0:
165,62,261388,1,2,0:0:0:0:
205,136,261588,5,2,0:0:0:0:
275,177,261788,1,0,0:0:0:0:
223,247,261988,5,2,0:0:0:0:
186,270,262188,1,2,0:0:0:0:
254,335,262388,5,2,0:0:0:0:
285,348,262588,1,0,0:0:0:0:
262,373,262788,5,2,0:0:0:0:
256,192,262988,12,0,265988,0:0:0:0:
