osu file format v14

[General]
AudioFilename: audio.mp3
AudioLeadIn: 0
PreviewTime: 55173
Countdown: 0
SampleSet: Soft
StackLeniency: 0.7
Mode: 0
LetterboxInBreaks: 0
WidescreenStoryboard: 1

[Editor]
Bookmarks: 1367,23369,28855,34341,39827,48055,56284,67255,78227,100169,100255,100341,100427,100512,100598,100684,100769,100855,100941,101027,101112,101198,101284,101369,101455,101541,101627,101712,101798,101884,101969,102055,102141,102227,102312,102398,102484,102569,102655,102741,102827,102912,102998,103084,103169,103255,103341,103427,103512,103598,103684,103769,103855,103941,104027,104112,104198,104284,104369,104455,104541,104627,104712,104798,104884,104969,105055,105141,105227,105312,105398,105484,105569,105655,111141,122112,133084,133427,133598,133769,133941,134112,134284,134455,134627,134798,134969,135141,135312,135484,135655,135827,135998,136169,136341,136512,136684,136855,137027,137198,137369,137541,137712,137884,138055,138227,138398,138569,138741,138912,139084,139255,139427,139598,139769,139941,140112,140284,140455,140627,140798,140969,141141,141312,141484,141655,141827,141998,142169,142341,142512,142684,144055,146798,155027,155198,155284,155369,155455,155541,155627,155712,155798,155884,155969,156055,156141,156227,156312,156398,156484,156569,156655,156741,156827,156912,156998,157084,157169,157255,157341,157427,157512,157598,157684,157769,157855,157941,158027,158112,158198,158284,158369,158455,158541,158627,158712,158798,158884,158969,159055,159141,159227,159312,159398,159484,159569,159655,159741,159827,159912,159998,160084,160169,160255,160341,160427,160512,160598,160684,160769,160855,160941,161027,161112,161198,161284,161369,161455,161541,161627,161712,161798,161884,161969,162055,162141,162227,162312,162398,162484,162569,162655,162741,162827,162912,162998,163084,163169,163255,163341,163427,163512,163598,163684,163769,163855,163941,164027,164112,164198,164284,164369,164455,164541,164627,164712,164798,164884,164969,165055,165141,165227,165312,165398,165484,165569,165655,165741,165827,165912,165998,171484,178341,189312,200284
DistanceSpacing: 0.9
BeatDivisor: 4
GridSize: 4
TimelineZoom: 1.8

[Metadata]
Title:Marine Bloomin'
TitleUnicode:Marine Bloomin'
Artist:Hachioji P x Marty Friedman x Kano
ArtistUnicode:八王子P × マーティ・フリードマン × 鹿乃
Creator:Firika
Version:sinn's Normal
Source:
Tags:アイマリンプロジェクト imarine project japanese jpop 8#prince hachiojip わかむらp wakamurap papple104 Dored sinn
BeatmapID:1880009
BeatmapSetID:819424

[Difficulty]
HPDrainRate:4
CircleSize:3
OverallDifficulty:4
ApproachRate:5
SliderMultiplier:1.1
SliderTickRate:1

[Events]
//Background and Video events
0,0,"Marine Bloomin'.jpg",0,0
//Break Periods
2,100373,104459
2,133288,141831
2,155230,164802
2,203231,204573
//Storyboard Layer 0 (Background)
//Storyboard Layer 1 (Fail)
//Storyboard Layer 2 (Pass)
//Storyboard Layer 3 (Foreground)
//Storyboard Layer 4 (Overlay)
//Storyboard Sound Samples

[TimingPoints]
1431,342.857142857143,4,2,2,40,1,0
5545,-100,4,2,2,45,0,0
5888,-100,4,2,3,45,0,0
6916,-100,4,2,6,50,0,0
12059,-100,4,2,5,60,0,0
12402,-100,4,2,4,60,0,0
17888,-100,4,2,4,65,0,0
23373,-100,4,2,4,55,0,0
34345,-100,4,2,4,60,0,0
45316,-100,4,2,4,55,0,0
50802,-100,4,2,4,60,0,0
53545,-100,4,2,4,65,0,0
55945,-100,4,2,5,70,0,0
56288,-100,4,2,4,75,0,1
76688,-100,4,2,4,70,0,0
77888,-100,4,2,5,75,0,0
78231,-100,4,2,6,65,0,1
80631,-100,4,2,98,65,0,1
80973,-100,4,2,6,65,0,1
86116,-100,4,2,98,65,0,1
86459,-100,4,2,4,65,0,1
87659,-100,4,2,4,60,0,0
88859,-100,4,2,5,60,0,0
89202,-117.647058823529,4,2,4,55,0,0
100173,-117.647058823529,4,2,4,40,0,0
105659,-100,4,2,4,60,0,0
108402,-100,4,2,4,65,0,0
110802,-100,4,2,5,70,0,0
111145,-100,4,2,4,75,0,1
131545,-100,4,2,4,70,0,0
132745,-100,4,2,5,75,0,0
133088,-100,4,2,4,60,0,0
149545,-100,4,2,4,70,0,0
152288,-100,4,2,4,75,0,0
155031,-100,4,2,4,65,0,0
166002,-100,4,2,4,60,0,0
166345,-100,4,2,6,60,0,0
171488,-100,4,2,4,70,0,1
174231,-100,4,2,4,75,0,1
176973,-100,4,2,4,70,0,0
178345,-90.9090909090909,4,2,4,80,0,1
198745,-90.9090909090909,4,2,4,80,0,0
199945,-90.9090909090909,4,2,5,75,0,0
200288,-100,4,2,4,65,0,0
205773,-100,4,2,4,70,0,0
209716,-100,4,2,4,75,0,0
211088,-100,4,2,4,5,0,0

[Colours]
Combo1 : 128,255,255
Combo2 : 255,255,128
Combo3 : 192,192,192
Combo4 : 255,128,191

[HitObjects]
51,329,1431,6,0,P|95:303|167:303,1,110,2|0,0:0|0:0,0:0:0:0:
236,351,2116,1,2,0:0:0:0:
236,351,2288,2,0,P|285:338|336:287,1,110,2|0,0:0|0:0,0:0:0:0:
356,257,2802,5,2,0:0:0:0:
258,145,3316,2,0,L|145:152,1,110,2|2,0:0|0:0,0:0:0:0:
65,206,4002,5,0,0:0:0:0:
65,206,4174,2,0,P|55:153|63:89,1,110,2|2,0:0|0:0,0:0:0:0:
74,49,4688,2,0,P|120:69|179:57,1,110,2|0,0:0|0:0,0:0:0:0:
217,29,5202,1,2,0:0:0:0:
300,82,5545,5,2,0:0:0:0:
345,170,5888,2,0,P|381:135|400:78,2,110,2|2|2,0:0|0:0|0:0,0:0:0:0:
247,152,6916,6,0,P|189:158|146:198,1,110,6|0,0:0|0:0,0:0:0:0:
139,289,7602,2,0,L|146:347,2,55,0|0|0,0:0|0:0|0:0,0:0:0:0:
102,255,8116,2,0,P|55:259|3:222,1,110,0|0,0:0|0:0,0:0:0:0:
1,175,8631,2,0,L|14:56,1,110,0|0,0:0|0:0,0:0:0:0:
34,20,9145,2,0,P|56:41|84:52,1,55,0|0,0:0|0:0,0:0:0:0:
172,19,9659,6,0,L|163:132,1,110,0|0,0:0|0:0,0:0:0:0:
139,172,10173,2,0,P|188:155|250:169,1,110,0|0,0:0|0:0,0:0:0:0:
277,202,10688,1,0,0:0:0:0:
277,202,10859,2,0,P|284:265|355:221,1,165,0|0,0:0|0:0,0:0:0:0:
336,137,11716,2,0,L|343:79,1,55,0|0,0:0|0:0,0:0:0:0:
348,33,12059,1,8,0:0:0:0:
263,84,12402,6,0,B|210:98|210:98|176:91,2,82.5,6|6|6,2:0|2:0|2:0,0:0:0:0:
268,182,13259,2,0,L|215:196,2,55,2|8|0,0:0|0:0|0:0,0:0:0:0:
312,203,13773,2,0,P|341:252|257:269,1,165,0|0,3:0|3:0,0:0:0:0:
212,278,14459,2,0,L|100:305,1,110,0|2,0:0|3:2,0:0:0:0:
58,285,14973,1,8,3:2:0:0:
58,285,15145,6,0,B|47:228|47:228|54:200,2,82.5,6|6|6,0:0|0:0|0:0,0:0:0:0:
174,377,16173,1,8,0:0:0:0:
249,312,16516,2,0,P|292:290|357:307,1,110,0|0,3:0|0:0,0:0:0:0:
384,338,17031,2,0,L|397:226,1,110,0|0,3:0|0:0,0:0:0:0:
418,184,17545,2,0,L|423:128,1,55,2|8,3:2|3:2,0:0:0:0:
447,86,17888,6,0,P|403:110|340:104,1,110,6|2,0:0|0:0,0:0:0:0:
270,40,18573,2,0,L|258:102,1,55,2|8,0:0|0:0,0:0:0:0:
223,128,18916,2,0,L|235:190,1,55,2|8,0:0|0:0,0:0:0:0:
276,207,19259,6,0,P|224:220|191:272,1,110,6|2,0:0|0:0,0:0:0:0:
257,339,19945,1,2,0:0:0:0:
345,295,20288,1,2,0:0:0:0:
405,373,20631,6,0,P|438:327|440:274,1,110,12|8,0:0|0:0,0:0:0:0:
428,226,21145,1,12,0:0:0:0:
428,226,21316,2,0,L|310:205,1,110,8|8,0:0|0:0,0:0:0:0:
269,204,21831,2,0,B|249:314|249:314|224:262,1,165,12|0,0:0|1:0,0:0:0:0:
139,315,22688,2,0,P|128:294|125:259,1,55,0|0,1:0|1:0,0:0:0:0:
141,216,23031,2,0,P|152:195|155:160,1,55,8|2,0:0|0:0,0:0:0:0:
144,116,23373,5,6,0:0:0:0:
194,28,23716,2,0,P|269:57|361:58,1,165,8|2,0:0|0:0,0:0:0:0:
401,47,24402,1,10,0:0:0:0:
447,134,24745,2,0,P|407:169|394:227,1,110,2|8,0:0|0:0,0:0:0:0:
421,263,25259,2,0,P|380:245|314:240,1,110,0|2,0:0|0:0,0:0:0:0:
270,259,25773,1,8,0:0:0:0:
179,219,26116,6,0,P|173:166|194:102,1,110,2|8,0:0|0:0,0:0:0:0:
210,67,26631,1,0,0:0:0:0:
281,133,26973,2,0,P|308:130|337:115,1,55,2|8,0:0|0:0,0:0:0:0:
369,84,27316,6,0,L|358:202,1,110,2|2,0:0|0:0,0:0:0:0:
374,240,27831,2,0,L|368:307,1,55,8|2,0:0|0:0,0:0:0:0:
282,342,28345,2,0,L|276:275,1,55,2|8,0:0|0:0,0:0:0:0:
235,197,28859,5,6,0:0:0:0:
165,267,29202,2,0,P|91:253|13:193,1,165,8|2,0:0|0:0,0:0:0:0:
8,152,29888,1,8,0:0:0:0:
91,98,30231,2,0,P|143:101|199:67,1,110,2|8,0:0|0:0,0:0:0:0:
226,37,30745,2,0,P|206:88|226:151,1,110,0|2,0:0|0:0,0:0:0:0:
240,184,31259,1,8,0:0:0:0:
320,126,31602,6,0,L|432:136,1,110,2|8,0:0|0:0,0:0:0:0:
478,143,32116,1,0,0:0:0:0:
421,224,32459,2,0,P|411:254|414:282,1,55,2|8,0:0|0:0,0:0:0:0:
447,311,32802,2,0,L|335:296,1,110,6|0,0:0|3:0,0:0:0:0:
289,288,33316,1,0,1:0:0:0:
208,230,33659,2,0,P|204:205|206:171,1,55,0|0,1:0|1:0,0:0:0:0:
235,136,34002,2,0,P|239:111|237:77,1,55,8|2,0:0|0:0,0:0:0:0:
222,34,34345,6,0,P|174:55|112:56,1,110,6|8,0:0|0:0,0:0:0:0:
33,110,35031,2,0,P|29:143|32:168,2,55,0|2|8,0:0|0:0|0:0,0:0:0:0:
124,149,35716,2,0,P|131:199|125:269,1,110,2|8,0:0|0:0,0:0:0:0:
99,299,36231,2,0,P|150:281|214:290,1,110,0|2,0:0|0:0,0:0:0:0:
248,310,36745,1,8,0:0:0:0:
338,349,37088,6,0,P|367:308|367:230,1,110,2|8,0:0|0:0,0:0:0:0:
354,203,37602,1,0,0:0:0:0:
261,239,37945,2,0,L|200:232,1,55,2|8,0:0|0:0,0:0:0:0:
161,255,38288,2,0,P|184:208|181:148,1,110,2|2,0:0|0:0,0:0:0:0:
152,111,38802,2,0,L|159:45,1,55,8|2,0:0|0:0,0:0:0:0:
250,20,39316,2,0,L|257:86,1,55,2|8,0:0|0:0,0:0:0:0:
341,124,39831,6,0,P|361:175|345:237,1,110,6|8,0:0|0:0,0:0:0:0:
289,305,40516,2,0,P|258:305|229:302,2,55,0|2|8,0:0|0:0|0:0,0:0:0:0:
264,208,41202,2,0,P|221:201|145:207,1,110,2|8,0:0|0:0,0:0:0:0:
113,233,41716,2,0,P|125:195|99:129,1,110,0|2,0:0|0:0,0:0:0:0:
59,103,42231,1,8,0:0:0:0:
23,195,42573,6,0,L|29:317,1,110,2|8,0:0|0:0,0:0:0:0:
5,349,43088,2,0,P|57:327|111:331,1,110,0|2,0:0|0:0,0:0:0:0:
151,357,43602,1,8,0:0:0:0:
151,357,43773,2,0,L|146:238,1,110,6|0,0:0|3:0,0:0:0:0:
145,197,44288,1,0,1:0:0:0:
233,241,44631,2,0,P|261:238|293:229,1,55,0|0,1:0|1:0,0:0:0:0:
324,199,44973,2,0,P|352:202|384:211,1,55,0|0,1:0|1:0,0:0:0:0:
409,247,45316,5,6,0:0:0:0:
452,104,45831,1,2,0:0:0:0:
452,104,46002,1,8,0:0:0:0:
369,70,46345,1,2,0:0:0:0:
369,70,46516,2,0,P|318:88|253:90,1,110,0|0,0:0|0:0,0:0:0:0:
222,61,47031,2,0,P|251:108|244:166,1,110,2|8,0:0|0:0,0:0:0:0:
187,240,47716,2,0,L|132:233,1,55,2|0,0:0|0:0,0:0:0:0:
87,253,48059,6,0,B|110:211|110:211|94:88,1,165,6|2,0:0|0:0,0:0:0:0:
64,55,48745,2,0,L|176:75,1,110,8|2,0:0|0:0,0:0:0:0:
320,66,49602,1,2,0:0:0:0:
320,66,49773,2,0,P|317:102|308:132,1,55,8|2,0:0|0:0,0:0:0:0:
275,153,50116,2,0,P|331:156|376:193,1,110,8|2,0:0|0:0,0:0:0:0:
296,252,50802,6,0,L|176:241,1,110,6|2,0:0|0:0,0:0:0:0:
99,194,51488,2,0,P|113:173|139:152,1,55,2|8,0:0|0:0,0:0:0:0:
183,140,51831,1,2,0:0:0:0:
183,140,52002,2,0,L|307:150,1,110,6|2,0:0|0:0,0:0:0:0:
338,168,52516,2,0,L|343:109,1,55,8|2,0:0|0:0,0:0:0:0:
437,83,53031,2,0,L|432:142,1,55,2|8,0:0|0:0,0:0:0:0:
434,187,53373,1,8,0:0:0:0:
434,187,53545,6,0,B|459:237|459:237|450:301,1,110,12|8,0:0|0:0,0:0:0:0:
469,336,54059,2,0,P|390:306|332:355,1,165,8|12,0:0|0:0,0:0:0:0:
32,93,55945,1,8,0:0:0:0:
115,147,56288,6,0,P|129:203|127:258,1,110,6|8,0:0|0:0,0:0:0:0:
69,334,56973,2,0,P|48:341|18:357,2,55,0|2|8,0:0|0:0|0:0,0:0:0:0:
116,349,57488,2,0,P|160:355|219:318,1,110,2|2,0:0|0:0,0:0:0:0:
224,274,58002,2,0,L|230:208,1,55,8|2,0:0|0:0,0:0:0:0:
320,177,58516,2,0,L|326:243,1,55,2|8,0:0|0:0,0:0:0:0:
350,327,59031,6,0,P|396:308|424:245,1,110,2|8,0:0|0:0,0:0:0:0:
401,160,59716,2,0,P|401:129|406:99,2,55,0|2|8,0:0|0:0|0:0,0:0:0:0:
365,194,60231,2,0,P|314:182|261:150,1,110,2|2,0:0|0:0,0:0:0:0:
221,128,60745,2,0,P|216:162|206:208,1,55,8|2,0:0|0:0,0:0:0:0:
115,203,61259,2,0,P|120:169|130:123,1,55,2|8,0:0|0:0,0:0:0:0:
63,70,61773,6,0,L|179:55,1,110,2|8,0:0|0:0,0:0:0:0:
257,6,62459,2,0,P|276:32|281:61,2,55,0|2|8,0:0|0:0|0:0,0:0:0:0:
172,55,63145,2,0,P|176:112|194:175,1,110,2|8,0:0|0:0,0:0:0:0:
219,202,63659,2,0,P|183:180|111:179,1,110,2|2,0:0|0:0,0:0:0:0:
72,200,64173,1,8,0:0:0:0:
37,292,64516,6,0,L|157:308,1,110,2|8,0:0|0:0,0:0:0:0:
188,333,65031,1,2,0:0:0:0:
276,376,65373,2,0,P|285:356|287:307,1,55,2|8,0:0|0:0,0:0:0:0:
262,281,65716,2,0,P|251:237|267:167,1,110,2|2,0:0|0:0,0:0:0:0:
290,132,66231,1,8,0:0:0:0:
388,141,66573,2,0,L|378:204,1,55,8|2,0:0|0:0,0:0:0:0:
353,237,66916,2,0,L|363:300,1,55,8|8,0:0|0:0,0:0:0:0:
388,332,67259,6,0,P|336:314|275:312,1,110,6|8,0:0|0:0,0:0:0:0:
189,349,67945,2,0,P|164:355|132:358,2,55,0|2|8,0:0|0:0|0:0,0:0:0:0:
202,301,68459,2,0,P|197:255|165:199,1,110,2|2,0:0|0:0,0:0:0:0:
124,173,68973,2,0,L|62:167,1,55,8|2,0:0|0:0,0:0:0:0:
70,68,69488,2,0,L|132:62,1,55,2|8,0:0|0:0,0:0:0:0:
214,105,70002,6,0,P|268:109|333:90,1,110,2|8,0:0|0:0,0:0:0:0:
411,54,70688,2,0,P|414:32|413:-9,2,55,0|2|8,0:0|0:0|0:0,0:0:0:0:
401,102,71202,2,0,P|393:153|430:206,1,110,2|2,0:0|0:0,0:0:0:0:
465,225,71716,2,0,L|461:284,1,55,8|2,0:0|0:0,0:0:0:0:
375,329,72231,2,0,L|371:270,1,55,2|8,0:0|0:0,0:0:0:0:
291,215,72745,6,0,P|241:202|185:234,1,110,12|8,0:0|0:0,0:0:0:0:
105,278,73431,1,8,0:0:0:0:
105,278,73602,2,0,L|98:156,1,110,2|2,0:0|0:0,0:0:0:0:
77,123,74116,2,0,P|119:127|179:77,1,110,12|8,0:0|0:0,0:0:0:0:
198,47,74631,1,2,0:0:0:0:
271,112,74973,1,2,0:0:0:0:
271,112,75145,2,0,L|336:102,1,55,8|2,0:0|0:0,0:0:0:0:
374,95,75488,6,0,P|351:136|354:207,1,110,12|8,0:0|0:0,0:0:0:0:
373,242,76002,2,0,P|331:218|260:221,1,110,8|8,0:0|0:0,0:0:0:0:
243,259,76516,2,0,L|249:326,1,55,8|6,0:0|0:0,0:0:0:0:
47,30,77888,1,8,0:0:0:0:
109,106,78231,6,0,L|251:94,1,110,6|8,0:0|3:2,0:0:0:0:
315,78,78916,2,0,L|308:137,1,55,0|2,3:0|3:2,0:0:0:0:
303,181,79259,1,8,3:2:0:0:
296,279,79602,2,0,P|349:268|392:217,2,110,2|8|0,1:2|1:2|3:0,0:0:0:0:
249,262,80459,2,0,L|253:321,1,55,2|8,3:2|3:2,0:0:0:0:
159,351,80973,6,0,L|154:227,1,110,6|8,0:0|0:0,0:0:0:0:
113,150,81659,2,0,P|85:163|51:168,2,55,0|2|8,0:0|0:0|0:0,0:0:0:0:
184,81,82345,2,0,B|246:66|246:66|275:73,2,82.5,2|0|2,0:0|0:0|0:0,0:0:0:0:
223,171,83202,2,0,L|286:155,1,55,2|8,3:2|3:0,0:0:0:0:
374,173,83716,6,0,P|351:222|364:286,1,110,6|8,3:2|3:2,0:0:0:0:
268,317,84402,2,0,P|237:272|175:251,1,110,0|8,3:0|3:2,0:0:0:0:
206,155,85088,2,0,P|259:150|308:107,2,110,0|8|0,3:2|3:2|3:0,0:0:0:0:
117,111,86116,1,8,3:2:0:0:
57,190,86459,6,0,L|51:302,1,110,6|8,0:0|0:0,0:0:0:0:
34,346,86973,2,0,P|76:318|140:323,1,110,2|2,0:0|0:0,0:0:0:0:
176,345,87488,2,0,P|202:357|231:360,1,55,8|2,0:0|0:0,0:0:0:0:
424,74,88859,1,8,0:0:0:0:
460,166,89202,6,0,L|318:153,1,140.250002675057,6|2,0:0|0:0,0:0:0:0:
288,125,89888,2,0,P|297:167|284:219,1,93.500001783371,8|2,0:0|0:0,0:0:0:0:
205,241,90573,2,0,P|160:234|109:237,2,93.500001783371,0|2|8,0:0|0:0|0:0,0:0:0:0:
270,294,91602,2,0,L|324:300,1,46.7500008916855,2|0,0:0|0:0,0:0:0:0:
351,322,91945,6,0,P|360:280|400:241,1,93.500001783371,2|0,0:0|0:0,0:0:0:0:
432,227,92459,1,2,0:0:0:0:
432,227,92631,2,0,P|408:190|409:135,1,93.500001783371,8|2,0:0|0:0,0:0:0:0:
425,103,93145,2,0,L|325:114,1,93.500001783371,8|2,0:0|0:0,0:0:0:0:
249,94,93831,1,2,0:0:0:0:
249,94,94002,2,0,L|241:145,1,46.7500008916855,8|2,0:0|0:0,0:0:0:0:
218,175,94345,2,0,L|226:226,1,46.7500008916855,8|0,0:0|0:0,0:0:0:0:
252,253,94688,6,0,P|199:225|103:244,1,140.250002675057,2|2,0:0|0:0,0:0:0:0:
88,261,95373,2,0,L|95:362,1,93.500001783371,10|2,0:0|0:0,0:0:0:0:
175,330,96059,2,0,P|222:333|269:346,2,93.500001783371,0|2|8,0:0|0:0|0:0,0:0:0:0:
94,354,97088,1,2,0:0:0:0:
19,314,97431,6,0,B|12:275|12:275|32:212,1,93.500001783371,2|0,0:0|0:0,0:0:0:0:
47,186,97945,1,2,0:0:0:0:
47,186,98116,2,0,B|86:179|86:179|149:199,1,93.500001783371,8|8,0:0|0:0,0:0:0:0:
175,214,98631,2,0,L|169:117,1,93.500001783371,6|0,0:0|3:0,0:0:0:0:
166,78,99145,1,0,1:0:0:0:
239,36,99488,6,0,L|299:43,1,46.7500008916855,0|0,1:0|1:0,0:0:0:0:
319,66,99831,2,0,L|379:59,1,46.7500008916855,0|0,1:0|1:0,0:0:0:0:
406,52,100173,5,6,0:0:0:0:
105,323,105659,6,0,P|98:273|135:222,1,110,6|2,0:0|0:0,0:0:0:0:
217,178,106345,2,0,L|273:190,1,55,2|8,0:0|0:0,0:0:0:0:
319,198,106688,1,2,0:0:0:0:
319,198,106859,2,0,P|366:171|425:189,1,110,6|2,0:0|0:0,0:0:0:0:
447,222,107373,2,0,L|441:283,1,55,8|2,0:0|0:0,0:0:0:0:
366,341,107888,2,0,L|305:335,1,55,2|8,0:0|0:0,0:0:0:0:
272,304,108231,1,8,0:0:0:0:
272,304,108402,6,0,B|205:297|205:297|156:313,1,110,12|8,0:0|0:0,0:0:0:0:
116,321,108916,2,0,P|93:249|162:198,1,165,8|12,0:0|0:0,0:0:0:0:
494,13,110802,1,8,0:0:0:0:
442,97,111145,6,0,P|387:97|324:78,1,110,6|8,0:0|0:0,0:0:0:0:
243,42,111831,2,0,P|216:35|185:34,2,55,0|2|8,0:0|0:0|0:0,0:0:0:0:
252,90,112345,2,0,P|258:145|245:200,1,110,2|2,0:0|0:0,0:0:0:0:
218,239,112859,2,0,L|274:228,1,55,8|0,0:0|0:0,0:0:0:0:
338,301,113373,2,0,L|282:312,1,55,2|8,0:0|0:0,0:0:0:0:
213,381,113888,6,0,P|162:382|102:358,1,110,2|8,0:0|0:0,0:0:0:0:
39,289,114573,2,0,P|22:308|10:337,2,55,0|2|8,0:0|0:0|0:0,0:0:0:0:
72,251,115088,2,0,P|125:254|178:221,1,110,2|2,0:0|0:0,0:0:0:0:
213,196,115602,2,0,L|207:257,1,55,8|2,0:0|0:0,0:0:0:0:
297,208,116116,2,0,L|291:147,1,55,2|8,0:0|0:0,0:0:0:0:
347,70,116631,6,0,B|374:102|374:102|385:182,1,110,2|8,0:0|0:0,0:0:0:0:
378,268,117316,2,0,P|408:266|438:252,2,55,0|2|8,0:0|0:0|0:0,0:0:0:0:
291,221,118002,2,0,P|236:225|198:274,1,110,2|8,0:0|0:0,0:0:0:0:
205,313,118516,2,0,P|160:282|101:288,1,110,2|2,0:0|0:0,0:0:0:0:
62,308,119031,1,8,0:0:0:0:
22,218,119373,6,0,L|135:199,1,110,2|8,0:0|0:0,0:0:0:0:
175,178,119888,1,2,0:0:0:0:
263,222,120231,2,0,L|319:231,1,55,2|8,0:0|0:0,0:0:0:0:
365,240,120573,2,0,P|392:194|371:137,1,110,2|2,0:0|0:0,0:0:0:0:
345,103,121088,1,8,0:0:0:0:
255,61,121431,2,0,L|196:69,1,55,8|0,0:0|0:0,0:0:0:0:
168,105,121773,2,0,L|109:97,1,55,8|8,0:0|0:0,0:0:0:0:
69,75,122116,6,0,P|89:130|83:187,1,110,6|8,0:0|0:0,0:0:0:0:
60,276,122802,2,0,P|52:306|54:338,2,55,0|2|8,0:0|0:0|0:0,0:0:0:0:
107,260,123316,2,0,P|158:276|219:250,1,110,2|2,0:0|0:0,0:0:0:0:
254,236,123831,2,0,L|310:231,1,55,8|0,0:0|0:0,0:0:0:0:
355,143,124345,2,0,L|299:138,1,55,2|8,0:0|0:0,0:0:0:0:
217,84,124859,6,0,P|166:104|141:165,1,110,2|8,0:0|0:0,0:0:0:0:
174,244,125545,2,0,P|148:251|116:250,2,55,0|2|8,0:0|0:0|0:0,0:0:0:0:
219,222,126059,2,0,P|274:218|329:255,1,110,2|2,0:0|0:0,0:0:0:0:
346,286,126573,2,0,L|354:345,1,55,8|2,0:0|0:0,0:0:0:0:
445,303,127088,2,0,L|452:248,1,55,2|8,0:0|0:0,0:0:0:0:
432,151,127602,6,0,P|388:179|327:167,1,110,12|8,0:0|0:0,0:0:0:0:
262,101,128288,1,8,0:0:0:0:
262,101,128459,2,0,L|151:112,1,110,2|2,0:0|0:0,0:0:0:0:
105,96,128973,2,0,P|139:136|140:195,1,110,12|8,0:0|0:0,0:0:0:0:
121,237,129488,1,2,0:0:0:0:
178,317,129831,1,2,0:0:0:0:
178,317,130002,2,0,L|238:312,1,55,8|2,0:0|0:0,0:0:0:0:
272,342,130345,6,0,P|270:286|304:234,1,110,12|8,0:0|0:0,0:0:0:0:
345,230,130859,2,0,P|303:191|291:131,1,110,8|8,0:0|0:0,0:0:0:0:
311,95,131373,2,0,L|374:102,1,55,8|6,0:0|0:0,0:0:0:0:
105,330,132745,1,10,0:0:0:0:
67,238,133088,5,6,0:0:0:0:
452,330,143031,6,0,P|471:286|475:217,2,110,8|2|8,0:0|0:0|0:0,0:0:0:0:
364,284,144059,6,0,P|307:276|260:295,1,110,6|8,0:0|0:0,0:0:0:0:
167,332,144745,1,0,0:0:0:0:
167,332,144916,2,0,P|175:304|174:270,1,55,2|8,0:0|0:0,0:0:0:0:
151,234,145259,2,0,P|146:182|170:126,1,110,2|2,0:0|0:0,0:0:0:0:
198,91,145773,2,0,L|254:101,1,55,8|2,0:0|0:0,0:0:0:0:
309,181,146288,2,0,L|363:171,1,55,2|8,0:0|0:0,0:0:0:0:
462,171,146802,6,0,P|438:224|442:286,1,110,2|8,0:0|0:0,0:0:0:0:
382,356,147488,1,0,0:0:0:0:
382,356,147659,2,0,L|321:347,1,55,2|8,0:0|0:0,0:0:0:0:
290,315,148002,2,0,L|168:333,1,110,2|2,0:0|0:0,0:0:0:0:
132,338,148516,2,0,L|139:282,1,55,8|2,0:0|0:0,0:0:0:0:
213,217,149031,2,0,L|206:161,1,55,2|8,0:0|0:0,0:0:0:0:
199,113,149373,1,2,0:0:0:0:
199,113,149545,6,0,P|145:109|96:145,1,110,12|8,0:0|0:0,0:0:0:0:
36,215,150231,2,0,L|44:331,1,110,8|8,0:0|0:0,0:0:0:0:
137,355,150916,2,0,L|129:239,1,110,12|8,0:0|0:0,0:0:0:0:
181,160,151602,2,0,P|224:202|232:260,1,110,8|8,0:0|0:0,0:0:0:0:
222,348,152288,6,0,L|339:339,1,110,12|8,0:0|0:0,0:0:0:0:
380,347,152802,2,0,P|374:300|407:243,1,110,8|8,0:0|0:0,0:0:0:0:
421,218,153316,1,12,0:0:0:0:
421,218,153488,6,0,P|458:165|268:195,1,495,6|0,0:0|0:0,0:0:0:0:
461,45,166002,6,0,P|409:56|371:100,1,110,6|0,0:0|0:0,0:0:0:0:
416,185,166688,2,0,L|410:296,1,110,0|0,0:0|0:0,0:0:0:0:
353,376,167373,2,0,P|320:335|317:274,1,110,0|0,0:0|0:0,0:0:0:0:
333,232,167888,2,0,P|277:239|230:210,1,110,0|0,0:0|0:0,0:0:0:0:
196,179,168402,1,0,0:0:0:0:
124,247,168745,5,0,0:0:0:0:
63,168,169088,2,0,L|58:112,1,55,0|0,0:0|0:0,0:0:0:0:
55,63,169431,2,0,P|99:95|155:87,1,110,0|0,0:0|0:0,0:0:0:0:
234,34,170116,1,0,0:0:0:0:
234,34,170288,2,0,L|349:45,1,110,0|0,0:0|0:0,0:0:0:0:
392,49,170802,1,0,0:0:0:0:
450,128,171145,2,0,P|426:140|387:146,1,55,0|0,0:0|0:0,0:0:0:0:
350,132,171488,6,0,P|370:185|359:245,1,110,12|8,0:0|0:0,0:0:0:0:
293,307,172173,2,0,L|184:302,1,110,8|8,0:0|0:0,0:0:0:0:
83,296,172859,2,0,B|68:256|68:256|75:184,1,110,8|8,0:0|0:0,0:0:0:0:
146,120,173545,2,0,L|255:115,1,110,8|8,0:0|0:0,0:0:0:0:
327,45,174231,6,0,P|360:90|359:146,1,110,8|8,0:0|0:0,0:0:0:0:
381,187,174745,2,0,P|326:178|271:208,1,110,8|8,0:0|0:0,0:0:0:0:
263,248,175259,1,8,0:0:0:0:
256,192,175602,12,2,176973,0:0:0:0:
450,337,178002,5,8,0:0:0:0:
383,250,178345,6,0,P|328:236|261:236,1,121.000003692627,6|8,0:0|0:0,0:0:0:0:
172,295,179031,2,0,P|142:307|111:311,2,60.5000018463135,0|2|8,0:0|0:0|0:0,0:0:0:0:
176,240,179545,2,0,P|169:180|200:119,1,121.000003692627,2|2,0:0|0:0,0:0:0:0:
237,94,180059,2,0,L|297:104,1,60.5000018463135,8|2,0:0|0:0,0:0:0:0:
355,195,180573,2,0,L|295:205,1,60.5000018463135,2|8,0:0|0:0,0:0:0:0:
220,284,181088,6,0,P|272:313|344:301,1,121.000003692627,2|8,0:0|0:0,0:0:0:0:
440,300,181773,2,0,P|468:311|493:332,2,60.5000018463135,0|2|8,0:0|0:0|0:0,0:0:0:0:
400,262,182288,2,0,P|390:199|415:136,1,121.000003692627,2|2,0:0|0:0,0:0:0:0:
439,101,182802,2,0,P|443:74|441:37,1,60.5000018463135,8|2,0:0|0:0,0:0:0:0:
339,2,183316,2,0,P|335:29|337:66,1,60.5000018463135,2|8,0:0|0:0,0:0:0:0:
276,153,183831,6,0,B|229:171|229:171|151:150,1,121.000003692627,2|8,0:0|0:0,0:0:0:0:
52,144,184516,2,0,P|58:114|74:89,2,60.5000018463135,0|2|8,0:0|0:0|0:0,0:0:0:0:
108,237,185202,2,0,P|141:274|144:349,1,121.000003692627,2|8,0:0|0:0,0:0:0:0:
108,382,185716,2,0,P|151:354|221:353,1,121.000003692627,2|2,0:0|0:0,0:0:0:0:
271,370,186231,1,8,0:0:0:0:
363,312,186573,6,0,L|374:188,1,121.000003692627,2|8,0:0|0:0,0:0:0:0:
395,141,187088,1,0,0:0:0:0:
323,58,187431,2,0,L|260:66,1,60.5000018463135,2|8,0:0|0:0,0:0:0:0:
217,36,187773,2,0,P|220:97|180:145,1,121.000003692627,2|2,0:0|0:0,0:0:0:0:
132,159,188288,1,8,0:0:0:0:
94,261,188631,2,0,L|153:269,1,60.5000018463135,0|0,0:0|0:0,0:0:0:0:
195,234,188973,2,0,L|254:226,1,60.5000018463135,8|0,0:0|0:0,0:0:0:0:
298,258,189316,6,0,P|302:202|347:147,1,121.000003692627,6|8,0:0|0:0,0:0:0:0:
437,102,190002,2,0,P|472:110|501:111,2,60.5000018463135,0|2|8,0:0|0:0|0:0,0:0:0:0:
396,65,190516,2,0,P|347:34|285:57,1,121.000003692627,2|2,0:0|0:0,0:0:0:0:
263,99,191031,2,0,L|269:162,1,60.5000018463135,8|0,0:0|0:0,0:0:0:0:
167,198,191545,2,0,L|173:135,1,60.5000018463135,2|8,0:0|0:0,0:0:0:0:
101,55,192059,6,0,P|56:99|54:162,1,121.000003692627,2|8,0:0|0:0,0:0:0:0:
66,262,192745,2,0,P|50:288|17:311,2,60.5000018463135,0|2|8,0:0|0:0|0:0,0:0:0:0:
115,238,193259,2,0,P|173:234|231:281,1,121.000003692627,2|2,0:0|0:0,0:0:0:0:
261,307,193773,2,0,L|270:246,1,60.5000018463135,8|2,0:0|0:0,0:0:0:0:
351,174,194288,2,0,L|360:235,1,60.5000018463135,2|8,0:0|0:0,0:0:0:0:
396,336,194802,6,0,P|443:308|464:242,1,121.000003692627,12|8,0:0|0:0,0:0:0:0:
431,143,195488,1,8,0:0:0:0:
431,143,195659,2,0,L|310:153,1,121.000003692627,2|2,0:0|0:0,0:0:0:0:
259,132,196173,2,0,P|277:189|248:250,1,121.000003692627,12|8,0:0|0:0,0:0:0:0:
204,265,196688,1,2,0:0:0:0:
104,220,197031,1,2,0:0:0:0:
104,220,197202,2,0,L|98:148,1,60.5000018463135,8|2,0:0|0:0,0:0:0:0:
64,117,197545,6,0,P|117:109|161:55,1,121.000003692627,12|8,0:0|0:0,0:0:0:0:
182,10,198059,2,0,L|196:141,1,121.000003692627,8|8,0:0|0:0,0:0:0:0:
203,184,198573,2,0,L|264:175,1,60.5000018463135,8|6,0:0|0:0,0:0:0:0:
34,352,199945,1,8,0:0:0:0:
256,192,200288,12,2,203031,0:0:0:0:
436,259,205773,6,0,P|385:241|330:243,1,110,6|8,0:0|0:0,0:0:0:0:
239,283,206459,1,0,0:0:0:0:
239,283,206631,2,0,P|243:258|243:218,1,55,2|8,0:0|0:0,0:0:0:0:
224,182,206973,1,2,0:0:0:0:
161,105,207316,2,0,P|135:120|106:128,1,55,2|8,0:0|3:2,0:0:0:0:
61,128,207659,2,0,P|97:167|96:222,1,110,2|0,0:0|0:0,0:0:0:0:
59,254,208173,1,8,0:0:0:0:
10,340,208516,6,0,P|37:350|67:354,1,55,2|0,0:0|0:0,0:0:0:0:
108,334,208859,2,0,P|135:324|165:320,1,55,8|0,0:0|0:0,0:0:0:0:
210,327,209202,2,0,P|210:279|243:218,1,110,0|8,0:0|0:0,0:0:0:0:
280,200,209716,1,6,0:0:0:0:
370,240,210059,5,0,3:0:0:0:
370,240,210231,2,0,L|360:306,1,55,0|0,3:0|3:0,0:0:0:0:
357,343,210573,1,8,0:0:0:0:
357,343,210745,6,0,B|273:326|273:326|236:291|236:291|145:272,1,220,8|0,0:0|0:0,0:0:0:0:
