osu file format v14

[General]
AudioFilename: audio.mp3
AudioLeadIn: 0
PreviewTime: 55173
Countdown: 0
SampleSet: Soft
StackLeniency: 0.7
Mode: 0
LetterboxInBreaks: 0
WidescreenStoryboard: 1

[Editor]
Bookmarks: 1367,40169
DistanceSpacing: 1.5
BeatDivisor: 4
GridSize: 4
TimelineZoom: 1.8

[Metadata]
Title:Marine Bloomin'
TitleUnicode:Marine Bloomin'
Artist:Hachioji P x Marty Friedman x Kano
ArtistUnicode:八王子P × マーティ・フリードマン × 鹿乃
Creator:Firika
Version:Light insane
Source:
Tags:アイマリンプロジェクト imarine project japanese jpop 8#prince hachiojip わかむらp wakamurap papple104 Dored sinn
BeatmapID:1880007
BeatmapSetID:819424

[Difficulty]
HPDrainRate:6
CircleSize:4
OverallDifficulty:7.5
ApproachRate:9
SliderMultiplier:1.4
SliderTickRate:1

[Events]
//Background and Video events
0,0,"Marine Bloomin'.jpg",0,0
//Break Periods
2,155230,165402
//Storyboard Layer 0 (Background)
//Storyboard Layer 1 (Fail)
//Storyboard Layer 2 (Pass)
//Storyboard Layer 3 (Foreground)
//Storyboard Layer 4 (Overlay)
//Storyboard Sound Samples

[TimingPoints]
1431,342.857142857143,4,2,2,40,1,0
1431,-166.666666666667,4,2,2,40,0,0
5545,-166.666666666667,4,2,2,45,0,0
5888,-166.666666666667,4,2,3,45,0,0
6916,-125,4,2,6,50,0,0
12059,-125,4,2,5,60,0,0
12402,-100,4,2,4,60,0,0
13945,-100,4,2,4,5,0,0
14031,-100,4,2,4,60,0,0
14202,-100,4,2,4,5,0,0
14288,-100,4,2,4,60,0,0
14459,-100,4,2,4,5,0,0
14545,-100,4,2,4,60,0,0
14716,-100,4,2,4,5,0,0
14802,-100,4,2,4,60,0,0
16688,-100,4,2,4,5,0,0
16773,-100,4,2,4,60,0,0
16945,-100,4,2,4,5,0,0
17031,-100,4,2,4,60,0,0
17202,-100,4,2,4,5,0,0
17288,-100,4,2,4,60,0,0
17459,-100,4,2,4,5,0,0
17545,-100,4,2,4,60,0,0
17888,-100,4,2,4,65,0,0
23373,-100,4,2,4,55,0,0
34345,-100,4,2,4,60,0,0
45316,-133.333333333333,4,2,4,55,0,0
50802,-100,4,2,4,60,0,0
53545,-100,4,2,4,65,0,0
54573,-125,4,2,4,60,0,0
55259,-166.666666666667,4,2,4,55,0,0
55945,-166.666666666667,4,2,5,70,0,0
56288,-83.3333333333333,4,2,4,75,0,1
76688,-83.3333333333333,4,2,4,70,0,0
77888,-66.6666666666667,4,2,5,75,0,0
78145,-66.6666666666667,4,2,5,5,0,0
78231,-83.3333333333333,4,2,6,65,0,1
79859,-83.3333333333333,4,2,6,5,0,1
79945,-83.3333333333333,4,2,6,65,0,1
80631,-83.3333333333333,4,2,98,65,0,1
80973,-83.3333333333333,4,2,6,65,0,1
83631,-83.3333333333333,4,2,6,5,0,1
83716,-83.3333333333333,4,2,6,65,0,1
83888,-83.3333333333333,4,2,99,65,0,1
83973,-83.3333333333333,4,2,6,65,0,1
84231,-83.3333333333333,4,2,99,65,0,1
84316,-83.3333333333333,4,2,6,65,0,1
84573,-83.3333333333333,4,2,99,65,0,1
84659,-83.3333333333333,4,2,6,65,0,1
84916,-83.3333333333333,4,2,99,65,0,1
85088,-83.3333333333333,4,2,6,65,0,1
86116,-83.3333333333333,4,2,98,65,0,1
86459,-83.3333333333333,4,2,4,65,0,1
87659,-83.3333333333333,4,2,4,60,0,0
88859,-83.3333333333333,4,2,5,60,0,0
89202,-125,4,2,4,55,0,0
100173,-125,4,2,4,40,0,0
101202,-125,4,2,4,30,0,0
101373,-125,4,2,4,40,0,0
102745,-125,4,2,4,30,0,0
102916,-125,4,2,4,40,0,0
103773,-125,4,2,4,30,0,0
103945,-125,4,2,4,40,0,0
105145,-125,4,2,4,55,0,0
105659,-100,4,2,4,60,0,0
108402,-100,4,2,4,65,0,0
109431,-125,4,2,4,65,0,0
110116,-166.666666666667,4,2,4,55,0,0
110802,-166.666666666667,4,2,5,70,0,0
111145,-83.3333333333333,4,2,4,75,0,1
131545,-83.3333333333333,4,2,4,70,0,0
132745,-83.3333333333333,4,2,5,75,0,0
133002,-83.3333333333333,4,2,5,5,0,0
133088,-83.3333333333333,4,2,4,60,0,0
143288,-83.3333333333333,4,2,4,5,0,0
143373,-83.3333333333333,4,2,4,60,0,0
143631,-83.3333333333333,4,2,4,5,0,0
143716,-83.3333333333333,4,2,4,60,0,0
149545,-83.3333333333333,4,2,4,70,0,0
152288,-83.3333333333333,4,2,4,75,0,0
153488,-100,4,2,4,60,0,0
155031,-100,4,2,4,65,0,0
166002,-125,4,2,4,60,0,0
166345,-125,4,2,6,60,0,0
171488,-83.3333333333333,4,2,4,70,0,1
174231,-83.3333333333333,4,2,4,75,0,1
176973,-83.3333333333333,4,2,4,70,0,0
177316,-166.666666666667,4,2,4,60,0,0
178002,-166.666666666667,4,2,5,60,0,0
178345,-83.3333333333333,4,2,4,80,0,1
198745,-100,4,2,4,80,0,0
199945,-100,4,2,5,75,0,0
200288,-100,4,2,4,65,0,0
208516,-100,4,2,4,70,0,0
209716,-100,4,2,4,75,0,0

[Colours]
Combo1 : 128,255,255
Combo2 : 255,255,128
Combo3 : 192,192,192
Combo4 : 255,128,191

[HitObjects]
438,56,1431,6,0,P|406:131|326:132,1,167.999994873047,2|2,0:0|0:0,0:0:0:0:
265,90,2288,1,2,0:0:0:0:
265,90,2802,2,0,L|175:81,1,83.9999974365235,2|0,0:0|0:0,0:0:0:0:
100,106,3316,2,0,P|57:84|24:86,2,83.9999974365235,2|2|0,0:0|0:0|0:0,0:0:0:0:
162,165,4173,6,0,L|151:250,1,83.9999974365235,2|2,0:0|0:0,0:0:0:0:
100,315,4688,1,2,0:0:0:0:
100,315,5202,1,2,0:0:0:0:
256,376,5545,1,2,0:0:0:0:
412,315,5888,2,0,L|499:325,1,83.9999974365235,2|2,0:0|0:0,0:0:0:0:
361,184,6573,2,0,P|391:179|395:181,2,27.9999991455078,2|2|2,0:0|0:0|0:0,0:0:0:0:
345,201,6916,6,0,L|234:211,1,112,6|0,0:0|0:0,0:0:0:0:
160,264,7431,1,0,0:0:0:0:
160,264,7602,2,0,L|154:300,2,28,0|0|0,0:0|0:0|0:0,0:0:0:0:
98,199,7945,2,0,L|91:136,1,56,0|0,0:0|0:0,0:0:0:0:
32,75,8288,6,0,P|82:53|135:64,1,112,0|0,0:0|0:0,0:0:0:0:
208,117,8802,1,0,0:0:0:0:
208,117,8973,2,0,L|214:150,2,28,0|0|0,0:0|0:0|0:0,0:0:0:0:
264,47,9316,2,0,L|325:54,1,56,0|0,0:0|0:0,0:0:0:0:
407,36,9659,6,0,L|390:146,1,112,0|0,0:0|0:0,0:0:0:0:
430,227,10173,1,0,0:0:0:0:
430,227,10345,2,0,L|466:237,2,28,0|0|0,0:0|0:0|0:0,0:0:0:0:
348,264,10688,2,0,L|287:268,1,56,0|0,0:0|0:0,0:0:0:0:
210,304,11031,6,0,P|155:273|106:286,1,112,0|0,0:0|0:0,0:0:0:0:
43,360,11545,1,0,0:0:0:0:
43,360,11716,2,0,P|97:327|110:278,1,112,0|8,0:0|0:0,0:0:0:0:
50,189,12402,6,0,B|35:157|35:157|47:88,2,105,6|6|6,2:0|2:0|2:0,0:0:0:0:
50,189,13259,1,2,0:0:0:0:
121,143,13431,2,0,L|190:150,1,70,8|0,0:0|0:0,0:0:0:0:
261,104,13773,6,0,P|308:129|337:128,1,70,0|0,3:0|0:0,0:0:0:0:
337,133,14031,2,0,P|375:96|383:68,1,70,0|0,3:0|0:0,0:0:0:0:
388,69,14288,2,0,P|364:21|340:4,1,70,0|0,3:0|0:0,0:0:0:0:
343,1,14545,2,0,P|290:8|267:26,1,70,0|0,3:0|0:0,0:0:0:0:
264,22,14802,1,2,3:2:0:0:
192,65,14973,1,8,3:2:0:0:
124,14,15145,6,0,B|92:-1|92:-1|23:11,2,105,6|6|6,0:0|0:0|0:0,0:0:0:0:
192,65,16173,2,0,L|197:136,1,70,8|0,0:0|0:0,0:0:0:0:
256,194,16516,6,0,P|231:241|232:270,1,70,0|0,3:0|0:0,0:0:0:0:
227,270,16774,2,0,P|263:308|291:316,1,70,0|0,3:0|0:0,0:0:0:0:
291,321,17031,2,0,P|338:297|355:273,1,70,0|0,3:0|0:0,0:0:0:0:
359,276,17288,2,0,P|351:223|333:200,1,70,0|0,3:0|0:0,0:0:0:0:
338,197,17545,1,2,3:2:0:0:
406,148,17716,1,8,3:2:0:0:
483,181,17888,6,0,L|472:293,1,105,6|0,0:0|0:0,0:0:0:0:
466,298,18231,2,0,L|395:306,1,70,2|0,0:0|0:0,0:0:0:0:
327,353,18573,1,2,0:0:0:0:
279,283,18745,1,8,0:0:0:0:
243,360,18916,1,2,0:0:0:0:
195,290,19088,1,8,0:0:0:0:
159,367,19259,6,0,P|95:366|53:335,1,105,6|0,0:0|0:0,0:0:0:0:
52,335,19602,2,0,L|62:246,1,70,2|0,0:0|0:0,0:0:0:0:
118,205,19945,1,2,0:0:0:0:
58,147,20116,1,8,0:0:0:0:
139,125,20288,1,2,0:0:0:0:
79,67,20459,1,8,0:0:0:0:
84,54,20545,1,8,0:0:0:0:
89,41,20631,6,0,L|168:29,1,70,12|8,0:0|0:0,0:0:0:0:
237,58,20973,1,8,0:0:0:0:
316,86,21145,1,12,0:0:0:0:
341,92,21231,1,8,0:0:0:0:
367,88,21316,1,8,0:0:0:0:
389,75,21402,1,8,0:0:0:0:
406,55,21488,2,0,L|440:46,3,35,8|8|8|8,0:0|0:0|0:0|0:0,0:0:0:0:
466,42,21831,6,0,P|496:102|459:158,1,140,12|0,0:0|3:0,0:0:0:0:
384,194,22345,2,0,L|295:183,1,70,0|0,1:0|1:0,0:0:0:0:
256,246,22688,2,0,L|264:315,1,70,0|0,1:0|1:0,0:0:0:0:
199,183,23031,1,8,0:0:0:0:
173,264,23202,1,2,0:0:0:0:
118,157,23373,5,6,0:0:0:0:
92,238,23545,2,0,L|18:252,2,70,0|8|0,0:0|0:0|0:0,0:0:0:0:
173,264,24059,2,0,L|250:278,1,70,0|2,0:0|0:0,0:0:0:0:
305,221,24402,2,0,L|382:207,1,70,8|0,0:0|0:0,0:0:0:0:
476,184,24745,6,0,L|466:324,1,140,2|8,0:0|0:0,0:0:0:0:
396,371,25259,2,0,P|358:336|274:339,1,140,0|2,0:0|0:0,0:0:0:0:
198,376,25773,2,0,L|126:369,1,70,8|0,0:0|0:0,0:0:0:0:
53,295,26116,6,0,P|46:232|101:179,1,140,2|8,0:0|0:0,0:0:0:0:
179,199,26631,2,0,L|251:192,1,70,0|0,0:0|0:0,0:0:0:0:
316,143,26973,2,0,L|323:71,1,70,2|8,0:0|0:0,0:0:0:0:
236,13,27316,6,0,L|96:26,1,140,2|2,0:0|0:0,0:0:0:0:
36,85,27831,1,8,0:0:0:0:
116,108,28002,1,2,0:0:0:0:
56,167,28173,2,0,P|44:209|48:249,1,70,0|2,0:0|0:0,0:0:0:0:
99,299,28516,2,0,L|169:295,1,70,8|0,0:0|0:0,0:0:0:0:
264,250,28859,5,6,0:0:0:0:
319,314,29031,2,0,L|323:384,2,70,0|8|0,0:0|0:0|0:0,0:0:0:0:
383,259,29545,2,0,P|436:248|465:257,1,70,0|2,0:0|0:0,0:0:0:0:
486,175,29888,2,0,P|449:134|443:104,1,70,8|0,0:0|0:0,0:0:0:0:
353,71,30231,6,0,P|326:134|262:160,1,140,2|8,0:0|0:0,0:0:0:0:
182,138,30745,2,0,L|41:151,1,140,0|2,0:0|0:0,0:0:0:0:
69,71,31259,2,0,L|139:64,1,70,8|0,0:0|0:0,0:0:0:0:
233,19,31602,6,0,P|302:24|352:70,1,140,2|8,0:0|0:0,0:0:0:0:
422,119,32116,2,0,L|411:210,1,70,0|0,0:0|0:0,0:0:0:0:
336,222,32459,2,0,L|347:313,1,70,2|8,0:0|0:0,0:0:0:0:
422,362,32802,6,0,P|474:315|473:249,1,140,6|0,0:0|3:0,0:0:0:0:
414,188,33316,1,0,1:0:0:0:
336,222,33488,1,0,1:0:0:0:
274,166,33659,1,0,1:0:0:0:
196,200,33831,1,0,1:0:0:0:
118,234,34002,2,0,L|35:226,1,70,8|2,0:0|0:0,0:0:0:0:
7,130,34345,5,6,0:0:0:0:
71,76,34516,2,0,L|76:6,2,70,0|8|0,0:0|0:0|0:0,0:0:0:0:
125,140,35031,2,0,P|158:149|206:148,1,70,0|2,0:0|0:0,0:0:0:0:
255,93,35373,2,0,P|288:84|336:85,1,70,8|0,0:0|0:0,0:0:0:0:
423,49,35716,6,0,P|462:76|453:174,1,140,2|8,0:0|0:0,0:0:0:0:
393,209,36231,2,0,L|248:221,1,140,0|2,0:0|0:0,0:0:0:0:
190,276,36745,2,0,L|183:349,1,70,8|0,0:0|0:0,0:0:0:0:
83,377,37088,6,0,L|69:237,1,140,2|8,0:0|0:0,0:0:0:0:
115,167,37602,2,0,L|188:174,1,70,0|0,0:0|0:0,0:0:0:0:
254,221,37945,2,0,L|327:214,1,70,2|8,0:0|0:0,0:0:0:0:
403,283,38288,6,0,P|427:219|409:153,1,140,2|2,0:0|0:0,0:0:0:0:
341,102,38802,1,8,0:0:0:0:
420,69,38973,1,2,0:0:0:0:
352,18,39145,2,0,L|257:10,1,70,0|2,0:0|0:0,0:0:0:0:
218,67,39488,2,0,L|123:59,1,70,8|0,0:0|0:0,0:0:0:0:
54,108,39831,5,6,0:0:0:0:
107,172,40002,2,0,L|176:177,2,70,0|8|0,0:0|0:0|0:0,0:0:0:0:
43,224,40516,2,0,P|31:257|29:292,1,70,0|2,0:0|0:0,0:0:0:0:
109,317,40859,2,0,P|131:343|160:362,1,70,8|0,0:0|0:0,0:0:0:0:
263,337,41202,6,0,L|427:346,1,140,2|8,0:0|0:0,0:0:0:0:
469,293,41716,2,0,P|481:244|478:217,1,70,0|0,0:0|0:0,0:0:0:0:
425,160,42059,1,2,0:0:0:0:
425,160,42231,2,0,L|352:156,1,70,8|0,0:0|0:0,0:0:0:0:
261,202,42573,6,0,P|214:152|131:152,1,140,2|8,0:0|0:0,0:0:0:0:
79,199,43088,2,0,L|4:190,1,70,0|0,0:0|0:0,0:0:0:0:
8,106,43431,2,0,L|77:97,1,70,2|8,0:0|0:0,0:0:0:0:
160,33,43773,6,0,L|325:47,1,140,6|0,0:0|3:0,0:0:0:0:
368,94,44288,1,0,1:0:0:0:
450,81,44459,1,0,1:0:0:0:
421,159,44631,1,0,1:0:0:0:
503,146,44802,1,0,1:0:0:0:
474,224,44973,2,0,L|482:293,1,70,0|0,1:0|1:0,0:0:0:0:
379,178,45316,6,0,P|361:215|285:221,1,105.000004005432,6|0,0:0|0:0,0:0:0:0:
225,194,45831,1,2,0:0:0:0:
128,233,46002,1,8,0:0:0:0:
128,233,46345,1,2,0:0:0:0:
128,233,46516,6,0,P|58:206|52:169,1,105.000004005432
84,105,47031,2,0,L|148:115,1,52.5000020027161,2|0,0:0|0:0,0:0:0:0:
213,81,47373,2,0,L|277:71,1,52.5000020027161,8|0,0:0|0:0,0:0:0:0:
340,35,47716,2,0,L|404:45,1,52.5000020027161,2|0,0:0|0:0,0:0:0:0:
466,117,48059,6,0,P|439:160|389:171,1,105.000004005432,6|0,0:0|0:0,0:0:0:0:
309,145,48573,1,2,0:0:0:0:
220,201,48745,1,8,0:0:0:0:
220,201,49088,2,0,P|204:258|235:308,1,105.000004005432,2|0,0:0|0:0,0:0:0:0:
300,332,49602,5,2,0:0:0:0:
380,309,49773,1,8,0:0:0:0:
321,252,49945,1,2,0:0:0:0:
401,229,50116,1,8,0:0:0:0:
342,172,50288,1,2,0:0:0:0:
422,149,50459,2,0,L|473:156,1,52.5000020027161,8|2,0:0|0:0,0:0:0:0:
363,92,50802,6,0,L|355:22,1,70,6|0,0:0|0:0,0:0:0:0:
281,113,51145,2,0,L|273:43,1,70,2|0,0:0|0:0,0:0:0:0:
199,134,51488,1,2,0:0:0:0:
199,134,51659,2,0,L|191:64,1,70,8|2,0:0|0:0,0:0:0:0:
117,155,52002,6,0,L|101:15,1,140,6|2,0:0|0:0,0:0:0:0:
29,59,52516,2,0,L|36:128,1,70,8|2,0:0|0:0,0:0:0:0:
117,154,52859,2,0,L|109:223,1,70,0|2,0:0|0:0,0:0:0:0:
29,249,53202,2,0,L|36:318,1,70,8|8,0:0|0:0,0:0:0:0:
47,328,53459,1,8,0:0:0:0:
58,338,53545,5,12,0:0:0:0:
136,366,53716,1,8,0:0:0:0:
207,321,53888,1,8,0:0:0:0:
285,349,54059,1,8,0:0:0:0:
355,304,54231,1,8,0:0:0:0:
381,302,54316,1,8,0:0:0:0:
406,309,54402,1,8,0:0:0:0:
428,323,54488,1,8,0:0:0:0:
444,344,54573,2,0,P|494:326|500:273,1,112,12|0,0:0|0:0,0:0:0:0:
419,177,55259,6,0,L|325:185,1,83.9999974365235,0|0,0:0|0:0,0:0:0:0:
469,81,55945,1,8,0:0:0:0:
312,18,56288,6,0,P|259:87|184:71,1,167.999994873047,6|8,0:0|0:0,0:0:0:0:
101,20,56802,1,0,0:0:0:0:
101,20,56973,2,0,L|6:29,1,83.9999974365235,0|2,0:0|0:0,0:0:0:0:
188,74,57316,1,8,0:0:0:0:
80,139,57488,6,0,B|57:174|57:174|76:310,1,167.999994873047,2|2,0:0|0:0,0:0:0:0:
164,345,58002,1,8,0:0:0:0:
252,296,58173,2,0,L|340:306,1,83.9999974365235,2|0,0:0|0:0,0:0:0:0:
203,208,58516,1,2,0:0:0:0:
203,208,58688,2,0,L|213:120,1,83.9999974365235,8|0,0:0|0:0,0:0:0:0:
312,45,59031,6,0,B|322:86|322:86|305:210,1,167.999994873047,2|8,0:0|0:0,0:0:0:0:
252,296,59545,1,0,0:0:0:0:
252,296,59716,2,0,L|165:304,1,83.9999974365235,0|2,0:0|0:0,0:0:0:0:
305,211,60059,1,8,0:0:0:0:
409,283,60231,6,0,P|434:205|402:129,1,167.999994873047,2|2,0:0|0:0,0:0:0:0:
313,81,60745,1,8,0:0:0:0:
234,143,60916,2,0,L|132:152,1,83.9999974365235,2|0,0:0|0:0,0:0:0:0:
62,100,61259,2,0,L|71:-2,2,83.9999974365235,2|8|0,0:0|0:0|0:0,0:0:0:0:
50,226,61773,5,2,0:0:0:0:
50,226,61945,1,0,0:0:0:0:
134,280,62116,2,0,L|140:368,1,83.9999974365235,8|0,0:0|0:0,0:0:0:0:
188,196,62459,1,0,0:0:0:0:
188,196,62631,2,0,L|276:190,1,83.9999974365235,2|8,0:0|0:0,0:0:0:0:
358,241,62973,1,0,0:0:0:0:
421,131,63145,6,0,L|509:137,2,83.9999974365235,2|0|8,0:0|0:0|0:0,0:0:0:0:
334,80,63659,2,0,L|250:85,1,83.9999974365235,2|0,0:0|0:0,0:0:0:0:
171,148,64002,2,0,L|165:236,2,83.9999974365235,2|8|0,0:0|0:0|0:0,0:0:0:0:
100,43,64516,6,0,P|40:52|20:148,1,167.999994873047,2|8,0:0|0:0,0:0:0:0:
81,226,65031,2,0,L|183:233,1,83.9999974365235,2|0,0:0|0:0,0:0:0:0:
258,196,65373,2,0,L|251:298,1,83.9999974365235,2|8,0:0|0:0,0:0:0:0:
353,156,65716,6,0,L|342:324,1,167.999994873047,2|2,0:0|0:0,0:0:0:0:
423,384,66231,1,8,0:0:0:0:
500,319,66402,1,2,0:0:0:0:
406,285,66573,1,8,0:0:0:0:
483,220,66745,1,2,0:0:0:0:
389,186,66916,1,8,0:0:0:0:
466,121,67088,1,8,0:0:0:0:
460,101,67173,1,8,0:0:0:0:
454,81,67259,6,0,B|415:65|415:65|287:84,1,167.999994873047,6|8,0:0|0:0,0:0:0:0:
215,151,67773,1,0,0:0:0:0:
215,151,67945,2,0,L|118:141,1,83.9999974365235,0|2,0:0|0:0,0:0:0:0:
291,84,68288,1,8,0:0:0:0:
381,172,68459,6,0,P|379:253|314:311,1,167.999994873047,2|2,0:0|0:0,0:0:0:0:
217,319,68973,1,8,0:0:0:0:
130,266,69145,2,0,L|41:277,1,83.9999974365235,2|0,0:0|0:0,0:0:0:0:
183,179,69488,1,2,0:0:0:0:
183,179,69660,2,0,L|172:90,1,83.9999974365235,8|0,0:0|0:0,0:0:0:0:
264,9,70002,6,0,L|431:25,1,167.999994873047,2|8,0:0|0:0,0:0:0:0:
505,93,70516,1,0,0:0:0:0:
505,93,70688,2,0,P|501:150|477:179,1,83.9999974365235,0|2,0:0|0:0,0:0:0:0:
393,210,71031,1,8,0:0:0:0:
278,159,71202,6,0,L|85:177,1,167.999994873047,2|2,0:0|0:0,0:0:0:0:
28,115,71716,1,8,0:0:0:0:
111,57,71888,2,0,L|194:64,1,83.9999974365235,2|0,0:0|0:0,0:0:0:0:
256,145,72231,2,0,L|256:229,2,83.9999974365235,2|8|2,0:0|0:0|0:0,0:0:0:0:
325,39,72745,6,0,P|365:25|406:27,1,83.9999974365235,12|2,0:0|0:0,0:0:0:0:
256,145,73088,2,0,P|216:131|175:133,1,83.9999974365235,8|2,0:0|0:0,0:0:0:0:
325,251,73431,2,0,P|365:237|406:239,1,83.9999974365235,8|2,0:0|0:0,0:0:0:0:
256,357,73773,2,0,P|216:343|175:345,1,83.9999974365235,8|2,0:0|0:0,0:0:0:0:
53,296,74116,6,0,L|43:208,1,83.9999974365235,12|2,0:0|0:0,0:0:0:0:
175,134,74459,2,0,L|165:217,1,83.9999974365235,8|2,0:0|0:0,0:0:0:0:
27,96,74802,2,0,B|61:71|61:71|100:80,1,83.9999974365235,8|2,0:0|0:0,0:0:0:0:
165,217,75145,2,0,B|199:242|199:242|238:232,1,83.9999974365235,8|2,0:0|0:0,0:0:0:0:
342,159,75488,5,12,0:0:0:0:
342,159,75659,1,8,0:0:0:0:
509,184,75831,5,8,0:0:0:0:
509,184,76002,1,8,0:0:0:0:
359,260,76174,5,8,0:0:0:0:
359,260,76345,1,8,0:0:0:0:
435,112,76516,5,8,0:0:0:0:
462,276,76688,1,6,0:0:0:0:
462,276,77202,5,0,0:0:0:0:
509,184,77545,1,0,0:0:0:0:
435,112,77888,2,0,B|388:133|388:133|282:118,1,157.500006008148,8|0,0:0|0:0,0:0:0:0:
274,104,78231,6,0,P|225:85|177:95,1,83.9999974365235,6|0,0:0|3:0,0:0:0:0:
177,100,78488,1,0,3:0:0:0:
159,110,78573,2,0,L|106:116,3,41.9999987182618,8|0|0|0,3:2|3:0|3:0|3:0,0:0:0:0:
97,108,78916,5,0,3:0:0:0:
76,105,79001,1,0,3:0:0:0:
55,108,79087,1,2,3:2:0:0:
37,118,79173,1,0,3:0:0:0:
21,132,79259,2,0,L|13:181,2,41.9999987182618,8|0|0,3:2|3:0|3:0,0:0:0:0:
139,62,79602,6,0,B|163:96|163:96|145:216,1,125.999996154785,2|0,1:2|0:0,0:0:0:0:
136,195,79945,2,0,P|126:233|146:276,1,83.9999974365235,8|2,1:2|0:0,0:0:0:0:
231,223,80288,1,0,3:0:0:0:
250,217,80373,1,0,3:0:0:0:
271,216,80459,1,2,3:2:0:0:
292,221,80545,1,0,3:0:0:0:
310,231,80631,2,0,L|335:249,6,20.9999993591309,8|0|0|0|0|0|0,3:2|3:0|3:0|3:0|3:0|3:0|3:0,0:0:0:0:
345,256,80973,6,0,L|336:356,1,83.9999974365235,6|0,0:0|3:0,0:0:0:0:
351,356,81231,1,0,3:0:0:0:
372,363,81316,2,0,P|430:354|450:331,1,83.9999974365235,8|2,3:2|0:0,0:0:0:0:
472,237,81659,1,0,3:0:0:0:
466,217,81745,1,0,3:0:0:0:
460,197,81831,2,0,L|448:154,1,41.9999987182618,2|0,3:2|3:0,0:0:0:0:
424,76,82002,2,0,L|467:64,2,41.9999987182618,8|0|0,3:2|3:0|3:0,0:0:0:0:
324,153,82345,6,0,L|241:146,1,83.9999974365235,2|2,3:2|3:2,0:0:0:0:
221,154,82602,1,0,3:0:0:0:
201,162,82688,2,0,P|160:184|116:180,1,83.9999974365235,8|2,3:2|0:0,0:0:0:0:
24,105,83031,1,0,3:0:0:0:
20,85,83116,1,0,3:0:0:0:
24,64,83202,1,2,3:2:0:0:
37,48,83288,1,0,3:0:0:0:
55,37,83373,2,0,B|139:28,1,83.9999974365235,8|0,3:0|0:0,0:0:0:0:
246,94,83716,5,6,3:2:0:0:
263,107,83801,1,0,3:0:0:0:
281,117,83887,1,2,3:2:0:0:
301,124,83973,1,0,3:0:0:0:
322,128,84059,2,0,L|370:124,1,41.9999987182618,8|0,3:2|3:0,0:0:0:0:
377,34,84231,2,0,L|425:30,1,41.9999987182618,2|0,3:2|3:0,0:0:0:0:
492,84,84402,1,0,3:0:0:0:
489,105,84488,1,0,3:0:0:0:
486,126,84573,1,2,3:2:0:0:
483,147,84659,1,0,3:0:0:0:
480,168,84745,2,0,L|487:220,2,41.9999987182618,8|0|2,3:2|3:0|3:2,0:0:0:0:
422,323,85088,6,0,L|464:318,3,41.9999987182618,0|0|0|0,3:2|3:0|3:0|3:0,0:0:0:0:
351,278,85431,2,0,L|346:236,3,41.9999987182618,8|0|2|0,3:2|3:0|3:2|3:0,0:0:0:0:
297,341,85773,2,0,L|255:346,3,41.9999987182618,0|0|2|0,3:0|3:0|3:2|3:0,0:0:0:0:
183,300,86116,2,0,L|161:299,6,20.9999993591309,8|0|0|0|0|0|0,3:2|3:0|3:0|3:0|3:0|3:0|3:0,0:0:0:0:
144,289,86459,6,0,L|150:372,1,83.9999974365235,6|0,3:2|0:0,0:0:0:0:
45,267,86802,1,8,0:0:0:0:
45,267,86973,2,0,L|51:350,1,83.9999974365235,2|0,0:0|0:0,0:0:0:0:
67,168,87316,1,2,0:0:0:0:
166,190,87488,1,8,0:0:0:0:
144,289,87659,1,6,0:0:0:0:
256,192,87745,12,8,88859,0:0:0:0:
345,96,89202,6,0,L|401:102,2,56,6|0|0,0:0|0:0|0:0,0:0:0:0:
274,50,89716,2,0,L|218:56,1,56,2|8,0:0|0:0,0:0:0:0:
154,111,90059,1,0,0:0:0:0:
154,111,90231,2,0,L|98:105,1,56,2|0,0:0|0:0,0:0:0:0:
19,48,90573,6,0,B|12:132|12:132|32:158,1,112,0|2,0:0|0:0,0:0:0:0:
106,188,91088,2,0,L|173:198,1,56,0|8,0:0|0:0,0:0:0:0:
230,148,91431,1,0,0:0:0:0:
230,148,91602,2,0,L|297:138,1,56,2|0,0:0|0:0,0:0:0:0:
375,93,91945,6,0,P|387:142|367:201,1,112,2|0,0:0|0:0,0:0:0:0:
293,238,92459,2,0,L|299:297,1,56,2|8,0:0|0:0,0:0:0:0:
354,357,92802,1,0,0:0:0:0:
354,357,92973,1,2,0:0:0:0:
448,319,93145,6,0,L|455:200,2,112,8|2|2,0:0|0:0|0:0,0:0:0:0:
354,357,94002,1,8,0:0:0:0:
298,293,94173,1,2,0:0:0:0:
222,329,94345,2,0,L|154:337,1,56,8|0,0:0|0:0,0:0:0:0:
69,308,94688,5,2,0:0:0:0:
69,308,94859,2,0,L|77:242,1,56,0|0,0:0|0:0,0:0:0:0:
48,172,95202,2,0,P|102:172|146:206,1,112,2|0,0:0|0:0,0:0:0:0:
223,171,95716,2,0,L|285:176,1,56,2|0,0:0|0:0,0:0:0:0:
366,227,96059,6,0,L|479:216,1,112,0|2,0:0|0:0,0:0:0:0:
510,138,96573,2,0,P|484:72|448:54,1,112,0|0,0:0|0:0,0:0:0:0:
376,96,97088,2,0,P|328:94|313:89,1,56,2|0,0:0|0:0,0:0:0:0:
241,27,97431,6,0,P|187:19|141:47,1,112,2|0,0:0|0:0,0:0:0:0:
73,98,97945,2,0,L|82:162,1,56,2|8,0:0|0:0,0:0:0:0:
151,198,98288,2,0,L|142:262,1,56,2|8,0:0|0:0,0:0:0:0:
91,340,98631,6,0,P|143:356|196:338,2,112,6|0|0,0:0|3:0|3:0,0:0:0:0:
38,254,99488,2,0,L|43:197,1,56,0|0,1:0|1:0,0:0:0:0:
52,115,99831,1,0,1:0:0:0:
120,164,100002,1,0,1:0:0:0:
182,71,100173,5,6,0:0:0:0:
182,71,101202,5,0,0:0:0:0:
250,119,101373,2,0,P|305:126|354:98,1,112,2|0,0:0|0:0,0:0:0:0:
400,29,101888,1,0,0:0:0:0:
400,29,102059,1,0,0:0:0:0:
448,99,102231,2,0,L|503:102,1,56
409,173,102573,1,0,0:0:0:0:
409,173,102745,1,0,0:0:0:0:
488,252,102916,6,0,P|486:306|444:341,1,112,2|0,0:0|0:0,0:0:0:0:
363,360,103431,2,0,B|327:340|327:340|250:352,1,112
174,332,103945,2,0,P|110:368|72:258,1,224,2|0,0:0|0:0,0:0:0:0:
322,34,105145,1,0,0:0:0:0:
414,69,105316,1,0,0:0:0:0:
409,166,105488,1,0,0:0:0:0:
312,190,105659,6,0,L|272:186,3,35,6|0|0|0,3:2|3:0|3:0|3:0,0:0:0:0:
201,145,106002,2,0,L|160:149,3,35,2|0|0|0,3:2|3:0|3:0|3:0,0:0:0:0:
101,208,106345,1,2,3:2:0:0:
101,208,106431,1,0,3:0:0:0:
101,208,106516,2,0,L|96:249,1,35,8|0,3:2|3:0,0:0:0:0:
84,331,106688,1,2,3:2:0:0:
245,266,106859,6,0,P|245:338|176:355,1,140,6|2,0:0|0:0,0:0:0:0:
84,331,107373,2,0,L|89:290,3,35,8|0|2|0,3:2|3:0|3:2|3:0,0:0:0:0:
131,208,107716,2,0,L|136:167,3,35,2|0|2|0,3:2|3:0|3:2|3:0,0:0:0:0:
44,137,108059,2,0,L|49:96,1,35,8|0,3:2|3:0,0:0:0:0:
92,25,108231,1,8,3:2:0:0:
108,18,108316,1,8,3:2:0:0:
124,11,108402,5,12,3:2:0:0:
193,57,108573,1,8,0:0:0:0:
262,103,108745,1,8,0:0:0:0:
331,57,108916,1,8,0:0:0:0:
400,11,109088,1,8,0:0:0:0:
425,5,109173,1,8,0:0:0:0:
450,11,109259,1,8,0:0:0:0:
471,27,109345,1,8,0:0:0:0:
483,50,109431,2,0,L|473:164,1,112,12|0,0:0|0:0,0:0:0:0:
396,262,110116,6,0,P|352:266|314:240,1,83.9999974365235,0|0,0:0|0:0,0:0:0:0:
460,338,110802,1,8,0:0:0:0:
319,246,111145,6,0,L|151:259,1,167.999994873047,6|8,0:0|0:0,0:0:0:0:
61,304,111659,1,0,0:0:0:0:
61,304,111831,2,0,P|46:338|45:384,1,83.9999974365235,0|2,0:0|0:0,0:0:0:0:
152,258,112173,1,8,0:0:0:0:
39,202,112345,6,0,B|25:162|25:162|43:26,1,167.999994873047,2|2,0:0|0:0,0:0:0:0:
139,13,112859,1,8,0:0:0:0:
216,77,113031,2,0,L|304:65,1,83.9999974365235,2|0,0:0|0:0,0:0:0:0:
408,4,113373,1,2,0:0:0:0:
408,2,113545,2,0,L|397:86,1,83.9999974365235,8|0,0:0|0:0,0:0:0:0:
218,211,113888,6,0,P|241:137|318:148,1,167.999994873047,2|8,0:0|0:0,0:0:0:0:
375,230,114402,1,0,0:0:0:0:
375,230,114573,2,0,L|462:238,1,83.9999974365235,0|2,0:0|0:0,0:0:0:0:
508,325,114916,1,8,0:0:0:0:
356,214,115088,6,0,B|341:240|341:240|353:378,1,167.999994873047,2|2,0:0|0:0,0:0:0:0:
168,231,115602,1,8,0:0:0:0:
258,275,115773,2,0,L|264:359,1,83.9999974365235,2|0,0:0|0:0,0:0:0:0:
120,309,116116,2,0,P|81:311|29:342,2,83.9999974365235,2|8|0,0:0|0:0|0:0,0:0:0:0:
251,175,116631,5,2,0:0:0:0:
168,231,116802,2,0,L|69:218,1,83.9999974365235,0|8,0:0|0:0,0:0:0:0:
10,118,117145,1,0,0:0:0:0:
74,206,117316,1,0,0:0:0:0:
109,102,117488,2,0,L|192:91,1,83.9999974365235,2|8,0:0|0:0,0:0:0:0:
302,26,117830,1,0,0:0:0:0:
389,78,118002,6,0,L|378:161,2,83.9999974365235,2|0|8,0:0|0:0|0:0,0:0:0:0:
490,74,118516,2,0,L|479:157,1,83.9999974365235,2|0,0:0|0:0,0:0:0:0:
413,266,118859,2,0,P|363:262|325:289,2,83.9999974365235,2|8|0,0:0|0:0|0:0,0:0:0:0:
484,351,119373,6,0,B|448:372|448:372|311:358,1,167.999994873047,2|8,0:0|0:0,0:0:0:0:
249,287,119888,2,0,L|162:302,1,83.9999974365235,2|0,0:0|0:0,0:0:0:0:
41,283,120231,2,0,L|56:369,1,83.9999974365235,2|8,0:0|0:0,0:0:0:0:
171,275,120573,6,0,B|185:151|185:151|170:105,1,167.999994873047,2|2,0:0|0:0,0:0:0:0:
60,69,121088,1,8,0:0:0:0:
94,164,121259,1,2,0:0:0:0:
178,108,121431,1,8,0:0:0:0:
212,203,121602,1,2,0:0:0:0:
296,147,121773,1,8,0:0:0:0:
330,242,121945,1,8,0:0:0:0:
351,237,122031,1,8,0:0:0:0:
372,231,122116,6,0,P|411:159|389:80,1,167.999994873047,6|8,0:0|0:0,0:0:0:0:
298,34,122631,1,0,0:0:0:0:
219,97,122802,2,0,L|122:87,1,83.9999974365235,0|2,0:0|0:0,0:0:0:0:
34,79,123145,1,8,0:0:0:0:
8,202,123316,6,0,B|46:183|46:183|170:197,1,167.999994873047,2|2,0:0|0:0,0:0:0:0:
223,283,123830,1,8,0:0:0:0:
153,356,124002,2,0,L|64:367,1,83.9999974365235,2|0,0:0|0:0,0:0:0:0:
223,283,124345,1,2,0:0:0:0:
223,283,124516,2,0,L|312:294,1,83.9999974365235,8|0,0:0|0:0,0:0:0:0:
430,373,124859,6,0,L|450:206,1,167.999994873047,2|8,0:0|0:0,0:0:0:0:
467,106,125373,1,0,0:0:0:0:
467,106,125545,2,0,P|425:104|389:124,1,83.9999974365235,0|2,0:0|0:0,0:0:0:0:
340,213,125888,1,8,0:0:0:0:
235,143,126059,6,0,P|209:220|243:295,1,167.999994873047,2|2,0:0|0:0,0:0:0:0:
326,353,126573,1,8,0:0:0:0:
243,295,126745,2,0,L|157:309,1,83.9999974365235,2|0,0:0|0:0,0:0:0:0:
37,278,127088,2,0,L|50:360,2,83.9999974365235,2|8|2,0:0|0:0|0:0,0:0:0:0:
76,158,127602,6,0,P|117:161|154:181,1,83.9999974365235,12|2,0:0|0:0,0:0:0:0:
179,52,127945,2,0,P|213:75|235:111,1,83.9999974365235,8|2,0:0|0:0,0:0:0:0:
321,11,128288,2,0,P|338:48|340:90,1,83.9999974365235,8|2,0:0|0:0,0:0:0:0:
464,46,128631,2,0,P|460:87|440:124,1,83.9999974365235,8|0,0:0|0:0,0:0:0:0:
352,210,128973,6,0,L|265:202,1,83.9999974365235,12|2,0:0|0:0,0:0:0:0:
414,305,129316,2,0,L|501:297,1,83.9999974365235,8|2,0:0|0:0,0:0:0:0:
312,360,129659,2,0,P|267:330|234:328,1,83.9999974365235,8|2,0:0|0:0,0:0:0:0:
89,291,130002,2,0,P|121:265|163:259,1,83.9999974365235,8|2,0:0|0:0,0:0:0:0:
264,184,130345,5,12,0:0:0:0:
264,184,130516,1,8,0:0:0:0:
290,52,130688,5,8,0:0:0:0:
290,52,130859,1,8,0:0:0:0:
158,26,131031,5,8,0:0:0:0:
158,26,131202,1,8,0:0:0:0:
132,158,131373,5,8,0:0:0:0:
290,52,131545,1,6,0:0:0:0:
290,52,132059,5,0,0:0:0:0:
389,69,132402,1,0,0:0:0:0:
488,86,132745,2,0,B|480:148|480:148|486:153|486:153|479:208,1,125.999996154785,10|0,0:0|0:0,0:0:0:0:
468,226,133088,6,0,P|443:249|382:245,1,83.9999974365235,6|0,0:0|0:0,0:0:0:0:
312,192,133431,2,0,B|241:167|229:237|151:212,1,167.999994873047,8|0,0:0|0:0,0:0:0:0:
46,281,133945,1,2,0:0:0:0:
17,150,134116,1,8,0:0:0:0:
146,51,134288,6,0,B|168:86|168:86|151:212,1,167.999994873047,2|2,0:0|0:0,0:0:0:0:
132,346,134802,1,8,0:0:0:0:
254,258,134973,1,2,0:0:0:0:
320,333,135145,2,0,L|314:376,2,41.9999987182618,0|0|2,3:0|3:0|3:2,0:0:0:0:
435,280,135488,2,0,L|428:196,1,83.9999974365235,8|0,0:0|3:0,0:0:0:0:
436,177,135745,1,0,3:0:0:0:
444,158,135831,6,0,P|446:121|417:77,1,83.9999974365235,2|0,3:2|0:0,0:0:0:0:
333,35,136173,1,8,3:2:0:0:
312,37,136258,1,0,3:0:0:0:
291,39,136344,1,0,3:0:0:0:
270,42,136430,1,0,3:0:0:0:
249,44,136516,2,0,L|201:51,3,41.9999987182618,0|0|2|0,3:0|3:0|3:2|3:0,0:0:0:0:
146,119,136859,2,0,L|97:112,3,41.9999987182618,8|0|2|0,3:2|3:0|3:2|3:0,0:0:0:0:
23,68,137202,5,0,3:0:0:0:
15,87,137287,1,0,3:0:0:0:
11,108,137373,1,2,3:2:0:0:
12,129,137459,1,0,3:0:0:0:
18,149,137545,2,0,P|23:182|21:209,3,41.9999987182618,8|0|2|0,3:2|3:0|3:2|3:0,0:0:0:0:
112,218,137888,2,0,P|107:250|109:277,3,41.9999987182618,0|0|2|0,3:0|3:0|3:2|3:0,0:0:0:0:
61,340,138231,1,8,3:2:0:0:
81,342,138316,1,0,3:0:0:0:
102,344,138402,1,0,3:0:0:0:
123,347,138488,1,0,3:0:0:0:
144,349,138573,6,0,L|239:336,1,83.9999974365235,2|0,3:2|3:0,0:0:0:0:
312,282,138916,1,8,3:2:0:0:
320,263,139001,1,0,3:0:0:0:
324,242,139087,1,0,3:0:0:0:
323,221,139173,1,0,3:0:0:0:
317,201,139259,2,0,L|277:168,3,41.9999987182618,0|0|2|0,3:0|3:0|3:2|3:0,0:0:0:0:
362,123,139602,2,0,L|371:71,3,41.9999987182618,8|0|2|0,3:2|3:0|3:2|3:0,0:0:0:0:
451,121,139945,5,0,3:0:0:0:
472,126,140030,1,0,3:0:0:0:
489,137,140116,1,2,3:2:0:0:
501,155,140202,1,0,3:0:0:0:
505,175,140288,2,0,L|495:236,3,41.9999987182618,8|0|2|0,3:2|3:0|3:2|3:0,0:0:0:0:
412,251,140631,2,0,L|422:311,3,41.9999987182618,0|0|0|0,3:0|3:0|3:0|3:0,0:0:0:0:
359,362,140973,2,0,L|317:354,3,41.9999987182618,8|0|0|0,3:2|3:0|3:0|3:0,0:0:0:0:
252,289,141316,6,0,P|188:294|160:317,1,83.9999974365235,2|0,3:2|3:0,0:0:0:0:
159,320,141573,1,0,3:0:0:0:
149,338,141659,2,0,L|58:329,1,83.9999974365235,8|0,3:2|3:0,0:0:0:0:
51,315,141916,1,0,3:0:0:0:
37,301,142002,2,0,P|26:241|42:215,1,83.9999974365235,0|2,3:0|0:0,0:0:0:0:
123,172,142345,1,8,0:0:0:0:
66,60,142516,6,0,B|103:42|103:42|239:62,1,167.999994873047,2|2,0:0|0:0,0:0:0:0:
416,160,143031,2,0,P|412:95|351:83,1,125.999996154785,8|0,0:0|0:0,0:0:0:0:
341,74,143373,2,0,B|317:109|317:109|332:199,1,125.999996154785
344,208,143716,2,0,L|331:293,1,83.9999974365235,8|0,0:0|3:0,0:0:0:0:
340,310,143973,1,0,3:0:0:0:
349,329,144059,6,0,P|393:340|435:320,1,83.9999974365235,6|0,3:2|0:0,0:0:0:0:
503,218,144402,2,0,B|468:194|468:194|344:208,1,167.999994873047,8|0,0:0|0:0,0:0:0:0:
229,156,144916,1,2,0:0:0:0:
196,278,145088,1,8,0:0:0:0:
80,171,145259,6,0,B|141:209|170:137|241:181,1,167.999994873047,2|2,0:0|0:0,0:0:0:0:
367,110,145773,2,0,L|354:193,1,83.9999974365235,8|2,0:0|0:0,0:0:0:0:
403,294,146116,2,0,L|486:281,1,83.9999974365235,0|2,0:0|0:0,0:0:0:0:
320,362,146459,2,0,L|237:349,1,83.9999974365235,8|0,0:0|3:0,0:0:0:0:
222,334,146716,1,0,3:0:0:0:
207,319,146802,2,0,P|154:306|125:313,1,83.9999974365235,2|0,3:2|0:0,0:0:0:0:
16,355,147145,2,0,B|7:315|7:315|30:190,1,167.999994873047,8|0,0:0|0:0,0:0:0:0:
157,143,147659,1,2,0:0:0:0:
35,177,147831,1,8,0:0:0:0:
115,48,148002,6,0,P|196:47|253:106,1,167.999994873047,2|2,0:0|0:0,0:0:0:0:
290,200,148516,1,8,0:0:0:0:
381,156,148688,2,0,L|469:169,1,83.9999974365235,2|0,0:0|0:0,0:0:0:0:
497,316,149031,1,2,0:0:0:0:
406,360,149202,1,8,0:0:0:0:
362,269,149373,1,2,0:0:0:0:
271,313,149545,6,0,P|227:297|187:295,1,83.9999974365235,12|2,0:0|0:0,0:0:0:0:
61,256,149888,1,8,3:2:0:0:
40,255,149973,1,0,3:0:0:0:
22,244,150059,1,2,3:2:0:0:
12,226,150145,1,0,3:0:0:0:
11,205,150231,2,0,L|23:149,3,41.9999987182618,8|0|2|0,3:2|3:0|3:2|3:0,0:0:0:0:
102,123,150573,2,0,L|93:81,3,41.9999987182618,8|0|2|0,3:2|3:0|3:2|3:0,0:0:0:0:
164,21,150916,6,0,L|247:35,1,83.9999974365235,12|2,3:2|0:0,0:0:0:0:
359,91,151259,1,8,3:2:0:0:
380,90,151344,1,0,3:0:0:0:
401,85,151430,1,2,3:2:0:0:
419,75,151516,1,0,3:0:0:0:
435,61,151602,2,0,L|490:71,3,41.9999987182618,8|0|2|0,3:2|3:0|3:2|3:0,0:0:0:0:
504,158,151945,2,0,L|462:165,3,41.9999987182618,8|0|2|0,3:2|3:0|3:2|3:0,0:0:0:0:
395,229,152288,6,0,B|383:269|383:269|390:315,1,83.9999974365235,12|8,0:0|0:0,0:0:0:0:
272,358,152631,2,0,B|284:318|284:318|277:272,1,83.9999974365235,8|8,0:0|0:0,0:0:0:0:
185,191,152973,1,12,0:0:0:0:
67,237,153145,1,8,3:2:0:0:
63,257,153230,1,0,3:0:0:0:
59,278,153316,1,8,3:2:0:0:
9,124,153488,6,0,B|171:19|205:244|364:292|478:152|443:0|290:-2|260:63,1,630,6|0,0:0|0:0,0:0:0:0:
185,191,166002,5,6,0:0:0:0:
185,191,166345,2,0,P|237:161|293:166,2,112
35,267,167373,2,0,L|21:155,1,112,0|0,0:0|0:0,0:0:0:0:
67,85,167888,2,0,B|169:121|188:35|283:68,1,224,0|0,0:0|0:0,0:0:0:0:
350,119,168745,5,0,0:0:0:0:
350,119,169088,2,0,L|409:105,1,56,0|0,0:0|0:0,0:0:0:0:
463,166,169431,2,0,L|445:224,1,56,0|0,0:0|0:0,0:0:0:0:
366,240,169773,2,0,L|324:195,1,56,0|0,0:0|0:0,0:0:0:0:
259,299,170116,1,0,0:0:0:0:
259,299,170288,2,0,L|244:240,1,56
136,296,170630,1,0,0:0:0:0:
136,296,170802,2,0,L|153:237,1,56,0|0,0:0|0:0,0:0:0:0:
30,231,171144,1,0,0:0:0:0:
95,125,171316,1,0,0:0:0:0:
110,117,171402,1,0,0:0:0:0:
125,109,171488,6,0,L|217:122,1,83.9999974365235,12|2,0:0|0:0,0:0:0:0:
297,73,171831,2,0,L|389:86,1,83.9999974365235,8|2,0:0|0:0,0:0:0:0:
498,177,172173,2,0,P|499:135|480:99,1,83.9999974365235,8|2,0:0|0:0,0:0:0:0:
336,260,172516,2,0,P|334:218|354:181,1,83.9999974365235,8|2,0:0|0:0,0:0:0:0:
491,331,172859,6,0,B|456:353|456:353|414:344,1,83.9999974365235,8|2,0:0|0:0,0:0:0:0:
334,281,173202,1,8,0:0:0:0:
211,308,173373,1,2,0:0:0:0:
125,254,173545,1,8,0:0:0:0:
211,308,173716,1,2,0:0:0:0:
88,335,173888,1,8,0:0:0:0:
211,308,174059,1,2,0:0:0:0:
184,185,174231,5,8,0:0:0:0:
184,185,174402,1,8,0:0:0:0:
63,152,174573,5,8,0:0:0:0:
63,152,174744,1,8,0:0:0:0:
152,63,174916,5,8,0:0:0:0:
152,63,175087,1,8,0:0:0:0:
184,185,175259,5,8,0:0:0:0:
273,95,175431,1,8,0:0:0:0:
293,90,175516,1,8,0:0:0:0:
312,84,175602,2,0,L|321:34,3,41.9999987182618,8|8|8|8,0:0|0:0|0:0|0:0,0:0:0:0:
397,76,175945,2,0,L|404:34,3,41.9999987182618,8|8|8|8,0:0|0:0|0:0|0:0,0:0:0:0:
446,145,176288,2,0,L|437:195,3,41.9999987182618,8|8|8|8,0:0|0:0|0:0|0:0,0:0:0:0:
361,153,176631,2,0,L|352:203,3,41.9999987182618,8|8|8|8,0:0|0:0|0:0|0:0,0:0:0:0:
391,270,176973,5,2,0:0:0:0:
461,204,177316,2,0,P|483:239|486:280,1,83.9999974365235
320,160,178002,1,8,0:0:0:0:
416,351,178345,6,0,B|355:339|355:339|314:355|314:355|253:345,1,167.999994873047,6|8,0:0|0:0,0:0:0:0:
176,279,178859,1,0,0:0:0:0:
176,279,179031,2,0,P|125:282|94:304,1,83.9999974365235,0|2,0:0|0:0,0:0:0:0:
17,239,179373,1,8,0:0:0:0:
86,133,179545,6,0,B|126:118|126:118|254:140,1,167.999994873047,2|2,0:0|0:0,0:0:0:0:
324,206,180059,1,8,0:0:0:0:
394,133,180231,2,0,L|381:49,1,83.9999974365235,2|0,0:0|0:0,0:0:0:0:
481,190,180573,1,2,0:0:0:0:
481,190,180745,2,0,L|468:274,1,83.9999974365235,8|0,0:0|0:0,0:0:0:0:
363,344,181088,6,0,P|300:294|219:306,1,167.999994873047,2|8,0:0|0:0,0:0:0:0:
99,270,181602,1,0,0:0:0:0:
99,270,181773,2,0,L|107:358,1,83.9999974365235,0|2,0:0|0:0,0:0:0:0:
182,215,182116,1,8,0:0:0:0:
28,166,182288,6,0,B|97:148|124:210|189:195,1,167.999994873047,2|2,0:0|0:0,0:0:0:0:
280,152,182802,1,8,0:0:0:0:
236,61,182973,2,0,L|145:50,1,83.9999974365235,2|0,0:0|0:0,0:0:0:0:
290,149,183316,2,0,L|381:138,2,83.9999974365235,2|8|0,0:0|0:0|0:0,0:0:0:0:
182,215,183830,5,2,0:0:0:0:
182,215,184002,1,0,0:0:0:0:
235,300,184173,2,0,P|289:314|330:303,1,83.9999974365235,8|0,0:0|0:0,0:0:0:0:
407,267,184516,1,0,0:0:0:0:
407,267,184688,2,0,L|417:351,1,83.9999974365235,2|8,0:0|0:0,0:0:0:0:
475,193,185031,1,2,0:0:0:0:
398,126,185202,6,0,P|355:126|318:151,2,83.9999974365235,0|2|8,0:0|0:0|0:0,0:0:0:0:
495,94,185716,2,0,P|502:54|462:27,1,83.9999974365235,2|0,0:0|0:0,0:0:0:0:
293,49,186059,1,2,0:0:0:0:
321,147,186231,1,8,0:0:0:0:
194,77,186402,1,0,0:0:0:0:
124,205,186573,6,0,B|87:186|87:186|73:60,1,167.999994873047,2|8,0:0|0:0,0:0:0:0:
226,194,187088,2,0,P|223:235|201:270,1,83.9999974365235,0|0,0:0|0:0,0:0:0:0:
47,338,187431,2,0,P|84:319|125:320,1,83.9999974365235,2|8,0:0|0:0,0:0:0:0:
246,371,187773,6,0,L|416:356,1,167.999994873047,2|2,0:0|0:0,0:0:0:0:
507,245,188288,1,8,0:0:0:0:
404,254,188459,1,2,0:0:0:0:
425,155,188631,1,0,0:0:0:0:
322,164,188802,1,2,0:0:0:0:
343,65,188973,2,0,L|392:60,2,41.9999987182618,8|0|0,0:0|0:0|0:0,0:0:0:0:
200,60,189316,6,0,B|174:92|174:92|191:222,1,167.999994873047,6|8,0:0|0:0,0:0:0:0:
261,290,189831,1,0,0:0:0:0:
261,290,190002,2,0,P|308:273|350:284,1,83.9999974365235,0|2,0:0|0:0,0:0:0:0:
417,344,190345,1,8,0:0:0:0:
493,244,190516,6,0,L|477:71,1,167.999994873047,2|2,0:0|0:0,0:0:0:0:
359,31,191031,1,8,0:0:0:0:
359,31,191202,2,0,P|329:83|332:111,1,83.9999974365235,2|0,0:0|0:0,0:0:0:0:
369,198,191545,1,2,0:0:0:0:
291,262,191716,2,0,L|192:250,1,83.9999974365235,8|0,0:0|0:0,0:0:0:0:
75,178,192059,6,0,B|153:206|170:142|237:167,1,167.999994873047,2|8,0:0|0:0,0:0:0:0:
314,101,192573,1,0,0:0:0:0:
314,101,192745,2,0,L|410:118,1,83.9999974365235,0|2,0:0|0:0,0:0:0:0:
475,179,193088,1,8,0:0:0:0:
357,225,193259,6,0,P|336:302|390:362,1,167.999994873047,2|2,0:0|0:0,0:0:0:0:
502,295,193773,1,8,0:0:0:0:
502,295,193945,2,0,L|419:283,1,83.9999974365235,2|0,0:0|0:0,0:0:0:0:
252,260,194288,2,0,L|239:176,2,83.9999974365235,2|8|2,0:0|0:0|0:0,0:0:0:0:
167,354,194802,6,0,P|130:336|86:337,1,83.9999974365235,12|2,0:0|0:0,0:0:0:0:
21,223,195145,2,0,P|58:204|100:205,1,83.9999974365235,8|2,0:0|0:0,0:0:0:0:
169,94,195488,2,0,L|254:103,1,83.9999974365235,8|2,0:0|0:0,0:0:0:0:
369,160,195831,2,0,L|379:76,1,83.9999974365235,8|2,0:0|0:0,0:0:0:0:
311,243,196173,6,0,L|323:338,1,83.9999974365235,12|2,0:0|0:0,0:0:0:0:
447,335,196516,2,0,L|435:251,1,83.9999974365235,8|2,0:0|0:0,0:0:0:0:
483,85,196859,6,0,L|494:168,1,83.9999974365235,8|2,0:0|0:0,0:0:0:0:
369,160,197202,2,0,L|358:76,1,83.9999974365235,8|2,0:0|0:0,0:0:0:0:
244,12,197545,5,12,0:0:0:0:
244,12,197716,1,8,0:0:0:0:
113,44,197888,5,8,0:0:0:0:
113,44,198059,1,8,0:0:0:0:
283,109,198231,5,8,0:0:0:0:
283,109,198402,1,8,0:0:0:0:
125,147,198573,5,8,0:0:0:0:
244,12,198745,1,6,0:0:0:0:
125,147,199259,6,0,P|59:140|17:192,1,140
205,224,199945,1,8,0:0:0:0:
54,326,200288,6,0,B|84:346|84:346|197:335,1,140,6|8,0:0|0:0,0:0:0:0:
277,295,200802,1,0,0:0:0:0:
373,274,200973,2,0,P|374:309|362:342,2,70,0|2|8,0:0|0:0|0:0,0:0:0:0:
436,164,201488,6,0,L|294:177,1,140,2|2,0:0|0:0,0:0:0:0:
215,120,202002,1,8,0:0:0:0:
215,120,202173,2,0,P|208:85|217:52,1,70,2|0,0:0|0:0,0:0:0:0:
166,205,202516,1,2,0:0:0:0:
81,155,202688,1,8,0:0:0:0:
31,239,202859,1,0,3:0:0:0:
31,239,202945,1,0,3:0:0:0:
31,239,203031,6,0,P|42:318|99:342,1,140,2|8,3:2|0:0,0:0:0:0:
185,317,203545,1,0,0:0:0:0:
362,342,203888,2,0,L|432:335,1,70,2|8,0:0|0:0,0:0:0:0:
319,255,204231,6,0,L|461:240,1,140,2|2,0:0|0:0,0:0:0:0:
502,122,204745,1,8,0:0:0:0:
422,64,204916,2,0,B|370:48|342:95|286:78,1,140,2|2,0:0|0:0,0:0:0:0:
198,30,205431,2,0,P|186:66|192:108,1,70,8|0,0:0|0:0,0:0:0:0:
75,152,205773,6,0,P|118:205|184:222,1,140,6|8,0:0|0:0,0:0:0:0:
281,199,206288,1,0,0:0:0:0:
281,199,206459,2,0,P|332:201|360:215,1,70,0|2,0:0|0:0,0:0:0:0:
420,275,206802,1,8,0:0:0:0:
328,361,206973,6,0,B|278:341|278:341|189:354,1,140,2|2,0:0|0:0,0:0:0:0:
108,301,207488,1,8,0:0:0:0:
108,301,207659,2,0,P|60:306|32:327,1,70,2|0,0:0|0:0,0:0:0:0:
195,253,208002,1,2,0:0:0:0:
111,201,208173,2,0,P|104:155|109:126,1,70,8|0,0:0|3:0,0:0:0:0:
115,116,208431,1,0,3:0:0:0:
123,100,208516,6,0,L|194:90,1,70,2|0,3:2|0:0,0:0:0:0:
306,35,208859,2,0,L|296:106,1,70,8|0,0:0|0:0,0:0:0:0:
356,181,209202,2,0,P|387:163|421:164,2,70,0|2|8,0:0|0:0|0:0,0:0:0:0:
242,231,209716,6,0,L|259:373,1,140,6|0,0:0|3:0,0:0:0:0:
113,269,210231,2,0,L|102:343,1,70,0|0,3:0|3:0,0:0:0:0:
51,175,210573,1,8,0:0:0:0:
203,202,210745,1,8,0:0:0:0:
