osu file format v14

[General]
AudioFilename: audio.mp3
AudioLeadIn: 0
PreviewTime: 55173
Countdown: 0
SampleSet: Soft
StackLeniency: 0.7
Mode: 0
LetterboxInBreaks: 0
WidescreenStoryboard: 1

[Editor]
Bookmarks: 1367,118512,139598
DistanceSpacing: 1.5
BeatDivisor: 4
GridSize: 4
TimelineZoom: 1.8

[Metadata]
Title:Marine Bloomin'
TitleUnicode:Marine Bloomin'
Artist:Hachioji P x Marty Friedman x Kano
ArtistUnicode:八王子P × マーティ・フリードマン × 鹿乃
Creator:Firika
Version:Extra
Source:
Tags:アイマリンプロジェクト imarine project japanese jpop 8#prince hachiojip わかむらp wakamurap papple104 Dored sinn
BeatmapID:1880006
BeatmapSetID:819424

[Difficulty]
HPDrainRate:6
CircleSize:4.3
OverallDifficulty:8.5
ApproachRate:9.2
SliderMultiplier:1.6
SliderTickRate:1

[Events]
//Background and Video events
0,0,"Marine Bloomin'.jpg",0,0
//Break Periods
2,155284,165432
//Storyboard Layer 0 (Background)
//Storyboard Layer 1 (Fail)
//Storyboard Layer 2 (Pass)
//Storyboard Layer 3 (Foreground)
//Storyboard Layer 4 (Overlay)
//Storyboard Sound Samples

[TimingPoints]
1431,342.857142857143,4,2,2,40,1,0
1431,-125,4,2,2,40,0,0
5545,-125,4,2,2,45,0,0
5888,-166.666666666667,4,2,3,45,0,0
6916,-125,4,2,6,50,0,0
12059,-66.6666666666667,4,2,5,60,0,0
12402,-50,4,2,4,60,0,0
12573,-50,4,2,4,5,0,0
12659,-66.6666666666667,4,2,4,60,0,0
12831,-66.6666666666667,4,2,4,5,0,0
12916,-100,4,2,4,60,0,0
15145,-50,4,2,4,60,0,0
15316,-50,4,2,4,5,0,0
15402,-66.6666666666667,4,2,4,60,0,0
15573,-66.6666666666667,4,2,4,5,0,0
15659,-100,4,2,4,60,0,0
17888,-83.3333333333333,4,2,4,65,0,0
20716,-83.3333333333333,4,2,4,5,0,0
20802,-83.3333333333333,4,2,4,60,0,0
20888,-83.3333333333333,4,2,4,5,0,0
20973,-83.3333333333333,4,2,4,60,0,0
21059,-83.3333333333333,4,2,4,5,0,0
21145,-83.3333333333333,4,2,4,60,0,0
23373,-100,4,2,4,55,0,0
34345,-100,4,2,4,60,0,0
45316,-166.666666666667,4,2,4,55,0,0
50631,-100,4,2,4,55,0,0
50716,-100,4,2,4,5,0,0
50802,-100,4,2,4,60,0,0
51745,-100,4,2,4,5,0,0
51831,-100,4,2,4,60,0,0
52602,-100,4,2,4,5,0,0
52688,-100,4,2,4,60,0,0
53288,-100,4,2,4,5,0,0
53373,-100,4,2,4,60,0,0
53545,-100,4,2,4,65,0,0
53631,-100,4,2,4,5,0,0
53716,-100,4,2,4,65,0,0
53802,-100,4,2,4,5,0,0
53888,-100,4,2,4,65,0,0
53973,-100,4,2,4,5,0,0
54059,-100,4,2,4,65,0,0
54145,-100,4,2,4,5,0,0
54231,-100,4,2,4,65,0,0
55259,-100,4,2,4,55,0,0
55945,-71.4285714285714,4,2,5,70,0,0
56202,-71.4285714285714,4,2,5,5,0,0
56288,-83.3333333333333,4,2,4,75,0,1
76602,-71.4285714285714,4,2,4,5,0,1
76688,-71.4285714285714,4,2,4,70,0,0
77888,-66.6666666666667,4,2,5,75,0,0
78145,-66.6666666666667,4,2,4,5,0,0
78231,-66.6666666666667,4,2,6,65,0,1
79859,-66.6666666666667,4,2,6,5,0,1
79945,-66.6666666666667,4,2,6,65,0,1
80202,-66.6666666666667,4,2,6,5,0,1
80288,-66.6666666666667,4,2,6,65,0,1
80631,-66.6666666666667,4,2,98,65,0,1
80973,-66.6666666666667,4,2,6,65,0,1
81402,-66.6666666666667,4,2,6,5,0,1
81488,-66.6666666666667,4,2,6,65,0,1
81573,-66.6666666666667,4,2,6,5,0,1
81659,-66.6666666666667,4,2,6,65,0,1
82259,-66.6666666666667,4,2,6,5,0,1
82345,-66.6666666666667,4,2,6,65,0,1
82773,-66.6666666666667,4,2,6,5,0,1
82859,-66.6666666666667,4,2,6,65,0,1
82945,-66.6666666666667,4,2,6,5,0,1
83031,-66.6666666666667,4,2,6,65,0,1
83373,-66.6666666666667,4,2,6,65,0,1
83888,-66.6666666666667,4,2,99,65,0,1
83973,-66.6666666666667,4,2,6,65,0,1
84231,-66.6666666666667,4,2,99,65,0,1
84316,-66.6666666666667,4,2,6,65,0,1
84573,-66.6666666666667,4,2,99,65,0,1
84659,-66.6666666666667,4,2,6,65,0,1
84916,-66.6666666666667,4,2,99,65,0,1
85002,-66.6666666666667,4,2,6,65,0,1
86116,-66.6666666666667,4,2,98,65,0,1
86459,-66.6666666666667,4,2,6,65,0,1
86545,-66.6666666666667,4,2,6,5,0,1
86631,-66.6666666666667,4,2,6,65,0,1
86716,-66.6666666666667,4,2,6,5,0,1
86802,-66.6666666666667,4,2,6,65,0,1
86888,-66.6666666666667,4,2,6,5,0,1
86973,-66.6666666666667,4,2,6,65,0,1
87402,-66.6666666666667,4,2,6,5,0,1
87488,-66.6666666666667,4,2,6,65,0,1
87573,-66.6666666666667,4,2,6,5,0,1
87659,-66.6666666666667,4,2,4,60,0,0
88859,-66.6666666666667,4,2,5,60,0,0
89202,-125,4,2,4,55,0,0
100173,-166.666666666667,4,2,4,40,0,0
101202,-166.666666666667,4,2,4,30,0,0
101373,-166.666666666667,4,2,4,40,0,0
102745,-166.666666666667,4,2,4,30,0,0
102916,-166.666666666667,4,2,4,40,0,0
103773,-166.666666666667,4,2,4,30,0,0
103945,-166.666666666667,4,2,4,40,0,0
105145,-166.666666666667,4,2,4,55,0,0
105659,-83.3333333333333,4,2,4,60,0,0
106602,-83.3333333333333,4,2,4,5,0,0
106688,-83.3333333333333,4,2,4,60,0,0
107459,-83.3333333333333,4,2,4,5,0,0
107545,-83.3333333333333,4,2,4,60,0,0
108145,-83.3333333333333,4,2,4,5,0,0
108231,-83.3333333333333,4,2,4,60,0,0
108488,-83.3333333333333,4,2,4,5,0,0
108573,-83.3333333333333,4,2,4,60,0,0
108659,-83.3333333333333,4,2,4,5,0,0
108745,-83.3333333333333,4,2,4,60,0,0
108831,-83.3333333333333,4,2,4,5,0,0
108916,-83.3333333333333,4,2,4,60,0,0
109002,-83.3333333333333,4,2,4,5,0,0
109088,-83.3333333333333,4,2,4,60,0,0
110116,-83.3333333333333,4,2,4,55,0,0
110802,-66.6666666666667,4,2,4,60,0,0
111059,-66.6666666666667,4,2,4,5,0,0
111145,-83.3333333333333,4,2,4,75,0,1
131459,-83.3333333333333,4,2,4,5,0,1
131545,-83.3333333333333,4,2,4,70,0,0
132745,-66.6666666666667,4,2,5,75,0,0
133002,-66.6666666666667,4,2,5,5,0,0
133088,-83.3333333333333,4,2,4,60,0,0
135573,-83.3333333333333,4,2,4,5,0,0
135659,-83.3333333333333,4,2,4,60,0,0
135745,-83.3333333333333,4,2,4,5,0,0
135831,-83.3333333333333,4,2,4,60,0,0
136773,-83.3333333333333,4,2,4,5,0,0
136859,-83.3333333333333,4,2,4,60,0,0
136945,-83.3333333333333,4,2,4,5,0,0
137031,-83.3333333333333,4,2,4,60,0,0
137288,-83.3333333333333,4,2,4,5,0,0
137373,-83.3333333333333,4,2,4,60,0,0
137459,-83.3333333333333,4,2,4,5,0,0
137545,-83.3333333333333,4,2,4,60,0,0
137631,-83.3333333333333,4,2,4,5,0,0
137716,-83.3333333333333,4,2,4,60,0,0
139516,-83.3333333333333,4,2,4,5,0,0
139602,-83.3333333333333,4,2,4,60,0,0
139859,-83.3333333333333,4,2,4,5,0,0
139945,-83.3333333333333,4,2,4,60,0,0
140202,-83.3333333333333,4,2,4,5,0,0
140288,-83.3333333333333,4,2,4,60,0,0
140545,-83.3333333333333,4,2,4,5,0,0
140631,-83.3333333333333,4,2,4,60,0,0
140888,-83.3333333333333,4,2,4,5,0,0
140973,-83.3333333333333,4,2,4,60,0,0
141059,-83.3333333333333,4,2,4,5,0,0
141145,-83.3333333333333,4,2,4,60,0,0
141231,-83.3333333333333,4,2,4,5,0,0
141316,-83.3333333333333,4,2,4,60,0,0
149545,-83.3333333333333,4,2,4,70,0,0
152288,-83.3333333333333,4,2,4,75,0,0
152373,-83.3333333333333,4,2,4,5,0,0
152459,-83.3333333333333,4,2,4,75,0,0
152545,-83.3333333333333,4,2,4,5,0,0
152631,-83.3333333333333,4,2,4,75,0,0
152716,-83.3333333333333,4,2,4,5,0,0
152802,-83.3333333333333,4,2,4,75,0,0
152888,-83.3333333333333,4,2,4,5,0,0
152973,-83.3333333333333,4,2,4,75,0,0
153059,-83.3333333333333,4,2,4,5,0,0
153145,-83.3333333333333,4,2,4,75,0,0
155031,-83.3333333333333,4,2,4,65,0,0
166002,-125,4,2,5,60,0,0
166345,-125,4,2,6,60,0,0
171488,-83.3333333333333,4,2,4,70,0,1
174231,-83.3333333333333,4,2,4,75,0,1
174316,-83.3333333333333,4,2,4,5,0,1
174402,-83.3333333333333,4,2,4,60,0,1
174488,-83.3333333333333,4,2,4,5,0,1
174573,-83.3333333333333,4,2,4,60,0,1
174659,-83.3333333333333,4,2,4,5,0,1
174745,-83.3333333333333,4,2,4,60,0,1
174831,-83.3333333333333,4,2,4,5,0,1
174916,-83.3333333333333,4,2,4,60,0,1
175002,-83.3333333333333,4,2,4,5,0,1
175088,-83.3333333333333,4,2,4,60,0,1
175173,-83.3333333333333,4,2,4,5,0,1
175259,-83.3333333333333,4,2,4,60,0,1
175345,-83.3333333333333,4,2,4,5,0,1
175431,-83.3333333333333,4,2,4,70,0,1
176973,-83.3333333333333,4,2,4,70,0,0
178002,-66.6666666666667,4,2,5,60,0,0
178259,-66.6666666666667,4,2,4,5,0,0
178345,-83.3333333333333,4,2,4,80,0,1
198659,-83.3333333333333,4,2,4,5,0,1
198745,-83.3333333333333,4,2,4,80,0,0
199945,-66.6666666666667,4,2,5,75,0,0
200202,-66.6666666666667,4,2,4,5,0,0
200288,-100,4,2,4,65,0,0
208516,-100,4,2,4,70,0,0
209716,-100,4,2,4,75,0,0

[Colours]
Combo1 : 128,255,255
Combo2 : 255,255,128
Combo3 : 192,192,192
Combo4 : 255,128,191

[HitObjects]
489,121,1431,6,0,B|387:71|336:169|240:126,1,256,2|2,0:0|0:0,0:0:0:0:
296,23,2288,2,0,P|288:85|241:126,1,128,2|0,0:0|0:0,0:0:0:0:
72,30,2802,2,0,L|200:39,1,128,2|0,0:0|0:0,0:0:0:0:
200,39,3316,1,2,0:0:0:0:
241,126,3659,2,0,P|225:193|172:224,1,128,2|0,0:0|0:0,0:0:0:0:
14,327,4173,6,0,L|141:312,1,128,2|2,0:0|0:0,0:0:0:0:
14,327,4688,2,0,L|210:360,1,192,2|2,0:0|0:0,0:0:0:0:
391,315,5545,1,2,0:0:0:0:
486,179,5888,2,0,L|471:281,1,95.9999970703126,2|2,0:0|0:0,0:0:0:0:
302,35,6573,2,0,L|342:40,2,31.9999990234375,2|2|2,0:0|0:0|0:0,0:0:0:0:
286,48,6916,5,6,0:0:0:0:
215,113,7088,1,0,0:0:0:0:
195,20,7259,1,0,0:0:0:0:
306,141,7431,1,0,0:0:0:0:
304,156,7516,1,0,0:0:0:0:
303,172,7602,1,0,0:0:0:0:
302,188,7688,1,0,0:0:0:0:
300,204,7773,1,0,0:0:0:0:
224,263,7945,2,0,L|156:265,1,64,0|0,0:0|0:0,0:0:0:0:
146,273,8202,1,0,0:0:0:0:
132,282,8288,5,0,0:0:0:0:
46,239,8459,1,0,0:0:0:0:
126,186,8631,1,0,0:0:0:0:
40,143,8802,1,0,0:0:0:0:
38,127,8887,1,0,0:0:0:0:
37,111,8973,1,0,0:0:0:0:
36,95,9059,1,0,0:0:0:0:
35,80,9144,1,0,0:0:0:0:
115,27,9316,2,0,L|183:29,1,64,0|0,0:0|0:0,0:0:0:0:
193,37,9573,1,0,0:0:0:0:
207,46,9659,5,0,0:0:0:0:
296,11,9831,1,0,0:0:0:0:
281,105,10002,1,0,0:0:0:0:
370,70,10173,1,0,0:0:0:0:
385,69,10258,1,0,0:0:0:0:
401,68,10344,1,0,0:0:0:0:
417,67,10430,1,0,0:0:0:0:
433,65,10515,1,0,0:0:0:0:
507,124,10688,1,0,0:0:0:0:
418,159,10859,6,0,B|371:241|437:301|492:300|519:267|505:217|479:198|430:217|380:278|401:355|443:382|501:378,1,384
332,276,12059,6,0,P|264:261|179:271,1,120.000004577637,8|0,0:0|0:0,0:0:0:0:
24,330,12402,6,0,P|78:337|27:320,1,160,6|0,2:0|0:0,0:0:0:0:
30,331,12659,6,0,P|69:343|33:322,1,120.000004577637,6|0,2:0|0:0,0:0:0:0:
24,330,12916,6,0,P|78:337|27:320,1,160,6|2,2:0|0:0,0:0:0:0:
214,263,13431,6,0,L|208:353,1,80,8|0,0:0|0:0,0:0:0:0:
64,145,13773,5,0,3:0:0:0:
153,109,13945,1,0,0:0:0:0:
153,109,14031,1,0,3:0:0:0:
78,50,14202,1,0,0:0:0:0:
78,50,14288,1,0,3:0:0:0:
64,145,14459,1,0,0:0:0:0:
64,145,14545,1,0,3:0:0:0:
139,204,14716,1,0,0:0:0:0:
139,204,14802,1,2,3:2:0:0:
64,145,14973,1,8,3:2:0:0:
167,14,15145,6,0,L|326:7,1,160,6|0,0:0|0:0,0:0:0:0:
309,21,15402,6,0,L|187:26,1,120.000004577637,6|0,0:0|0:0,0:0:0:0:
167,14,15659,6,0,L|326:7,1,160,6|0,0:0|0:0,0:0:0:0:
486,119,16173,6,0,P|437:102|374:114,1,80,8|0,0:0|0:0,0:0:0:0:
228,168,16516,5,0,3:0:0:0:
303,227,16688,1,0,0:0:0:0:
303,227,16773,1,0,3:0:0:0:
378,286,16945,1,0,0:0:0:0:
378,286,17030,1,0,3:0:0:0:
289,322,17202,1,0,0:0:0:0:
289,322,17288,1,0,3:0:0:0:
214,263,17459,1,0,0:0:0:0:
214,263,17545,2,0,L|167:257,1,40
303,227,17716,1,8,3:2:0:0:
200,358,17888,5,6,0:0:0:0:
21,299,18145,1,0,0:0:0:0:
21,299,18231,2,0,L|6:187,1,95.9999970703126,2|0,0:0|0:0,0:0:0:0:
141,105,18573,1,2,0:0:0:0:
141,105,18659,2,0,L|136:152,1,47.9999985351563,0|8,0:0|0:0,0:0:0:0:
82,29,18916,1,2,0:0:0:0:
237,92,19088,1,8,0:0:0:0:
45,118,19259,5,6,0:0:0:0:
274,3,19516,1,0,0:0:0:0:
274,3,19602,2,0,L|385:19,1,95.9999970703126,2|0,0:0|0:0,0:0:0:0:
496,85,19945,1,2,0:0:0:0:
500,108,20030,1,0,0:0:0:0:
504,132,20116,1,8,0:0:0:0:
456,237,20288,1,2,0:0:0:0:
315,165,20459,1,8,0:0:0:0:
338,161,20545,1,8,0:0:0:0:
362,157,20631,6,0,L|357:231,1,47.9999985351563,12|0,0:0|0:0,0:0:0:0:
456,237,20802,2,0,L|451:311,1,47.9999985351563,8|0,0:0|0:0,0:0:0:0:
257,220,20973,2,0,L|253:267,1,47.9999985351563,8|0,0:0|0:0,0:0:0:0:
349,300,21145,1,8,0:0:0:0:
335,326,21230,1,0,0:0:0:0:
314,348,21316,1,8,0:0:0:0:
288,362,21402,1,8,0:0:0:0:
259,368,21487,1,8,0:0:0:0:
229,366,21573,1,8,0:0:0:0:
201,355,21659,1,8,0:0:0:0:
178,336,21745,1,8,0:0:0:0:
159,309,21831,6,0,P|72:286|18:359,1,191.999994140625,12|0,0:0|3:0,0:0:0:0:
36,351,22345,5,0,1:0:0:0:
74,284,22516,1,0,1:0:0:0:
72,188,22688,1,0,1:0:0:0:
17,66,22859,1,0,1:0:0:0:
234,30,23031,5,8,0:0:0:0:
157,235,23202,1,2,0:0:0:0:
94,105,23373,5,6,0:0:0:0:
297,160,23545,1,0,0:0:0:0:
297,160,23716,2,0,P|330:138|369:133,1,80,8|0,0:0|0:0,0:0:0:0:
462,162,24059,1,0,0:0:0:0:
462,162,24231,1,2,0:0:0:0:
421,349,24402,1,8,0:0:0:0:
421,349,24574,1,0,0:0:0:0:
482,275,24745,6,0,P|409:251|343:292,1,160,2|8,0:0|0:0,0:0:0:0:
170,345,25259,2,0,P|188:265|261:291,1,160,0|2,0:0|0:0,0:0:0:0:
25,201,25773,2,0,L|35:308,1,80,8|0,0:0|0:0,0:0:0:0:
184,90,26116,6,0,P|88:84|25:53,1,160,2|8,0:0|0:0,0:0:0:0:
322,92,26631,2,0,P|292:118|274:153,1,80,0|0,0:0|0:0,0:0:0:0:
200,293,26973,1,2,0:0:0:0:
174,199,27145,1,8,0:0:0:0:
22,357,27316,6,0,P|93:324|173:322,1,160,2|2,0:0|0:0,0:0:0:0:
404,367,27831,1,8,0:0:0:0:
246,289,28002,1,2,0:0:0:0:
404,367,28173,1,0,0:0:0:0:
293,220,28345,1,2,0:0:0:0:
490,175,28516,2,0,L|481:254,1,80,8|0,0:0|0:0,0:0:0:0:
404,367,28859,5,6,0:0:0:0:
324,144,29031,1,0,0:0:0:0:
324,144,29202,2,0,P|363:137|397:116,1,80,8|0,0:0|0:0,0:0:0:0:
447,34,29545,1,0,0:0:0:0:
447,34,29716,1,2,0:0:0:0:
259,75,29888,1,8,0:0:0:0:
259,75,30059,1,0,0:0:0:0:
183,14,30231,6,0,P|163:90|205:155,1,160,2|8,0:0|0:0,0:0:0:0:
384,182,30745,2,0,P|329:236|256:215,1,160,0|2,0:0|0:0,0:0:0:0:
91,121,31259,2,0,P|52:125|14:138,1,80,8|0,0:0|0:0,0:0:0:0:
103,347,31602,6,0,P|108:269|145:173,1,160,2|8,0:0|0:0,0:0:0:0:
59,35,32116,2,0,P|96:19|135:16,1,80
234,108,32459,2,0,P|271:124|310:126,1,80,2|8,0:0|0:0,0:0:0:0:
497,140,32802,6,0,P|420:130|386:62,1,160,6|0,0:0|3:0,0:0:0:0:
376,51,33316,5,0,1:0:0:0:
317,106,33488,1,0,1:0:0:0:
295,207,33659,1,0,1:0:0:0:
327,331,33831,1,0,1:0:0:0:
202,234,34002,5,8,0:0:0:0:
420,304,34173,1,2,0:0:0:0:
317,106,34345,5,6,0:0:0:0:
126,175,34516,1,0,0:0:0:0:
125,175,34688,2,0,P|107:210|107:250,1,80,8|0,0:0|0:0,0:0:0:0:
134,343,35031,1,0,0:0:0:0:
134,343,35202,1,2,0:0:0:0:
327,331,35373,1,8,0:0:0:0:
327,331,35544,1,0,0:0:0:0:
415,372,35716,6,0,P|419:295|364:240,1,160,2|8,0:0|0:0,0:0:0:0:
428,86,36231,2,0,P|353:82|324:152,1,160,0|2,0:0|0:0,0:0:0:0:
164,154,36745,2,0,P|196:177|235:189,1,80,8|0,0:0|0:0,0:0:0:0:
40,42,37088,6,0,P|66:117|78:197,1,160,2|8,0:0|0:0,0:0:0:0:
90,349,37602,2,0,P|50:346|12:333,1,80,0|0,0:0|0:0,0:0:0:0:
187,347,37945,1,2,0:0:0:0:
238,265,38116,1,8,0:0:0:0:
308,108,38288,6,0,P|308:188|334:262,1,160,2|2,0:0|0:0,0:0:0:0:
416,314,38802,1,8,0:0:0:0:
283,350,38973,1,2,0:0:0:0:
416,314,39145,1,0,0:0:0:0:
238,265,39316,1,2,0:0:0:0:
465,103,39488,2,0,P|477:141|476:181,1,80,8|0,0:0|0:0,0:0:0:0:
416,314,39831,5,6,0:0:0:0:
308,108,40002,1,0,0:0:0:0:
308,108,40173,2,0,P|254:130|226:129,1,80,8|0,0:0|0:0,0:0:0:0:
139,101,40516,1,0,0:0:0:0:
139,101,40688,1,2,0:0:0:0:
69,279,40859,1,8,0:0:0:0:
69,279,41031,1,0,0:0:0:0:
152,326,41202,6,0,P|160:248|108:191,1,160,2|8,0:0|0:0,0:0:0:0:
278,282,41716,2,0,P|339:265|365:169,1,160,0|2,0:0|0:0,0:0:0:0:
427,364,42231,2,0,P|478:352|507:329,1,80,8|0,0:0|0:0,0:0:0:0:
278,282,42573,6,0,P|261:174|274:90,1,160,2|8,0:0|0:0,0:0:0:0:
86,50,43088,2,0,P|138:82|178:75,1,80,0|0,0:0|0:0,0:0:0:0:
55,246,43431,2,0,P|107:214|147:221,1,80,2|8,0:0|0:0,0:0:0:0:
308,39,43773,6,0,P|361:96|452:78,1,160,6|0,0:0|3:0,0:0:0:0:
448,83,44288,5,0,1:0:0:0:
481,156,44459,1,0,1:0:0:0:
472,260,44631,1,0,1:0:0:0:
396,363,44802,1,0,1:0:0:0:
190,243,44973,5,0,1:0:0:0:
386,200,45145,1,0,1:0:0:0:
104,183,45316,5,6,0:0:0:0:
104,183,45831,1,2,0:0:0:0:
57,16,46002,2,0,P|39:31|16:38,2,47.9999985351563,8|0|2,0:0|0:0|0:0,0:0:0:0:
187,134,46516,6,0,P|276:134|340:162,1,143.999995605469,0|2,0:0|0:0,0:0:0:0:
28,369,47373,2,0,P|19:343|19:310,1,47.9999985351563,8|0,0:0|0:0,0:0:0:0:
133,323,47716,2,0,P|138:295|154:267,1,47.9999985351563,2|0,0:0|0:0,0:0:0:0:
387,358,48059,6,0,P|320:332|249:331,1,143.999995605469,6|2,0:0|0:0,0:0:0:0:
476,256,48745,1,8,0:0:0:0:
476,256,49088,6,0,P|412:236|429:163,1,143.999995605469,2|2,0:0|0:0,0:0:0:0:
261,101,49773,1,8,0:0:0:0:
251,15,49945,1,2,0:0:0:0:
138,166,50116,1,8,0:0:0:0:
52,156,50288,1,2,0:0:0:0:
280,246,50459,1,8,0:0:0:0:
280,246,50631,2,0,L|294:178,1,40,2|0,0:0|0:0,0:0:0:0:
111,338,50802,5,6,3:2:0:0:
135,321,50887,1,0,3:0:0:0:
164,311,50973,1,0,3:0:0:0:
193,308,51059,1,0,3:0:0:0:
223,312,51145,1,2,3:2:0:0:
252,320,51230,1,0,3:0:0:0:
281,327,51316,1,0,3:0:0:0:
310,334,51402,1,0,3:0:0:0:
340,341,51488,1,2,3:2:0:0:
364,347,51573,1,0,3:0:0:0:
388,344,51659,6,0,L|442:336,1,40,8|0,3:2|0:0,0:0:0:0:
502,155,51831,1,2,3:2:0:0:
448,319,52002,5,6,3:2:0:0:
462,294,52088,1,0,3:0:0:0:
466,264,52174,1,0,3:0:0:0:
459,235,52260,1,0,3:0:0:0:
442,211,52345,1,2,3:2:0:0:
416,195,52431,1,0,3:0:0:0:
387,190,52516,6,0,L|324:203,1,40,8|0,3:2|0:0,0:0:0:0:
166,123,52688,1,2,3:2:0:0:
335,220,52859,5,2,3:2:0:0:
313,239,52945,1,0,3:0:0:0:
285,250,53030,1,2,3:2:0:0:
256,252,53116,1,0,3:0:0:0:
227,245,53202,2,0,P|208:238|179:236,1,40,8|0,3:2|0:0,0:0:0:0:
66,136,53373,5,8,3:2:0:0:
96,132,53459,1,8,3:2:0:0:
126,128,53545,2,0,L|166:123,1,40,12|0,3:2|0:0,0:0:0:0:
325,104,53716,2,0,L|365:99,1,40,8|0,3:2|0:0,0:0:0:0:
81,277,53888,6,0,L|121:282,1,40,8|0,3:2|0:0,0:0:0:0:
368,312,54059,2,0,L|408:317,1,40,8|0,3:2|0:0,0:0:0:0:
250,37,54231,5,8,3:2:0:0:
247,76,54316,1,8,3:2:0:0:
244,116,54402,1,8,3:2:0:0:
241,156,54488,1,8,3:2:0:0:
238,196,54573,1,12,3:2:0:0:
238,196,55259,5,0,0:0:0:0:
226,355,55602,1,0,0:0:0:0:
250,37,55945,2,0,B|245:111|245:111|252:118|252:118|244:122|244:122|238:201,1,167.999994873047,8|0,0:0|0:0,0:0:0:0:
263,281,56288,6,0,B|177:304|168:211|87:232,1,191.999994140625,6|8,0:0|0:0,0:0:0:0:
252,118,56802,1,0,0:0:0:0:
252,118,56973,1,0,0:0:0:0:
44,326,57145,2,0,P|42:279|69:241,1,95.9999970703126,2|8,0:0|0:0,0:0:0:0:
269,109,57488,6,0,P|222:128|75:128,1,191.999994140625,2|2,0:0|0:0,0:0:0:0:
326,366,58002,1,8,0:0:0:0:
396,287,58173,2,0,P|402:239|394:192,1,95.9999970703126,2|0,0:0|0:0,0:0:0:0:
326,366,58516,1,2,0:0:0:0:
401,94,58688,2,0,P|459:78|507:82,1,95.9999970703126,8|0,0:0|0:0,0:0:0:0:
248,14,59031,6,0,P|269:107|260:202,1,191.999994140625,2|8,0:0|0:0,0:0:0:0:
120,361,59545,1,0,0:0:0:0:
120,361,59716,1,0,0:0:0:0:
335,244,59888,2,0,P|301:212|255:218,1,95.9999970703126,2|8,0:0|0:0,0:0:0:0:
109,349,60231,6,0,P|199:321|294:333,1,191.999994140625,2|2,0:0|0:0,0:0:0:0:
53,174,60745,1,8,0:0:0:0:
109,349,60916,2,0,P|122:304|121:256,1,95.9999970703126,2|0,0:0|0:0,0:0:0:0:
204,30,61259,1,2,0:0:0:0:
166,131,61431,1,8,0:0:0:0:
98,48,61602,1,0,0:0:0:0:
272,165,61773,6,0,P|327:150|385:148,1,95.9999970703126,2|0,0:0|0:0,0:0:0:0:
215,274,62116,2,0,P|160:259|102:257,1,95.9999970703126,8|0,0:0|0:0,0:0:0:0:
368,371,62459,1,0,0:0:0:0:
453,307,62631,2,0,P|462:260|460:213,1,95.9999970703126,2|8,0:0|0:0,0:0:0:0:
368,371,62973,1,0,0:0:0:0:
272,165,63145,5,2,0:0:0:0:
460,213,63316,1,0,0:0:0:0:
266,339,63488,1,8,0:0:0:0:
357,101,63659,2,0,P|404:94|451:99,1,95.9999970703126,2|0,0:0|0:0,0:0:0:0:
98,48,64002,1,2,0:0:0:0:
166,131,64173,1,8,0:0:0:0:
204,30,64345,1,0,0:0:0:0:
53,174,64516,6,0,P|141:152|248:159,1,191.999994140625,2|8,0:0|0:0,0:0:0:0:
422,45,65031,2,0,P|401:86|357:101,1,95.9999970703126,2|0,0:0|0:0,0:0:0:0:
125,291,65373,2,0,P|166:267|213:261,1,95.9999970703126,2|8,0:0|0:0,0:0:0:0:
477,319,65716,6,0,P|386:294|316:230,1,191.999994140625,2|2,0:0|0:0,0:0:0:0:
98,48,66231,1,8,0:0:0:0:
204,30,66402,1,2,0:0:0:0:
125,291,66573,1,8,0:0:0:0:
19,273,66745,1,2,0:0:0:0:
231,237,66916,1,8,0:0:0:0:
379,76,67088,1,8,0:0:0:0:
379,76,67173,1,8,0:0:0:0:
379,76,67259,6,0,P|399:162|381:293,1,191.999994140625,6|8,0:0|0:0,0:0:0:0:
224,355,67773,1,0,0:0:0:0:
224,355,67945,1,0,0:0:0:0:
487,276,68116,2,0,P|448:249|402:253,1,95.9999970703126,2|8,0:0|0:0,0:0:0:0:
212,344,68459,6,0,P|208:248|169:155,1,191.999994140625,2|2,0:0|0:0,0:0:0:0:
37,51,68973,1,8,0:0:0:0:
136,82,69145,2,0,P|183:74|224:49,1,95.9999970703126,2|0,0:0|0:0,0:0:0:0:
37,51,69488,1,2,0:0:0:0:
324,81,69659,2,0,P|348:151|346:204,1,95.9999970703126,8|0,0:0|0:0,0:0:0:0:
212,344,70002,6,0,P|293:309|434:317,1,191.999994140625,2|8,0:0|0:0,0:0:0:0:
165,238,70516,1,0,0:0:0:0:
165,238,70688,1,0,0:0:0:0:
489,272,70859,2,0,P|460:308|414:315,1,95.9999970703126,2|8,0:0|0:0,0:0:0:0:
173,218,71202,6,0,P|161:123|171:28,1,191.999994140625,2|2,0:0|0:0,0:0:0:0:
92,288,71716,1,8,0:0:0:0:
276,192,71888,2,0,P|277:239|267:286,1,95.9999970703126,2|0,0:0|0:0,0:0:0:0:
28,92,72231,1,2,0:0:0:0:
130,113,72402,1,8,0:0:0:0:
60,190,72573,1,2,0:0:0:0:
171,28,72745,6,0,P|218:20|266:27,1,95.9999970703126,12|2,0:0|0:0,0:0:0:0:
439,148,73088,2,0,P|482:109|488:73,1,95.9999970703126,8|2,0:0|0:0,0:0:0:0:
317,291,73431,1,8,0:0:0:0:
242,218,73602,2,0,P|227:173|227:126,1,95.9999970703126,2|8,0:0|0:0,0:0:0:0:
117,349,73945,1,2,0:0:0:0:
342,189,74116,5,12,0:0:0:0:
317,291,74288,1,2,0:0:0:0:
242,218,74459,1,8,0:0:0:0:
397,28,74631,2,0,P|418:71|421:119,1,95.9999970703126,2|8,0:0|0:0,0:0:0:0:
317,291,74973,1,2,0:0:0:0:
142,247,75145,1,8,0:0:0:0:
342,189,75316,1,2,0:0:0:0:
114,348,75488,5,12,3:2:0:0:
133,328,75573,1,0,3:0:0:0:
145,302,75659,1,8,3:2:0:0:
148,275,75745,1,0,3:0:0:0:
142,247,75831,1,8,3:2:0:0:
127,224,75916,1,0,3:0:0:0:
104,205,76002,5,8,3:2:0:0:
77,180,76087,1,0,3:0:0:0:
62,147,76173,1,8,3:2:0:0:
61,110,76259,1,0,3:0:0:0:
76,75,76345,1,8,3:2:0:0:
102,50,76431,1,0,3:0:0:0:
137,37,76516,6,0,P|173:38|203:53,1,47.9999985351563,8|0,3:2|0:0,0:0:0:0:
342,189,76688,1,6,3:2:0:0:
356,209,77888,6,0,P|404:136|379:53,1,180.000006866455,8|0,0:0|0:0,0:0:0:0:
266,9,78231,6,0,B|251:30|251:30|256:93|256:93|276:117,1,120.000004577637,6|0,0:0|3:0,0:0:0:0:
342,189,78488,1,0,3:0:0:0:
355,209,78573,1,8,3:2:0:0:
320,203,78658,1,0,3:0:0:0:
284,206,78744,1,0,3:0:0:0:
251,219,78830,1,0,3:0:0:0:
222,240,78915,1,0,3:0:0:0:
185,245,79002,1,0,3:0:0:0:
149,241,79088,1,2,3:2:0:0:
116,229,79174,1,0,3:0:0:0:
87,208,79259,2,0,P|68:174|68:146,1,60.0000022888184,8|0,3:2|3:0,0:0:0:0:
22,301,79431,1,0,3:0:0:0:
114,87,79602,6,0,P|204:66|299:76,1,180.000006866455,2|0,1:2|0:0,0:0:0:0:
353,162,79945,6,0,P|274:152|290:73,1,180.000006866455,8|0,1:2|0:0,0:0:0:0:
419,57,80288,5,0,3:0:0:0:
413,101,80373,1,0,3:0:0:0:
434,141,80459,1,2,3:2:0:0:
428,185,80544,1,0,3:0:0:0:
449,225,80631,2,0,L|442:261,6,30.0000011444092,8|0|0|0|0|0|0,3:2|3:0|3:0|3:0|3:0|3:0|3:0,0:0:0:0:
374,326,80973,6,0,P|319:305|259:303,1,120.000004577637,6|0,3:2|3:0,0:0:0:0:
95,280,81231,1,0,3:0:0:0:
98,300,81316,2,0,L|107:365,1,60.0000022888184,8|0,3:2|0:0,0:0:0:0:
263,287,81488,2,0,L|272:222,1,60.0000022888184,2|0,3:2|0:0,0:0:0:0:
79,173,81659,6,0,L|62:47,1,120.000004577637,0|2,3:2|3:2,0:0:0:0:
157,14,81916,1,0,3:0:0:0:
165,42,82002,1,8,3:2:0:0:
183,66,82087,1,0,3:0:0:0:
209,80,82173,2,0,B|241:86|241:86|288:75,1,60.0000022888184,0|0,3:0|0:0,0:0:0:0:
433,158,82345,6,0,P|450:101|450:42,1,120.000004577637,2|2,3:2|3:2,0:0:0:0:
290,156,82602,1,0,3:0:0:0:
280,138,82688,2,0,P|271:109|268:79,1,60.0000022888184,8|0,3:2|0:0,0:0:0:0:
424,237,82859,2,0,P|433:208|436:179,1,60.0000022888184,2|0,3:2|0:0,0:0:0:0:
292,309,83031,5,0,3:0:0:0:
252,288,83116,1,0,3:0:0:0:
208,289,83202,1,2,3:2:0:0:
169,311,83288,1,0,3:0:0:0:
146,349,83373,2,0,P|98:362|45:300,1,120.000004577637,8|0,3:0|0:0,0:0:0:0:
217,65,83716,5,6,3:2:0:0:
220,87,83802,1,0,3:0:0:0:
218,109,83887,1,2,3:2:0:0:
211,130,83973,1,0,3:0:0:0:
198,149,84059,2,0,P|174:167|145:173,1,60.0000022888184,8|0,3:2|3:0,0:0:0:0:
74,231,84231,2,0,P|46:219|26:197,1,60.0000022888184,2|0,3:2|3:0,0:0:0:0:
93,23,84402,5,2,3:2:0:0:
128,10,84488,1,0,3:0:0:0:
165,13,84573,1,2,3:2:0:0:
197,33,84659,1,0,3:0:0:0:
217,65,84745,2,0,L|276:71,1,60.0000022888184,8|0,3:2|3:0,0:0:0:0:
382,127,84916,2,0,P|395:100|397:70,1,60.0000022888184,2|0,3:2|3:0,0:0:0:0:
281,192,85088,5,2,3:2:0:0:
284,214,85173,1,0,3:0:0:0:
287,236,85259,1,0,3:0:0:0:
290,259,85345,1,0,3:0:0:0:
309,281,85431,5,8,3:2:0:0:
281,272,85516,1,0,3:0:0:0:
251,273,85602,1,2,3:2:0:0:
223,282,85688,1,0,3:0:0:0:
199,300,85773,5,0,3:0:0:0:
182,258,85858,1,0,3:0:0:0:
147,231,85944,1,2,3:2:0:0:
103,224,86030,1,0,3:0:0:0:
62,240,86116,2,0,L|36:260,6,30.0000011444092,8|0|0|0|0|0|0,3:2|3:0|3:0|3:0|3:0|3:0|3:0,0:0:0:0:
90,344,86459,6,0,L|149:354,1,60.0000022888184,6|0,0:0|0:0,0:0:0:0:
232,305,86631,2,0,L|291:315,1,60.0000022888184,0|0,3:0|0:0,0:0:0:0:
374,266,86802,2,0,L|433:276,1,60.0000022888184,8|0,0:0|0:0,0:0:0:0:
493,100,86973,5,2,3:2:0:0:
490,78,87058,1,0,3:0:0:0:
476,60,87144,1,0,3:0:0:0:
455,53,87230,1,0,3:0:0:0:
434,59,87316,2,0,P|410:74|377:80,1,60.0000022888184,2|0,3:2|0:0,0:0:0:0:
265,172,87488,2,0,P|255:200|256:230,1,60.0000022888184,8|0,3:2|0:0,0:0:0:0:
109,88,87659,5,6,0:0:0:0:
256,192,87745,12,8,88859,0:0:0:0:
441,196,89202,6,0,P|470:207|493:230,2,64,6|0|0,0:0|0:0|0:0,0:0:0:0:
416,289,89716,2,0,P|346:272|287:281,1,128,2|0,0:0|0:0,0:0:0:0:
212,335,90231,2,0,P|197:306|194:274,1,64,2|0,0:0|0:0,0:0:0:0:
75,362,90573,6,0,P|93:322|97:232,1,128,0|2,0:0|0:0,0:0:0:0:
178,184,91088,2,0,P|209:182|238:169,1,64,0|8,0:0|0:0,0:0:0:0:
88,147,91431,1,0,0:0:0:0:
88,147,91602,2,0,P|71:110|72:72,1,64,2|0,0:0|0:0,0:0:0:0:
141,21,91945,6,0,B|205:11|196:55|263:44,1,128,2|0,0:0|0:0,0:0:0:0:
352,81,92459,2,0,P|389:68|414:40,1,64,2|8,0:0|0:0,0:0:0:0:
483,108,92802,1,0,0:0:0:0:
483,108,92973,1,2,0:0:0:0:
440,194,93145,6,0,P|371:180|311:182,2,128,8|2|2,0:0|0:0|0:0,0:0:0:0:
497,271,94002,2,0,L|488:334,1,64,8|2,0:0|0:0,0:0:0:0:
368,360,94345,2,0,L|359:296,1,64,8|0,0:0|0:0,0:0:0:0:
313,181,94688,5,2,0:0:0:0:
232,233,94859,2,0,P|223:263|222:295,1,64,0|0,0:0|0:0,0:0:0:0:
171,159,95202,2,0,L|42:177,1,128,2|0,0:0|0:0,0:0:0:0:
64,82,95716,2,0,L|127:73,1,64,2|0,0:0|0:0,0:0:0:0:
214,32,96059,6,0,P|263:64|343:84,1,128,0|2,0:0|0:0,0:0:0:0:
488,128,96573,2,0,P|426:122|380:164,1,128,0|0,0:0|0:0,0:0:0:0:
296,212,97088,2,0,P|312:253|314:286,1,64,2|0,0:0|0:0,0:0:0:0:
495,321,97431,6,0,P|437:348|374:347,1,128,2|0,0:0|0:0,0:0:0:0:
280,368,97945,2,0,P|242:339|228:334,1,64,2|8,0:0|0:0,0:0:0:0:
160,264,98288,2,0,P|166:216|163:201,1,64,2|8,0:0|0:0,0:0:0:0:
46,164,98631,6,0,P|36:230|51:293,1,128,6|0,0:0|3:0,0:0:0:0:
54,301,99145,5,0,1:0:0:0:
129,284,99316,1,0,1:0:0:0:
223,300,99488,1,0,1:0:0:0:
315,369,99659,1,0,1:0:0:0:
465,333,99831,1,0,1:0:0:0:
502,106,100002,1,0,1:0:0:0:
360,150,100173,6,0,B|348:135|308:117|261:151|235:253|381:220|326:357,1,287.999991210938,6|0,0:0|0:0,0:0:0:0:
249,311,101373,6,0,P|199:310|151:329,1,95.9999970703126,2|0,0:0|0:0,0:0:0:0:
67,288,101888,2,0,L|60:241,1,47.9999985351563
162,213,102231,2,0,L|170:166,1,47.9999985351563
64,122,102573,2,0,L|57:75,1,47.9999985351563
198,43,102916,6,0,P|245:41|289:59,1,95.9999970703126,2|0,0:0|0:0,0:0:0:0:
404,111,103431,2,0,L|390:217,1,95.9999970703126
330,315,103945,2,0,B|255:289|229:368|146:339,1,191.999994140625,2|0,0:0|0:0,0:0:0:0:
76,262,105145,5,0,0:0:0:0:
178,241,105316,1,0,0:0:0:0:
146,339,105487,1,0,0:0:0:0:
23,56,105659,5,6,3:2:0:0:
58,52,105744,1,0,3:0:0:0:
94,57,105830,1,0,3:0:0:0:
126,71,105916,1,0,3:0:0:0:
154,94,106002,1,2,3:2:0:0:
182,117,106088,1,0,3:0:0:0:
214,131,106174,1,0,3:0:0:0:
250,136,106259,1,0,3:0:0:0:
286,132,106345,1,2,3:2:0:0:
319,116,106431,1,0,3:0:0:0:
342,89,106516,6,0,L|352:38,1,47.9999985351563,8|0,3:2|0:0,0:0:0:0:
311,242,106688,1,2,3:2:0:0:
379,18,106859,5,6,3:2:0:0:
412,6,106944,1,0,3:0:0:0:
448,10,107030,1,0,3:0:0:0:
477,29,107116,1,0,3:0:0:0:
496,60,107201,1,2,3:2:0:0:
498,95,107287,1,0,3:0:0:0:
484,128,107373,6,0,P|476:151|474:175,1,47.9999985351563,8|0,3:2|0:0,0:0:0:0:
436,328,107545,1,2,3:2:0:0:
479,210,107717,5,2,3:2:0:0:
445,202,107802,1,0,3:0:0:0:
409,204,107888,1,2,3:2:0:0:
376,217,107974,1,0,3:0:0:0:
348,239,108059,2,0,P|319:226|293:222,1,47.9999985351563,8|0,3:2|0:0,0:0:0:0:
65,164,108231,5,8,3:2:0:0:
60,129,108316,1,8,3:2:0:0:
55,94,108402,2,0,L|47:32,1,47.9999985351563,12|0,3:2|0:0,0:0:0:0:
79,258,108573,2,0,L|87:320,1,47.9999985351563,8|0,3:2|0:0,0:0:0:0:
271,76,108745,6,0,L|279:14,1,47.9999985351563,8|0,3:2|0:0,0:0:0:0:
242,298,108916,2,0,L|234:360,1,47.9999985351563,8|0,3:2|0:0,0:0:0:0:
8,170,109088,5,8,3:2:0:0:
65,164,109173,1,8,3:2:0:0:
122,158,109259,1,8,3:2:0:0:
179,152,109345,1,8,3:2:0:0:
236,146,109431,1,12,3:2:0:0:
236,146,110116,5,0,0:0:0:0:
464,122,110459,1,0,0:0:0:0:
8,170,110802,2,0,B|86:162|86:162|95:169|95:169|101:160|101:160|180:152,1,180.000006866455,8|0,0:0|0:0,0:0:0:0:
276,108,111145,6,0,B|312:205|225:207|266:297,1,191.999994140625,6|8,0:0|0:0,0:0:0:0:
427,363,111659,1,0,0:0:0:0:
427,363,111831,1,0,0:0:0:0:
166,315,112002,2,0,P|201:284|249:284,1,95.9999970703126,2|8,0:0|0:0,0:0:0:0:
441,354,112345,6,0,P|437:246|458:161,1,191.999994140625,2|2,0:0|0:0,0:0:0:0:
284,33,112859,1,8,0:0:0:0:
379,79,113031,2,0,P|419:54|467:49,1,95.9999970703126,2|0,0:0|0:0,0:0:0:0:
182,63,113373,1,2,0:0:0:0:
467,50,113545,2,0,P|426:74|378:79,1,95.9999970703126,8|0,0:0|0:0,0:0:0:0:
211,250,113888,6,0,P|210:154|182:63,1,191.999994140625,2|8,0:0|0:0,0:0:0:0:
62,194,114402,1,0,0:0:0:0:
62,194,114573,1,0,0:0:0:0:
280,53,114745,2,0,P|237:34|193:50,1,95.9999970703126,2|8,0:0|0:0,0:0:0:0:
53,208,115088,6,0,P|137:239|242:235,1,191.999994140625,2|2,0:0|0:0,0:0:0:0:
501,251,115602,1,8,0:0:0:0:
426,176,115773,2,0,P|378:173|333:188,1,95.9999970703126,2|0,0:0|0:0,0:0:0:0:
68,342,116116,1,2,0:0:0:0:
139,262,116287,1,8,0:0:0:0:
173,363,116459,1,0,0:0:0:0:
53,208,116631,5,2,0:0:0:0:
138,146,116802,2,0,P|203:140|248:153,1,95.9999970703126,0|8,0:0|0:0,0:0:0:0:
428,239,117145,1,0,0:0:0:0:
232,146,117317,1,0,0:0:0:0:
392,45,117488,2,0,P|399:92|391:140,1,95.9999970703126,2|8,0:0|0:0,0:0:0:0:
281,311,117831,1,0,0:0:0:0:
138,146,118002,5,2,0:0:0:0:
343,216,118173,1,0,0:0:0:0:
139,262,118345,1,8,0:0:0:0:
231,51,118516,2,0,P|239:98|232:146,1,95.9999970703126,2|0,0:0|0:0,0:0:0:0:
68,342,118859,1,2,0:0:0:0:
139,262,119030,1,8,0:0:0:0:
173,363,119202,1,0,0:0:0:0:
43,83,119373,6,0,P|135:55|231:51,1,191.999994140625,2|8,0:0|0:0,0:0:0:0:
472,134,119888,2,0,P|491:91|487:44,1,95.9999970703126,2|0,0:0|0:0,0:0:0:0:
278,161,120231,2,0,P|275:208|295:252,1,95.9999970703126,2|8,0:0|0:0,0:0:0:0:
467,331,120573,6,0,P|371:335|279:363,1,191.999994140625,2|2,0:0|0:0,0:0:0:0:
35,249,121088,1,8,0:0:0:0:
139,262,121259,1,2,0:0:0:0:
287,111,121431,1,8,0:0:0:0:
183,124,121602,1,2,0:0:0:0:
280,363,121773,1,8,0:0:0:0:
439,160,121945,1,8,0:0:0:0:
439,160,122031,1,8,0:0:0:0:
438,160,122116,6,0,P|354:205|260:217,1,191.999994140625,6|8,0:0|0:0,0:0:0:0:
70,144,122631,1,0,0:0:0:0:
70,144,122802,1,0,0:0:0:0:
267,318,122973,2,0,P|285:275|267:232,1,95.9999970703126,2|8,0:0|0:0,0:0:0:0:
61,129,123316,6,0,P|45:223|54:318,1,191.999994140625,2|2,0:0|0:0,0:0:0:0:
181,93,123831,1,8,0:0:0:0:
97,28,124002,2,0,P|50:21|6:37,1,95.9999970703126,2|0,0:0|0:0,0:0:0:0:
282,62,124345,1,2,0:0:0:0:
5,36,124516,2,0,P|52:44|97:27,1,95.9999970703126,8|0,0:0|0:0,0:0:0:0:
198,281,124859,6,0,P|202:186|180:93,1,191.999994140625,2|8,0:0|0:0,0:0:0:0:
390,158,125373,1,0,0:0:0:0:
390,158,125545,1,0,0:0:0:0:
93,132,125716,2,0,P|118:93|165:87,1,95.9999970703126,2|8,0:0|0:0,0:0:0:0:
381,173,126059,6,0,P|357:226|341:371,1,191.999994140625,2|2,0:0|0:0,0:0:0:0:
290,116,126573,1,8,0:0:0:0:
473,153,126745,2,0,P|427:169|380:172,1,95.9999970703126,2|0,0:0|0:0,0:0:0:0:
120,55,127088,1,2,0:0:0:0:
223,36,127260,1,8,0:0:0:0:
187,135,127431,1,2,0:0:0:0:
12,300,127602,6,0,P|58:311|101:332,1,95.9999970703126,12|2,0:0|0:0,0:0:0:0:
326,251,127945,2,0,P|283:272|237:284,1,95.9999970703126,8|2,0:0|0:0,0:0:0:0:
16,73,128288,1,8,0:0:0:0:
120,55,128459,2,0,P|166:66|209:87,1,95.9999970703126,2|8,0:0|0:0,0:0:0:0:
90,218,128802,1,2,0:0:0:0:
313,61,128973,5,12,0:0:0:0:
284,163,129144,1,2,0:0:0:0:
209,87,129316,1,8,0:0:0:0:
417,35,129488,2,0,P|434:97|431:144,1,95.9999970703126,2|8,0:0|0:0,0:0:0:0:
351,358,129831,1,2,0:0:0:0:
284,163,130002,1,8,0:0:0:0:
480,248,130173,1,2,0:0:0:0:
231,308,130345,5,12,3:2:0:0:
213,282,130431,1,0,3:0:0:0:
206,251,130517,1,8,3:2:0:0:
211,219,130602,1,0,3:0:0:0:
228,192,130688,1,8,3:2:0:0:
254,174,130774,1,0,3:0:0:0:
284,162,130859,5,8,3:2:0:0:
310,138,130944,1,0,3:0:0:0:
322,105,131031,1,8,3:2:0:0:
316,70,131116,1,0,3:0:0:0:
294,42,131202,1,8,3:2:0:0:
261,27,131287,1,0,3:0:0:0:
226,30,131373,6,0,P|199:40|172:62,1,47.9999985351563,8|0,3:2|0:0,0:0:0:0:
60,217,131545,1,6,3:2:0:0:
48,236,132745,6,0,B|121:229|121:229|152:240|152:240|225:233,1,180.000006866455,8|0,0:0|0:0,0:0:0:0:
315,267,133088,6,0,P|320:220|303:176,1,95.9999970703126,6|0,0:0|0:0,0:0:0:0:
403,308,133431,2,0,P|418:215|387:125,1,191.999994140625,8|0,0:0|0:0,0:0:0:0:
181,45,133945,1,2,0:0:0:0:
285,27,134116,1,8,0:0:0:0:
77,63,134288,6,0,B|52:134|123:175|95:249,1,191.999994140625,2|2,0:0|0:0,0:0:0:0:
33,347,134802,1,8,0:0:0:0:
275,248,134973,2,0,P|179:244|86:264,1,191.999994140625,2|2,0:0|0:0,0:0:0:0:
318,345,135488,2,0,P|346:323|373:314,1,47.9999985351563,8|0,0:0|0:0,0:0:0:0:
438,255,135659,2,0,P|460:262|480:275,1,47.9999985351563,0|0,3:0|3:0,0:0:0:0:
383,62,135831,5,2,3:2:0:0:
393,90,135916,2,0,P|386:154|347:188,1,95.9999970703126,0|0,3:0|3:0,0:0:0:0:
340,191,136173,1,8,3:2:0:0:
317,173,136259,1,0,3:0:0:0:
291,159,136345,1,0,3:0:0:0:
262,150,136430,1,0,3:0:0:0:
232,147,136516,5,0,3:0:0:0:
202,150,136602,1,0,3:0:0:0:
174,159,136688,2,0,L|131:180,1,47.9999985351563,2|0,3:2|0:0,0:0:0:0:
41,128,136859,2,0,L|43:80,1,47.9999985351563,8|0,3:2|0:0,0:0:0:0:
2,246,137031,1,2,3:2:0:0:
16,264,137116,1,0,3:0:0:0:
39,271,137202,6,0,L|106:262,1,47.9999985351563,0|0,3:0|3:0,0:0:0:0:
185,311,137373,2,0,L|176:378,1,47.9999985351563,2|0,3:2|0:0,0:0:0:0:
266,222,137545,2,0,L|257:154,1,47.9999985351563,8|0,3:2|0:0,0:0:0:0:
353,297,137716,1,2,3:2:0:0:
382,292,137801,1,0,3:0:0:0:
412,288,137888,5,0,3:0:0:0:
428,263,137973,1,0,3:0:0:0:
436,234,138059,1,2,3:2:0:0:
435,204,138145,1,0,3:0:0:0:
424,176,138230,1,8,3:2:0:0:
407,151,138316,1,0,3:0:0:0:
399,122,138402,1,0,3:0:0:0:
401,92,138488,1,0,3:0:0:0:
410,64,138573,6,0,P|367:83|319:84,1,95.9999970703126,2|0,3:2|3:0,0:0:0:0:
291,72,138831,1,0,3:0:0:0:
263,64,138916,1,8,3:2:0:0:
233,65,139002,1,0,3:0:0:0:
204,74,139088,1,0,3:0:0:0:
180,91,139173,1,0,3:0:0:0:
161,121,139259,5,0,3:0:0:0:
154,131,139345,1,0,3:0:0:0:
147,141,139431,2,0,L|92:149,1,47.9999985351563,2|0,3:2|3:0,0:0:0:0:
198,280,139602,5,8,3:2:0:0:
191,270,139688,1,0,3:0:0:0:
184,260,139774,2,0,L|129:252,1,47.9999985351563,2|0,3:2|3:0,0:0:0:0:
318,99,139945,5,0,3:0:0:0:
311,109,140031,1,0,3:0:0:0:
304,119,140116,2,0,L|249:127,1,47.9999985351563,2|0,3:2|3:0,0:0:0:0:
355,302,140288,5,8,3:2:0:0:
348,292,140374,1,0,3:0:0:0:
341,282,140460,2,0,L|286:274,1,47.9999985351563,2|0,3:2|3:0,0:0:0:0:
475,77,140631,5,0,3:0:0:0:
468,87,140716,1,0,3:0:0:0:
461,97,140802,2,0,L|406:105,1,47.9999985351563,2|0,3:2|3:0,0:0:0:0:
498,304,140973,6,0,L|443:296,1,47.9999985351563,8|0,3:2|3:0,0:0:0:0:
341,282,141145,2,0,L|286:274,1,47.9999985351563,0|0,3:0|3:0,0:0:0:0:
147,141,141316,6,0,L|51:154,1,95.9999970703126,2|0,3:2|3:0,0:0:0:0:
32,177,141573,1,0,3:0:0:0:
13,200,141659,2,0,P|32:251|28:309,1,95.9999970703126,8|0,3:2|3:0,0:0:0:0:
45,312,141916,1,0,3:0:0:0:
58,330,142002,2,0,P|102:313|150:310,1,95.9999970703126,0|2,3:0|0:0,0:0:0:0:
304,352,142345,1,8,0:0:0:0:
164,158,142516,6,0,P|235:175|361:177,1,191.999994140625,2|2,0:0|0:0,0:0:0:0:
430,329,143031,2,0,P|458:284|497:272,1,95.9999970703126,8|2,0:0|0:0,0:0:0:0:
279,44,143373,2,0,P|335:70|381:79,1,95.9999970703126,0|2,0:0|0:0,0:0:0:0:
150,310,143716,2,0,P|102:313|58:330,1,95.9999970703126,8|0,0:0|3:0,0:0:0:0:
45,312,143973,1,0,3:0:0:0:
31,292,144059,6,0,P|14:247|13:200,1,95.9999970703126,6|0,3:2|0:0,0:0:0:0:
142,24,144402,2,0,P|155:114|135:217,1,191.999994140625,8|0,0:0|0:0,0:0:0:0:
296,140,144916,1,2,0:0:0:0:
318,346,145088,1,8,0:0:0:0:
145,235,145259,6,0,P|212:227|345:258,1,191.999994140625,2|2,0:0|0:0,0:0:0:0:
450,146,145773,1,8,0:0:0:0:
466,369,145945,2,0,P|421:354|405:311,1,95.9999970703126,2|0,0:0|0:0,0:0:0:0:
296,140,146288,1,2,0:0:0:0:
454,53,146459,2,0,P|462:100|450:145,1,95.9999970703126,8|0,0:0|3:0,0:0:0:0:
434,164,146716,1,0,3:0:0:0:
417,182,146802,6,0,P|372:168|324:167,1,95.9999970703126,2|0,3:2|0:0,0:0:0:0:
58,266,147145,2,0,P|153:266|245:239,1,191.999994140625,8|0,0:0|0:0,0:0:0:0:
78,106,147659,1,2,0:0:0:0:
159,300,147831,1,8,0:0:0:0:
282,54,148002,6,0,P|282:121|242:247,1,191.999994140625,2|2,0:0|0:0,0:0:0:0:
21,358,148516,1,8,0:0:0:0:
159,300,148688,2,0,P|229:317|266:345,1,95.9999970703126,2|0,0:0|0:0,0:0:0:0:
414,359,149031,1,2,0:0:0:0:
159,300,149202,2,0,P|201:322|248:329,1,95.9999970703126,8|2,0:0|0:0,0:0:0:0:
481,278,149545,6,0,L|494:180,1,95.9999970703126,12|2,0:0|0:0,0:0:0:0:
418,36,149888,1,8,3:2:0:0:
383,29,149973,1,0,3:0:0:0:
347,30,150059,1,2,3:2:0:0:
313,41,150145,1,0,3:0:0:0:
282,59,150231,1,8,3:2:0:0:
246,66,150316,1,0,3:0:0:0:
210,65,150402,1,2,3:2:0:0:
176,54,150488,1,0,3:0:0:0:
145,36,150573,5,8,3:2:0:0:
151,70,150658,1,0,3:0:0:0:
137,103,150744,1,2,3:2:0:0:
108,123,150830,1,0,3:0:0:0:
72,123,150916,5,12,3:2:0:0:
49,149,151001,1,0,3:0:0:0:
37,183,151088,1,2,3:2:0:0:
40,219,151173,1,0,3:0:0:0:
56,251,151259,1,8,3:2:0:0:
84,273,151344,1,0,3:0:0:0:
118,283,151431,1,2,3:2:0:0:
154,278,151516,1,0,3:0:0:0:
185,260,151602,5,8,3:2:0:0:
196,227,151687,1,0,3:0:0:0:
222,202,151773,1,2,3:2:0:0:
256,193,151859,1,0,3:0:0:0:
291,201,151945,5,8,3:2:0:0:
320,222,152030,1,0,3:0:0:0:
355,226,152116,1,2,3:2:0:0:
388,212,152202,1,0,3:0:0:0:
409,184,152288,6,0,L|425:108,1,47.9999985351563,12|0,3:2|0:0,0:0:0:0:
259,267,152459,2,0,L|274:343,1,47.9999985351563,8|0,3:2|0:0,0:0:0:0:
217,120,152631,6,0,L|232:43,1,47.9999985351563,8|0,3:2|0:0,0:0:0:0:
66,331,152802,2,0,L|81:407,1,47.9999985351563,8|0,3:2|0:0,0:0:0:0:
24,55,152973,6,0,L|39:-21,1,47.9999985351563,12|0,3:2|0:0,0:0:0:0:
168,209,153145,1,8,3:2:0:0:
238,194,153231,1,0,3:0:0:0:
309,180,153316,1,8,3:2:0:0:
453,334,153488,5,6,3:2:0:0:
256,192,153573,12,0,155031,0:0:0:0:
474,96,166002,6,0,P|476:127|465:157,1,64,6|0,0:0|0:0,0:0:0:0:
379,113,166345,1,0,0:0:0:0:
321,189,166516,1,0,0:0:0:0:
324,205,166601,1,0,0:0:0:0:
327,221,166687,1,0,0:0:0:0:
405,275,166859,1,0,0:0:0:0:
357,358,167031,2,0,P|328:344|296:341,1,64,0|0,0:0|0:0,0:0:0:0:
218,288,167373,5,0,0:0:0:0:
122,298,167545,1,0,0:0:0:0:
27,308,167716,1,0,0:0:0:0:
65,219,167888,1,0,0:0:0:0:
66,204,167973,1,0,0:0:0:0:
65,188,168059,1,0,0:0:0:0:
61,172,168145,1,0,0:0:0:0:
54,158,168230,1,0,0:0:0:0:
125,92,168402,2,0,L|131:28,1,64,0|0,0:0|0:0,0:0:0:0:
210,137,168745,5,0,0:0:0:0:
210,137,168916,1,0,0:0:0:0:
301,106,169088,2,0,P|308:136|301:167,1,64,0|0,0:0|0:0,0:0:0:0:
259,254,169431,2,0,L|196:246,1,64
354,269,169773,1,0,0:0:0:0:
354,269,169945,1,0,0:0:0:0:
405,139,170116,5,0,0:0:0:0:
479,200,170288,2,0,P|486:237|481:270,1,64
405,139,170631,1,0,0:0:0:0:
445,52,170802,1,0,0:0:0:0:
460,49,170887,1,0,0:0:0:0:
476,47,170973,1,0,0:0:0:0:
405,139,171145,1,0,0:0:0:0:
293,113,171316,1,0,0:0:0:0:
94,54,171488,6,0,P|141:60|181:87,1,96,12|2,0:0|0:0,0:0:0:0:
332,198,171831,2,0,P|284:204|245:230,1,96,8|2,0:0|0:0,0:0:0:0:
40,300,172173,2,0,P|87:306|126:332,1,96,8|2,0:0|0:0,0:0:0:0:
332,198,172516,2,0,P|350:242|347:289,1,95.9999970703126,8|2,0:0|0:0,0:0:0:0:
480,140,172859,5,8,3:2:0:0:
480,140,172945,1,0,3:0:0:0:
480,140,173031,1,2,3:2:0:0:
411,363,173202,5,8,0:0:0:0:
495,299,173373,1,2,0:0:0:0:
254,192,173545,5,8,0:0:0:0:
267,296,173716,1,2,0:0:0:0:
480,140,173888,5,8,0:0:0:0:
383,100,174059,1,2,0:0:0:0:
254,192,174231,6,0,P|228:205|208:209,1,47.9999985351563,8|0,0:0|0:0,0:0:0:0:
70,117,174402,2,0,P|71:87|78:68,1,47.9999985351563,8|0,0:0|0:0,0:0:0:0:
239,23,174573,2,0,P|245:45|246:69,1,47.9999985351563,8|0,0:0|0:0,0:0:0:0:
96,276,174745,6,0,P|74:264|51:259,1,47.9999985351563,8|0,0:0|0:0,0:0:0:0:
234,359,174916,2,0,P|255:347|278:342,1,47.9999985351563,8|0,0:0|0:0,0:0:0:0:
396,270,175088,2,0,P|419:275|440:286,1,47.9999985351563,8|0,0:0|0:0,0:0:0:0:
254,192,175259,6,0,P|230:197|209:208,1,47.9999985351563,8|0,0:0|0:0,0:0:0:0:
69,116,175431,1,8,0:0:0:0:
76,82,175516,1,8,0:0:0:0:
98,54,175602,1,8,0:0:0:0:
131,39,175688,1,8,0:0:0:0:
167,41,175774,1,8,0:0:0:0:
196,62,175859,1,8,0:0:0:0:
229,75,175945,5,8,0:0:0:0:
264,81,176031,1,8,0:0:0:0:
300,80,176116,1,8,0:0:0:0:
330,59,176202,1,8,0:0:0:0:
363,45,176288,1,8,0:0:0:0:
398,39,176374,1,8,0:0:0:0:
434,41,176459,1,8,0:0:0:0:
465,57,176544,1,8,0:0:0:0:
485,86,176630,1,8,0:0:0:0:
488,121,176716,1,8,0:0:0:0:
473,154,176802,6,0,P|450:187|426:199,1,47.9999985351563,8|8,0:0|0:0,0:0:0:0:
223,246,176973,1,2,0:0:0:0:
205,238,178002,6,0,P|127:223|124:302,1,180.000006866455,8|0,0:0|0:0,0:0:0:0:
218,325,178345,6,0,P|280:300|410:303,1,191.999994140625,6|8,0:0|0:0,0:0:0:0:
482,104,178859,1,0,0:0:0:0:
482,104,179031,1,0,0:0:0:0:
469,365,179202,2,0,P|430:339|418:294,1,95.9999970703126,2|8,0:0|0:0,0:0:0:0:
474,89,179545,6,0,P|385:88|273:118,1,191.999994140625,2|2,0:0|0:0,0:0:0:0:
23,45,180059,1,8,0:0:0:0:
95,122,180231,2,0,P|101:173|88:228,1,95.9999970703126,2|0,0:0|0:0,0:0:0:0:
28,357,180573,1,2,0:0:0:0:
95,122,180745,2,0,P|86:169|92:216,1,95.9999970703126,8|0,0:0|0:0,0:0:0:0:
243,366,181088,6,0,P|248:293|226:168,1,191.999994140625,2|8,0:0|0:0,0:0:0:0:
30,274,181602,1,0,0:0:0:0:
30,274,181773,1,0,0:0:0:0:
322,194,181945,2,0,P|288:163|241:161,1,95.9999970703126,2|8,0:0|0:0,0:0:0:0:
48,286,182288,6,0,P|142:298|235:277,1,191.999994140625,2|2,0:0|0:0,0:0:0:0:
463,233,182802,1,8,0:0:0:0:
369,282,182973,2,0,P|352:326|352:374,1,95.9999970703126,2|0,0:0|0:0,0:0:0:0:
390,42,183316,1,2,0:0:0:0:
453,126,183487,1,8,0:0:0:0:
494,29,183659,1,0,0:0:0:0:
319,157,183831,6,0,P|273:142|216:142,1,95.9999970703126,2|0,0:0|0:0,0:0:0:0:
23,333,184173,2,0,P|69:317|116:315,1,95.9999970703126,8|0,0:0|0:0,0:0:0:0:
142,75,184516,1,0,0:0:0:0:
319,157,184688,6,0,P|271:155|225:140,1,95.9999970703126,2|8,0:0|0:0,0:0:0:0:
83,217,185031,1,2,0:0:0:0:
332,137,185202,1,0,0:0:0:0:
203,313,185373,1,2,0:0:0:0:
122,69,185545,1,8,0:0:0:0:
319,157,185716,6,0,P|304:202|302:250,1,95.9999970703126,2|0,0:0|0:0,0:0:0:0:
494,29,186059,1,2,0:0:0:0:
453,126,186231,1,8,0:0:0:0:
390,42,186402,1,0,0:0:0:0:
220,289,186573,6,0,P|315:287|405:320,1,191.999994140625,2|8,0:0|0:0,0:0:0:0:
453,126,187088,2,0,P|482:162|488:210,1,95.9999970703126,0|0,0:0|0:0,0:0:0:0:
239,75,187431,2,0,P|209:111|203:158,1,95.9999970703126,2|8,0:0|0:0,0:0:0:0:
77,341,187773,6,0,P|77:256|47:143,1,191.999994140625,2|2,0:0|0:0,0:0:0:0:
239,75,188288,1,8,0:0:0:0:
55,28,188459,2,0,P|101:16|149:20,1,95.9999970703126,2|0,0:0|0:0,0:0:0:0:
441,213,188802,1,2,0:0:0:0:
239,75,188973,2,0,P|225:151|227:189,1,95.9999970703126,8|0,0:0|3:0,0:0:0:0:
273,244,189231,1,0,3:0:0:0:
273,244,189316,6,0,P|225:217|84:198,1,191.999994140625,6|8,3:2|0:0,0:0:0:0:
239,75,189831,1,0,0:0:0:0:
239,75,190002,1,0,0:0:0:0:
60,277,190173,2,0,P|48:232|71:191,1,95.9999970703126,2|8,0:0|0:0,0:0:0:0:
253,65,190516,6,0,P|301:92|442:111,1,191.999994140625,2|2,0:0|0:0,0:0:0:0:
396,353,191031,1,8,0:0:0:0:
482,293,191202,2,0,P|497:247|495:200,1,95.9999970703126,2|0,0:0|0:0,0:0:0:0:
426,5,191545,1,2,0:0:0:0:
483,293,191716,2,0,P|480:245|495:199,1,95.9999970703126,8|0,0:0|0:0,0:0:0:0:
253,65,192059,6,0,P|279:122|287:261,1,191.999994140625,2|8,0:0|0:0,0:0:0:0:
95,348,192573,1,0,0:0:0:0:
95,348,192745,1,0,0:0:0:0:
383,267,192916,2,0,P|348:236|301:237,1,95.9999970703126,2|8,0:0|0:0,0:0:0:0:
81,358,193259,6,0,P|159:331|283:344,1,191.999994140625,2|2,0:0|0:0,0:0:0:0:
51,225,193773,1,8,0:0:0:0:
96,44,193945,2,0,P|109:90|111:138,1,95.9999970703126,2|0,0:0|0:0,0:0:0:0:
266,338,194288,1,2,0:0:0:0:
245,234,194459,1,8,0:0:0:0:
167,305,194631,1,2,0:0:0:0:
267,81,194802,6,0,P|326:91|371:126,1,95.9999970703126,12|2,0:0|0:0,0:0:0:0:
475,303,195145,2,0,P|442:269|437:223,1,95.9999970703126,8|2,0:0|0:0,0:0:0:0:
167,305,195488,1,8,0:0:0:0:
245,234,195659,2,0,P|297:238|351:267,1,95.9999970703126,2|8,0:0|0:0,0:0:0:0:
111,138,196002,1,2,0:0:0:0:
437,223,196173,5,12,0:0:0:0:
359,152,196345,1,2,0:0:0:0:
337,256,196516,1,8,0:0:0:0:
474,38,196688,2,0,P|426:34|381:48,1,95.9999970703126,2|8,0:0|0:0,0:0:0:0:
111,138,197031,1,2,0:0:0:0:
337,256,197202,1,8,0:0:0:0:
261,37,197373,1,2,0:0:0:0:
186,357,197545,5,12,3:2:0:0:
179,326,197631,1,0,3:0:0:0:
161,300,197716,1,8,3:2:0:0:
135,281,197802,1,0,3:0:0:0:
105,273,197888,1,8,3:2:0:0:
73,276,197974,1,0,3:0:0:0:
44,290,198059,5,8,3:2:0:0:
16,262,198145,1,0,3:0:0:0:
4,224,198231,1,8,3:2:0:0:
11,185,198316,1,0,3:0:0:0:
35,153,198402,1,8,3:2:0:0:
71,136,198488,1,0,3:0:0:0:
111,137,198573,6,0,P|134:144|154:156,1,47.9999985351563,8|0,3:2|3:0,0:0:0:0:
337,256,198745,1,6,3:2:0:0:
354,273,199945,6,0,P|390:293|418:198,1,180.000006866455,8|0,0:0|0:0,0:0:0:0:
420,109,200288,6,0,P|382:118|350:141,1,80,6|0,0:0|0:0,0:0:0:0:
271,37,200631,2,0,P|234:86|214:185,1,160,8|0,0:0|0:0,0:0:0:0:
124,333,201145,1,2,0:0:0:0:
101,248,201316,1,8,0:0:0:0:
270,334,201488,6,0,P|190:326|115:350,1,160,2|2,0:0|0:0,0:0:0:0:
81,163,202001,1,8,0:0:0:0:
25,231,202173,2,0,P|61:248|100:248,1,80,2|0,0:0|0:0,0:0:0:0:
179,12,202516,1,2,0:0:0:0:
271,37,202688,2,0,P|288:83|288:129,1,80,8|0,0:0|3:0,0:0:0:0:
285,133,202945,1,0,3:0:0:0:
280,152,203031,6,0,P|241:154|202:165,1,80,2|0,3:2|0:0,0:0:0:0:
409,97,203373,2,0,P|388:173|382:253,1,160,8|0,0:0|0:0,0:0:0:0:
293,368,203888,1,2,0:0:0:0:
208,345,204059,1,8,0:0:0:0:
104,165,204231,6,0,P|125:242|122:322,1,160,2|2,0:0|0:0,0:0:0:0:
30,62,204745,1,8,0:0:0:0:
104,165,204916,2,0,B|175:182|193:133|261:149,1,160,2|2,0:0|0:0,0:0:0:0:
420,280,205431,1,8,0:0:0:0:
235,235,205602,1,0,0:0:0:0:
300,78,205773,6,0,P|343:141|312:211,1,160,6|8,0:0|0:0,0:0:0:0:
415,116,206288,1,0,0:0:0:0:
235,235,206459,2,0,P|235:274|245:313,1,80,0|2,0:0|0:0,0:0:0:0:
70,114,206802,1,8,0:0:0:0:
125,354,206973,6,0,P|120:272|147:172,1,160,2|2,0:0|0:0,0:0:0:0:
70,114,207488,2,0,L|61:61,1,40,8|0,0:0|0:0,0:0:0:0:
137,27,207659,1,2,0:0:0:0:
261,149,207831,1,0,3:0:0:0:
279,125,207916,1,0,3:0:0:0:
303,108,208002,1,2,3:2:0:0:
331,98,208088,1,0,3:0:0:0:
361,98,208173,2,0,L|430:108,1,40,8|0,3:2|3:0,0:0:0:0:
291,236,208345,2,0,L|251:241,1,40,0|0,3:0|3:0,0:0:0:0:
443,358,208516,5,2,0:0:0:0:
464,166,208688,1,0,0:0:0:0:
154,316,208859,1,8,0:0:0:0:
137,197,209031,1,0,0:0:0:0:
252,241,209202,1,0,0:0:0:0:
361,98,209373,1,2,0:0:0:0:
324,375,209545,1,8,0:0:0:0:
243,115,209716,6,0,P|265:213|253:296,1,160,6|0,0:0|3:0,0:0:0:0:
40,68,210231,1,0,3:0:0:0:
181,42,210402,1,0,3:0:0:0:
252,294,210573,5,8,0:0:0:0:
322,16,210744,1,8,0:0:0:0:
