osu file format v14

[General]
AudioFilename: audio.mp3
AudioLeadIn: 0
PreviewTime: 55173
Countdown: 0
SampleSet: Soft
StackLeniency: 0.3
Mode: 0
LetterboxInBreaks: 0
WidescreenStoryboard: 1

[Editor]
DistanceSpacing: 0.9
BeatDivisor: 4
GridSize: 16
TimelineZoom: 2

[Metadata]
Title:Marine Bloomin'
TitleUnicode:Marine Bloomin'
Artist:Hachioji P x Marty Friedman x Kano
ArtistUnicode:八王子P × マーティ・フリードマン × 鹿乃
Creator:Firika
Version:Dored's Bloomin
Source:
Tags:アイマリンプロジェクト imarine project japanese jpop 8#prince hachiojip わかむらp wakamurap papple104 Dored sinn
BeatmapID:1717986
BeatmapSetID:819424

[Difficulty]
HPDrainRate:6
CircleSize:4.2
OverallDifficulty:8.8
ApproachRate:9.3
SliderMultiplier:1.8
SliderTickRate:1

[Events]
//Background and Video events
0,0,"Marine Bloomin'.jpg",0,0
//Break Periods
2,155230,165448
//Storyboard Layer 0 (Background)
//Storyboard Layer 1 (Fail)
//Storyboard Layer 2 (Pass)
//Storyboard Layer 3 (Foreground)
//Storyboard Layer 4 (Overlay)
//Storyboard Sound Samples

[TimingPoints]
1431,342.857142857143,4,2,2,40,1,0
1431,-125,4,2,2,40,0,0
5545,-125,4,2,2,45,0,0
5888,-125,4,2,3,45,0,0
6916,-111.111111111111,4,2,6,50,0,0
12059,-66.6666666666667,4,2,5,60,0,0
12316,-66.6666666666667,4,2,5,5,0,0
12402,-66.6666666666667,4,2,4,60,0,0
12573,-66.6666666666667,4,2,4,5,0,0
12659,-66.6666666666667,4,2,4,60,0,0
12831,-66.6666666666667,4,2,4,5,0,0
12916,-66.6666666666667,4,2,4,60,0,0
13259,-100,4,2,4,60,0,0
14802,-83.3333333333333,4,2,4,60,0,0
15145,-66.6666666666667,4,2,4,60,0,0
15316,-66.6666666666667,4,2,4,5,0,0
15402,-66.6666666666667,4,2,4,60,0,0
15573,-66.6666666666667,4,2,4,5,0,0
15659,-66.6666666666667,4,2,4,60,0,0
16002,-100,4,2,4,60,0,0
17545,-83.3333333333333,4,2,4,60,0,0
17888,-90.9090909090909,4,2,4,65,0,0
23373,-111.111111111111,4,2,4,55,0,0
27573,-111.111111111111,4,2,4,5,0,0
27659,-111.111111111111,4,2,4,55,0,0
33059,-111.111111111111,4,2,4,5,0,0
33145,-111.111111111111,4,2,4,55,0,0
34345,-100,4,2,4,60,0,0
38545,-100,4,2,4,5,0,0
38631,-100,4,2,4,60,0,0
44031,-100,4,2,4,5,0,0
44116,-100,4,2,4,60,0,0
45316,-111.111111111111,4,2,4,55,0,0
50802,-100,4,2,4,60,0,0
53545,-90.9090909090909,4,2,4,65,0,0
55259,-200,4,2,2,55,0,0
55516,-200,4,2,2,5,0,0
55602,-200,4,2,2,55,0,0
55859,-200,4,2,2,5,0,0
55945,-66.6666666666667,4,2,5,70,0,0
56202,-66.6666666666667,4,2,5,5,0,0
56288,-83.3333333333333,4,2,4,75,0,1
56545,-83.3333333333333,4,2,4,5,0,1
56631,-83.3333333333333,4,2,4,75,0,1
59288,-83.3333333333333,4,2,4,5,0,1
59373,-83.3333333333333,4,2,4,75,0,1
67516,-83.3333333333333,4,2,4,5,0,1
67602,-83.3333333333333,4,2,4,75,0,1
70259,-83.3333333333333,4,2,4,5,0,1
70345,-83.3333333333333,4,2,4,75,0,1
76688,-83.3333333333333,4,2,4,70,0,0
77888,-66.6666666666667,4,2,5,75,0,0
78145,-66.6666666666667,4,2,5,5,0,0
78231,-76.9230769230769,4,2,6,65,0,1
79431,-66.6666666666667,4,2,6,65,0,1
79602,-76.9230769230769,4,2,6,65,0,1
79859,-76.9230769230769,4,2,6,5,0,1
79945,-76.9230769230769,4,2,6,65,0,1
80202,-76.9230769230769,4,2,6,5,0,1
80288,-76.9230769230769,4,2,6,65,0,1
80631,-66.6666666666667,4,2,98,65,0,1
80973,-76.9230769230769,4,2,6,65,0,1
81145,-76.9230769230769,4,2,6,5,0,1
81231,-76.9230769230769,4,2,6,65,0,1
81402,-76.9230769230769,4,2,6,5,0,1
81488,-76.9230769230769,4,2,6,65,0,1
82173,-66.6666666666667,4,2,6,65,0,1
82345,-76.9230769230769,4,2,6,65,0,1
82516,-76.9230769230769,4,2,6,5,0,1
82602,-76.9230769230769,4,2,6,65,0,1
82773,-76.9230769230769,4,2,6,5,0,1
82859,-76.9230769230769,4,2,6,65,0,1
83373,-66.6666666666667,4,2,6,65,0,1
83631,-66.6666666666667,4,2,6,5,0,1
83716,-76.9230769230769,4,2,6,65,0,1
83888,-76.9230769230769,4,2,99,65,0,1
83973,-76.9230769230769,4,2,6,65,0,1
84231,-76.9230769230769,4,2,99,65,0,1
84316,-76.9230769230769,4,2,6,65,0,1
84573,-76.9230769230769,4,2,99,65,0,1
84659,-76.9230769230769,4,2,6,65,0,1
84916,-66.6666666666667,4,2,99,65,0,1
85002,-66.6666666666667,4,2,6,65,0,1
85088,-76.9230769230769,4,2,6,65,0,1
86116,-66.6666666666667,4,2,98,65,0,1
86459,-83.3333333333333,4,2,4,65,0,1
87659,-83.3333333333333,4,2,4,60,0,0
88859,-83.3333333333333,4,2,5,60,0,0
89202,-125,4,2,4,55,0,0
98888,-125,4,2,4,5,0,0
98973,-125,4,2,4,55,0,0
100088,-125,4,2,4,30,0,0
100173,-142.857142857143,4,2,2,40,0,0
101202,-142.857142857143,4,2,2,40,0,0
101373,-142.857142857143,4,2,2,40,0,0
102745,-142.857142857143,4,2,2,40,0,0
102916,-142.857142857143,4,2,2,40,0,0
103773,-142.857142857143,4,2,2,40,0,0
103945,-142.857142857143,4,2,2,40,0,0
104973,-111.111111111111,4,2,4,55,0,0
105659,-100,4,2,4,60,0,0
108402,-90.9090909090909,4,2,4,65,0,0
110116,-200,4,2,2,55,0,0
110373,-200,4,2,2,5,0,0
110459,-200,4,2,2,55,0,0
110716,-200,4,2,2,5,0,0
110802,-66.6666666666667,4,2,5,70,0,0
111059,-66.6666666666667,4,2,5,5,0,0
111145,-83.3333333333333,4,2,4,75,0,1
111402,-83.3333333333333,4,2,4,5,0,1
111488,-83.3333333333333,4,2,4,75,0,1
114145,-83.3333333333333,4,2,4,5,0,1
114231,-83.3333333333333,4,2,4,75,0,1
122373,-83.3333333333333,4,2,4,5,0,1
122459,-83.3333333333333,4,2,4,75,0,1
125116,-83.3333333333333,4,2,4,5,0,1
125202,-83.3333333333333,4,2,4,75,0,1
131545,-83.3333333333333,4,2,4,70,0,0
132745,-66.6666666666667,4,2,5,75,0,0
133002,-66.6666666666667,4,2,5,5,0,0
133088,-90.9090909090909,4,2,4,60,0,0
133345,-90.9090909090909,4,2,4,5,0,0
133431,-90.9090909090909,4,2,4,60,0,0
144316,-90.9090909090909,4,2,4,5,0,0
144402,-90.9090909090909,4,2,4,60,0,0
147059,-90.9090909090909,4,2,4,5,0,0
147145,-90.9090909090909,4,2,4,60,0,0
149545,-83.3333333333333,4,2,4,70,0,0
152288,-76.9230769230769,4,2,4,75,0,0
153488,-100,4,2,4,75,0,0
155031,-100,4,2,4,65,0,0
166002,-111.111111111111,4,2,5,60,0,0
166345,-111.111111111111,4,2,6,60,0,0
171488,-83.3333333333333,4,2,4,70,0,1
174231,-76.9230769230769,4,2,4,75,0,1
176973,-83.3333333333333,4,2,4,70,0,0
177316,-200,4,2,2,60,0,0
177573,-200,4,2,2,5,0,0
177659,-200,4,2,2,60,0,0
177916,-200,4,2,2,5,0,0
178002,-66.6666666666667,4,2,5,75,0,0
178259,-66.6666666666667,4,2,5,5,0,0
178345,-76.9230769230769,4,2,4,80,0,1
178602,-76.9230769230769,4,2,4,5,0,1
178688,-76.9230769230769,4,2,4,80,0,1
181345,-76.9230769230769,4,2,4,5,0,1
181431,-76.9230769230769,4,2,4,80,0,1
186831,-76.9230769230769,4,2,4,5,0,1
186916,-76.9230769230769,4,2,4,80,0,1
189573,-76.9230769230769,4,2,4,5,0,1
189659,-76.9230769230769,4,2,4,80,0,1
192316,-76.9230769230769,4,2,4,5,0,1
192402,-76.9230769230769,4,2,4,80,0,1
198745,-76.9230769230769,4,2,4,80,0,0
199945,-66.6666666666667,4,2,5,75,0,0
200202,-66.6666666666667,4,2,4,5,0,0
200288,-90.9090909090909,4,2,4,65,0,0
200545,-90.9090909090909,4,2,4,5,0,0
200631,-90.9090909090909,4,2,4,65,0,0
203288,-90.9090909090909,4,2,4,5,0,0
203373,-90.9090909090909,4,2,4,65,0,0
206031,-90.9090909090909,4,2,4,5,0,0
206116,-90.9090909090909,4,2,4,65,0,0
208516,-90.9090909090909,4,2,4,70,0,0
209716,-90.9090909090909,4,2,4,75,0,0
209973,-90.9090909090909,4,2,4,5,0,0
210059,-90.9090909090909,4,2,4,75,0,0
211088,-90.9090909090909,4,2,4,5,0,0
211431,-90.9090909090909,4,2,4,20,0,0

[Colours]
Combo1 : 128,255,255
Combo2 : 255,255,128
Combo3 : 192,192,192
Combo4 : 255,128,192

[HitObjects]
485,284,1431,6,0,P|417:304|354:272,1,144,2|0,0:0|0:0,0:0:0:0:
438,65,2117,1,2,0:0:0:0:
426,209,2288,2,0,L|438:65,1,144,2|0,0:0|0:0,0:0:0:0:
279,57,2802,6,0,L|291:200,1,144,2|0,0:0|0:0,0:0:0:0:
355,273,3316,1,2,0:0:0:0:
284,337,3488,1,0,0:0:0:0:
220,266,3659,2,0,L|148:259,2,72,2|0|0,0:0|0:0|0:0,0:0:0:0:
74,319,4173,6,0,P|53:251|85:188,1,144,2|2,0:0|0:0,0:0:0:0:
220,266,4688,2,0,L|148:259,1,72,2|0,0:0|0:0,0:0:0:0:
279,57,5202,1,2,0:0:0:0:
84,189,5545,5,2,0:0:0:0:
84,189,5888,2,0,L|91:117,1,72,2|0,0:0|0:0,0:0:0:0:
177,158,6231,2,0,L|184:86,1,72,2|0,0:0|0:0,0:0:0:0:
196,263,6573,2,0,L|148:259,2,48,2|2|2,0:0|0:0|0:0,0:0:0:0:
257,306,6916,6,0,L|418:291,1,161.999995056153,6|0,0:0|0:0,0:0:0:0:
346,163,7431,1,0,0:0:0:0:
348,179,7516,1,0,0:0:0:0:
349,195,7602,1,0,0:0:0:0:
398,57,7773,1,0,0:0:0:0:
463,155,7945,1,0,0:0:0:0:
398,57,8116,1,0,0:0:0:0:
382,59,8201,1,0,0:0:0:0:
366,60,8288,6,0,L|286:66,1,80.9999975280763,0|0,0:0|0:0,0:0:0:0:
140,79,8631,1,0,0:0:0:0:
223,198,8802,1,0,0:0:0:0:
222,182,8888,1,0,0:0:0:0:
220,166,8973,1,0,0:0:0:0:
219,150,9059,1,0,0:0:0:0:
217,134,9145,1,0,0:0:0:0:
208,11,9315,1,0,0:0:0:0:
69,99,9488,1,0,0:0:0:0:
71,115,9573,1,0,0:0:0:0:
72,131,9660,6,0,L|78:211,1,80.9999975280763,0|0,0:0|0:0,0:0:0:0:
223,198,10002,1,0,0:0:0:0:
161,329,10173,1,0,0:0:0:0:
160,313,10259,1,0,0:0:0:0:
159,297,10344,1,0,0:0:0:0:
157,281,10430,1,0,0:0:0:0:
156,265,10516,1,0,0:0:0:0:
301,252,10688,1,0,0:0:0:0:
214,85,10859,1,0,0:0:0:0:
216,101,10944,1,0,0:0:0:0:
217,117,11031,6,0,L|223:197,1,80.9999975280763,0|0,0:0|0:0,0:0:0:0:
368,185,11374,1,0,0:0:0:0:
306,316,11545,1,0,0:0:0:0:
305,300,11631,1,0,0:0:0:0:
304,284,11716,1,0,0:0:0:0:
302,268,11802,1,0,0:0:0:0:
301,252,11888,1,0,0:0:0:0:
396,68,12059,6,0,B|375:63|355:36|355:36|368:185,1,202.500007724762,8|0,0:0|0:0,0:0:0:0:
424,263,12402,6,0,P|365:234|301:252,1,135.000005149842,6|0,2:0|0:0,0:0:0:0:
230,353,12659,2,0,P|284:316|301:251,1,135.000005149842,6|0,2:0|0:0,0:0:0:0:
249,140,12916,2,0,P|253:205|300:252,1,135.000005149842,6|0,2:0|3:0,0:0:0:0:
464,175,13259,5,2,0:0:0:0:
300,252,13431,2,0,L|210:244,1,90,8|0,0:0|0:0,0:0:0:0:
420,307,13773,6,0,L|423:262,1,45,0|0,3:0|0:0,0:0:0:0:
464,175,13945,1,0,0:0:0:0:
465,156,14031,2,0,L|468:111,1,45,0|0,3:0|0:0,0:0:0:0:
300,252,14202,1,0,0:0:0:0:
301,233,14289,2,0,L|304:188,1,45,0|0,3:0|0:0,0:0:0:0:
345,101,14458,1,0,0:0:0:0:
346,82,14545,2,0,L|349:37,1,45,0|0,3:0|0:0,0:0:0:0:
181,178,14716,1,0,0:0:0:0:
182,159,14802,6,0,L|186:105,1,53.9999983520508,2|0,3:2|0:0,0:0:0:0:
300,252,14973,2,0,L|304:305,1,53.9999983520508,8|0,3:2|0:0,0:0:0:0:
158,355,15145,6,0,P|162:289|210:244,1,135.000005149842,6|0,0:0|0:0,0:0:0:0:
182,159,15402,2,0,P|123:188|59:172,1,135.000005149842,6|0,0:0|0:0,0:0:0:0:
0,236,15659,2,0,P|54:272|72:336,1,135.000005149842,6|0,0:0|0:0,0:0:0:0:
105,1,16173,6,0,L|112:90,1,90,8|0,0:0|0:0,0:0:0:0:
251,89,16516,6,0,L|296:86,1,45,0|0,3:0|0:0,0:0:0:0:
395,148,16688,1,0,0:0:0:0:
414,147,16774,2,0,L|459:144,1,45,0|0,3:0|0:0,0:0:0:0:
247,206,16945,1,0,0:0:0:0:
266,205,17031,2,0,L|311:202,1,45,0|0,3:0|0:0,0:0:0:0:
410,264,17202,1,0,0:0:0:0:
429,263,17288,2,0,L|474:260,1,45,0|0,3:0|0:0,0:0:0:0:
262,322,17459,1,0,0:0:0:0:
281,321,17545,6,0,L|334:316,1,53.9999983520508,2|0,3:2|0:0,0:0:0:0:
247,206,17716,2,0,L|193:201,1,53.9999983520508,8|0,3:2|0:0,0:0:0:0:
73,289,17888,6,0,P|69:239|64:190,1,99.0000030212403,6|0,0:0|0:0,0:0:0:0:
256,107,18231,2,0,P|250:156|247:205,1,99.0000030212403,2|0,0:0|0:0,0:0:0:0:
183,296,18573,1,2,0:0:0:0:
111,90,18745,1,8,0:0:0:0:
183,296,18916,1,2,0:0:0:0:
111,90,19088,1,8,0:0:0:0:
354,99,19259,6,0,P|304:104|255:107,1,99.0000030212403,6|0,0:0|0:0,0:0:0:0:
183,296,19602,2,0,P|232:299|281:304,1,99.0000030212403,2|0,0:0|0:0,0:0:0:0:
377,222,19945,1,2,0:0:0:0:
147,193,20116,1,8,0:0:0:0:
377,222,20288,1,2,0:0:0:0:
147,193,20459,1,8,0:0:0:0:
132,191,20546,1,8,0:0:0:0:
117,187,20631,5,12,0:0:0:0:
354,99,20802,1,8,0:0:0:0:
183,296,20973,1,8,0:0:0:0:
230,55,21145,1,12,3:2:0:0:
265,38,21231,1,0,3:0:0:0:
304,41,21316,1,8,3:2:0:0:
337,64,21402,1,8,3:2:0:0:
354,99,21488,1,8,3:2:0:0:
386,121,21573,1,8,3:2:0:0:
426,125,21660,1,8,3:2:0:0:
462,108,21745,1,8,3:2:0:0:
412,53,21831,6,0,P|332:100|350:191,1,198.000006042481,12|0,0:0|3:0,0:0:0:0:
501,175,22345,1,0,1:0:0:0:
412,53,22516,1,0,1:0:0:0:
434,258,22688,5,0,1:0:0:0:
248,229,22859,1,0,1:0:0:0:
501,175,23031,5,8,0:0:0:0:
367,341,23202,1,2,0:0:0:0:
248,229,23373,6,0,L|240:148,1,80.9999975280763,6|0,0:0|0:0,0:0:0:0:
346,18,23716,2,0,L|354:99,1,80.9999975280763,8|0,0:0|0:0,0:0:0:0:
255,52,24059,1,0,0:0:0:0:
338,194,24231,1,2,0:0:0:0:
159,156,24402,2,0,L|240:148,1,80.9999975280763,8|0,0:0|0:0,0:0:0:0:
323,290,24745,6,0,P|249:262|181:301,1,161.999995056153,2|8,0:0|0:0,0:0:0:0:
49,332,25259,2,0,L|41:251,1,80.9999975280763,0|0,0:0|0:0,0:0:0:0:
181,300,25602,1,2,0:0:0:0:
159,156,25773,1,8,0:0:0:0:
181,300,25945,1,0,0:0:0:0:
68,127,26116,6,0,P|119:68|198:67,1,161.999995056153,2|8,0:0|0:0,0:0:0:0:
335,137,26631,2,0,L|255:143,1,80.9999975280763,0|0,0:0|0:0,0:0:0:0:
374,48,26973,1,2,0:0:0:0:
424,176,27145,1,8,0:0:0:0:
254,143,27316,6,0,P|259:203|264:264,1,121.499996292114,2|0,0:0|0:0,0:0:0:0:
304,272,27659,2,0,P|344:268|384:264,1,80.9999975280763,2|8,0:0|0:0,0:0:0:0:
170,228,28002,1,2,0:0:0:0:
335,137,28173,1,0,0:0:0:0:
170,228,28345,1,2,0:0:0:0:
312,353,28516,2,0,P|308:312|304:272,1,80.9999975280763,8|0,0:0|0:0,0:0:0:0:
174,137,28859,6,0,L|253:143,1,80.9999975280763,6|0,0:0|0:0,0:0:0:0:
79,224,29202,2,0,L|0:230,1,80.9999975280763,8|0,0:0|0:0,0:0:0:0:
166,319,29545,1,0,0:0:0:0:
79,224,29716,1,2,0:0:0:0:
181,56,29888,2,0,L|174:136,1,80.9999975280763,8|0,0:0|0:0,0:0:0:0:
304,272,30231,6,0,P|316:193|384:154,1,161.999995056153,2|8,0:0|0:0,0:0:0:0:
487,226,30745,2,0,L|480:306,1,80.9999975280763,0|0,0:0|0:0,0:0:0:0:
496,99,31088,1,2,0:0:0:0:
382,154,31259,1,8,0:0:0:0:
487,226,31431,1,0,0:0:0:0:
412,70,31602,6,0,P|331:79|250:84,1,161.999995056153,2|8,0:0|0:0,0:0:0:0:
110,92,32116,2,0,L|117:11,1,80.9999975280763,0|0,0:0|0:0,0:0:0:0:
184,157,32459,1,2,0:0:0:0:
52,201,32631,1,8,0:0:0:0:
230,248,32802,6,0,P|290:243|351:238,1,121.499996292114,6|0,0:0|0:0,0:0:0:0:
390,233,33145,1,0,3:0:0:0:
276,339,33316,1,0,1:0:0:0:
423,381,33488,1,0,1:0:0:0:
191,361,33659,5,0,1:0:0:0:
361,317,33831,1,0,1:0:0:0:
145,270,34002,1,8,0:0:0:0:
341,157,34173,1,2,0:0:0:0:
178,26,34345,6,0,L|185:115,1,90,6|0,0:0|0:0,0:0:0:0:
341,157,34688,2,0,L|348:68,1,90,8|0,0:0|0:0,0:0:0:0:
243,214,35031,1,0,0:0:0:0:
361,317,35202,1,2,0:0:0:0:
191,361,35373,2,0,L|101:353,1,90,8|0,0:0|0:0,0:0:0:0:
90,186,35716,6,0,P|159:238|242:214,1,180,2|8,0:0|0:0,0:0:0:0:
341,157,36231,2,0,L|430:164,1,90,0|0,0:0|0:0,0:0:0:0:
242,213,36573,1,2,0:0:0:0:
263,46,36745,1,8,0:0:0:0:
341,157,36916,1,0,0:0:0:0:
164,102,37088,6,0,P|81:73|4:114,1,180,2|8,0:0|0:0,0:0:0:0:
83,276,37602,2,0,L|90:187,1,90,0|0,0:0|0:0,0:0:0:0:
242,213,37945,1,2,0:0:0:0:
90,186,38116,1,8,0:0:0:0:
263,46,38288,6,0,P|330:41|397:34,1,135,2|0,0:0|0:0,0:0:0:0:
437,56,38631,2,0,L|430:145,1,90,2|8,0:0|0:0,0:0:0:0:
452,285,38973,1,2,0:0:0:0:
430,146,39145,1,0,0:0:0:0:
320,235,39316,1,2,0:0:0:0:
263,46,39488,2,0,L|174:53,1,90,8|0,0:0|0:0,0:0:0:0:
4,113,39831,6,0,L|11:24,1,90,6|0,0:0|0:0,0:0:0:0:
118,168,40173,2,0,L|125:257,1,90,8|0,0:0|0:0,0:0:0:0:
219,202,40516,1,0,0:0:0:0:
24,219,40688,1,2,0:0:0:0:
133,347,40859,2,0,L|222:340,1,90,8|0,0:0|0:0,0:0:0:0:
373,190,41202,6,0,P|292:157|218:203,1,180,2|8,0:0|0:0,0:0:0:0:
263,46,41716,2,0,L|352:53,1,90,0|0,0:0|0:0,0:0:0:0:
447,128,42059,1,2,0:0:0:0:
299,251,42231,1,8,0:0:0:0:
352,53,42402,1,0,0:0:0:0:
478,236,42573,6,0,L|298:251,1,180,2|8,0:0|0:0,0:0:0:0:
125,257,43088,2,0,L|132:346,1,90,0|0,0:0|0:0,0:0:0:0:
208,166,43431,1,2,0:0:0:0:
215,298,43602,1,8,0:0:0:0:
35,216,43773,6,0,P|30:149|23:82,1,135,6|0,0:0|0:0,0:0:0:0:
18,39,44116,1,0,3:0:0:0:
176,7,44288,1,0,1:0:0:0:
118,125,44459,1,0,1:0:0:0:
326,152,44631,5,0,1:0:0:0:
125,257,44802,1,0,1:0:0:0:
251,80,44973,1,0,1:0:0:0:
305,339,45145,1,0,1:0:0:0:
452,279,45316,6,0,P|391:229|314:244,1,161.999995056153,6|0,0:0|0:0,0:0:0:0:
408,382,45831,1,2,0:0:0:0:
314,244,46002,2,0,L|234:250,1,80.9999975280763,8|0,0:0|0:0,0:0:0:0:
132,365,46345,1,2,0:0:0:0:
233,250,46516,6,0,P|242:172|188:115,1,161.999995056153,0|0,0:0|0:0,0:0:0:0:
82,220,47031,1,2,0:0:0:0:
188,115,47202,1,0,0:0:0:0:
24,129,47373,2,0,L|104:136,1,80.9999975280763,8|0,0:0|0:0,0:0:0:0:
210,31,47716,2,0,L|129:38,1,80.9999975280763,2|0,0:0|0:0,0:0:0:0:
248,176,48059,6,0,P|325:189|384:138,1,161.999995056153,6|0,0:0|0:0,0:0:0:0:
449,26,48573,1,2,0:0:0:0:
384,138,48745,2,0,L|390:217,1,80.9999975280763,8|0,0:0|0:0,0:0:0:0:
283,320,49088,6,0,P|360:307|419:358,1,161.999995056153,2|0,0:0|0:0,0:0:0:0:
390,218,49602,1,2,0:0:0:0:
283,320,49773,1,8,0:0:0:0:
249,177,49945,1,2,0:0:0:0:
288,343,50116,1,8,0:0:0:0:
254,200,50288,1,2,0:0:0:0:
147,300,50459,2,0,L|66:292,1,80.9999975280763,8|2,0:0|0:0,0:0:0:0:
23,169,50802,5,6,3:2:0:0:
15,145,50888,1,0,3:0:0:0:
17,121,50974,1,0,3:0:0:0:
28,99,51059,1,0,3:0:0:0:
46,83,51145,1,2,3:2:0:0:
69,76,51231,1,0,3:0:0:0:
93,78,51316,1,0,3:0:0:0:
115,88,51402,1,0,3:0:0:0:
131,107,51488,5,2,3:2:0:0:
136,131,51573,1,0,3:0:0:0:
146,154,51659,1,8,3:2:0:0:
162,173,51745,1,0,3:0:0:0:
182,188,51831,1,2,3:2:0:0:
204,199,51917,1,0,3:0:0:0:
228,204,52002,5,6,3:2:0:0:
252,204,52088,1,0,3:0:0:0:
275,196,52174,1,0,3:0:0:0:
295,182,52259,1,0,3:0:0:0:
310,163,52345,1,2,3:2:0:0:
319,140,52431,1,0,3:0:0:0:
321,115,52516,6,0,L|317:70,3,45,8|0|2|0,3:2|3:0|3:2|3:0,0:0:0:0:
393,218,52859,2,0,L|397:263,3,45,0|0|2|0,3:0|3:0|3:2|3:0,0:0:0:0:
447,105,53202,5,8,0:2:0:0:
321,115,53373,2,0,L|276:118,1,45,8|8,0:0|0:0,0:0:0:0:
150,128,53545,5,12,0:0:0:0:
375,2,53716,1,8,0:0:0:0:
305,252,53888,1,8,0:0:0:0:
204,14,54059,1,8,0:0:0:0:
106,238,54231,1,8,0:0:0:0:
114,238,54316,1,8,0:0:0:0:
123,237,54402,2,0,L|173:233,1,49.5000015106202,8|8,0:0|0:0,0:0:0:0:
443,213,54573,5,12,0:0:0:0:
311,319,55259,6,0,P|309:285|305:251,1,67.5,2|0,0:0|0:0,0:0:0:0:
443,213,55602,2,0,P|444:179|448:145,1,67.5,2|0,0:0|0:0,0:0:0:0:
333,63,55945,6,0,B|322:44|337:26|362:25|380:39|378:66|359:107|359:107|341:150|356:180,1,202.500007724762,8|0,0:0|0:0,0:0:0:0:
305,251,56288,6,0,P|224:243|143:236,1,161.999995056153,6|0,0:0|0:0,0:0:0:0:
103,251,56631,2,0,P|75:295|75:349,1,107.999996704102,8|0,0:0|0:0,0:0:0:0:
204,150,56973,1,0,0:0:0:0:
35,204,57145,1,2,0:0:0:0:
167,323,57316,1,8,0:0:0:0:
151,89,57488,6,0,B|197:52|254:85|254:85|310:117|353:88,1,215.999993408203,2|2,0:0|0:0,0:0:0:0:
472,49,58002,1,8,0:0:0:0:
367,176,58173,1,2,0:0:0:0:
309,22,58345,1,0,0:0:0:0:
486,137,58516,1,2,0:0:0:0:
358,284,58688,2,0,P|361:230|367:176,1,107.999996704102,8|0,0:0|0:0,0:0:0:0:
151,89,59031,6,0,P|159:170|166:251,1,161.999995056153,2|0,0:0|0:0,0:0:0:0:
183,288,59373,2,0,P|232:267|284:276,1,107.999996704102,8|0,0:0|0:0,0:0:0:0:
67,205,59716,1,0,0:0:0:0:
188,375,59888,1,2,0:0:0:0:
274,185,60059,1,8,0:0:0:0:
42,332,60231,6,0,B|27:171|27:171|38:197|67:205,1,215.999993408203,2|2,0:0|0:0,0:0:0:0:
217,92,60745,1,8,0:0:0:0:
183,288,60916,2,0,P|158:240|163:188,1,107.999996704102,2|0,0:0|0:0,0:0:0:0:
331,278,61259,1,2,0:0:0:0:
164,188,61431,1,8,0:0:0:0:
326,89,61602,1,0,0:0:0:0:
108,95,61773,5,2,0:0:0:0:
274,185,61945,1,0,0:0:0:0:
160,0,62116,1,8,0:0:0:0:
326,90,62288,1,0,0:0:0:0:
164,188,62459,1,0,0:0:0:0:
384,182,62631,2,0,L|492:180,1,107.999996704102,2|8,0:0|0:0,0:0:0:0:
222,280,62973,1,0,0:0:0:0:
440,275,63145,5,2,0:0:0:0:
274,185,63316,1,0,0:0:0:0:
435,87,63488,1,8,0:0:0:0:
330,278,63659,2,0,L|222:280,1,107.999996704102,2|0,0:0|0:0,0:0:0:0:
217,92,64002,1,2,0:0:0:0:
164,188,64173,1,8,0:0:0:0:
274,185,64345,1,0,0:0:0:0:
84,3,64516,6,0,B|35:34|35:34|52:196,1,215.999993408203,2|8,0:0|0:0,0:0:0:0:
222,279,65031,2,0,P|168:273|114:270,1,107.999996704102,2|0,0:0|0:0,0:0:0:0:
217,92,65373,2,0,P|270:98|324:101,1,107.999996704102,2|8,0:0|0:0,0:0:0:0:
489,178,65716,6,0,B|454:147|405:166|384:210|401:266|442:304,1,215.999993408203,2|2,0:0|0:0,0:0:0:0:
295,258,66231,1,8,0:0:0:0:
489,178,66402,1,2,0:0:0:0:
270,264,66573,1,8,0:0:0:0:
417,81,66745,1,2,0:0:0:0:
245,270,66917,1,8,0:0:0:0:
300,21,67088,2,0,L|288:73,1,53.9999983520508,8|8,0:0|0:0,0:0:0:0:
94,160,67259,6,0,P|174:166|255:174,1,161.999995056153,6|0,0:0|0:0,0:0:0:0:
299,176,67602,2,0,P|308:122|287:73,1,107.999996704102,8|0,0:0|0:0,0:0:0:0:
149,260,67945,1,0,0:0:0:0:
97,46,68116,1,2,0:0:0:0:
255,174,68288,1,8,0:0:0:0:
43,289,68459,6,0,P|112:366|215:351,1,215.999993408203,2|2,0:0|0:0,0:0:0:0:
255,174,68973,1,8,0:0:0:0:
351,328,69145,1,2,0:0:0:0:
393,152,69316,1,0,0:0:0:0:
234,262,69488,1,2,0:0:0:0:
442,240,69659,2,0,P|388:234|334:231,1,107.999996704102,8|0,0:0|0:0,0:0:0:0:
111,207,70002,6,0,P|104:126|96:45,1,161.999995056153,2|0,0:0|0:0,0:0:0:0:
128,16,70345,2,0,P|174:41|227:36,1,107.999996704102,8|0,0:0|0:0,0:0:0:0:
369,11,70688,1,0,0:0:0:0:
230,155,70859,1,2,0:0:0:0:
413,128,71031,1,8,0:0:0:0:
420,348,71202,6,0,B|272:321|272:321|248:344|213:351,1,215.999993408203,2|2,0:0|0:0,0:0:0:0:
330,195,71716,1,8,0:0:0:0:
114,243,71888,2,0,L|221:251,1,107.999996704102,2|0,0:0|0:0,0:0:0:0:
17,167,72231,1,2,0:0:0:0:
106,351,72402,2,0,L|114:244,1,107.999996704102,8|2,0:0|0:0,0:0:0:0:
182,91,72745,5,12,0:0:0:0:
13,299,72916,1,2,0:0:0:0:
171,73,73088,5,8,0:0:0:0:
106,351,73259,1,2,0:0:0:0:
160,55,73431,5,8,0:0:0:0:
214,350,73602,1,2,0:0:0:0:
149,37,73773,5,8,0:0:0:0:
306,295,73945,1,2,0:0:0:0:
378,2,74116,5,12,0:0:0:0:
182,194,74288,1,2,0:0:0:0:
442,104,74459,5,8,0:0:0:0:
162,192,74631,1,2,0:0:0:0:
456,223,74802,5,8,0:0:0:0:
142,190,74973,1,2,0:0:0:0:
426,322,75145,5,8,0:0:0:0:
122,188,75316,1,2,0:0:0:0:
390,170,75488,5,12,3:2:0:0:
353,139,75574,1,0,3:0:0:0:
305,130,75659,1,8,3:2:0:0:
259,147,75746,1,0,3:0:0:0:
227,184,75831,1,8,3:2:0:0:
219,232,75917,1,0,3:0:0:0:
190,270,76002,5,8,3:2:0:0:
146,292,76088,1,0,3:0:0:0:
97,292,76173,1,8,3:2:0:0:
53,270,76259,1,0,3:0:0:0:
24,230,76345,1,8,3:2:0:0:
16,181,76431,1,0,3:0:0:0:
29,134,76516,6,0,P|53:125|80:118,1,53.9999983520508,8|0,3:2|3:0,0:0:0:0:
313,227,76688,1,6,3:2:0:0:
429,242,77888,6,0,B|456:228|459:203|459:203|385:241|313:227,1,202.500007724762,8|0,0:0|0:0,0:0:0:0:
270,158,78231,6,0,L|270:99,1,58.4999973220826,6|0,0:2|0:0,0:0:0:0:
270,295,78402,2,0,L|270:353,1,58.4999973220826,0|0,0:3|0:0,0:0:0:0:
202,224,78574,5,8,3:2:0:0:
167,217,78660,1,0,3:0:0:0:
133,226,78745,1,0,3:0:0:0:
106,249,78831,1,0,3:0:0:0:
72,322,78916,5,0,3:0:0:0:
43,298,79001,1,0,3:0:0:0:
29,266,79088,1,2,3:2:0:0:
29,230,79173,1,0,3:0:0:0:
83,172,79259,5,8,3:2:0:0:
83,136,79345,1,0,3:0:0:0:
68,103,79431,2,0,P|41:85|7:82,1,67.5000025749208,0|0,3:0|3:0,0:0:0:0:
209,44,79602,6,0,P|289:21|346:81,1,175.499991966248,2|0,1:2|0:0,0:0:0:0:
210,89,79945,2,0,P|134:52|67:102,1,175.499991966248,8|0,1:2|0:0,0:0:0:0:
171,168,80288,5,0,3:0:0:0:
202,177,80373,1,0,3:0:0:0:
234,173,80459,1,2,3:2:0:0:
263,158,80545,1,0,3:0:0:0:
284,133,80631,6,0,L|287:166,7,33.7500012874604,8|0|0|0|0|0|0|0,3:2|3:0|3:0|3:0|3:0|3:0|3:0|3:0,0:0:0:0:
365,171,80973,6,0,B|384:225|384:225|355:277,1,116.999994644165,6|0,0:2|3:0,0:0:0:0:
278,272,81231,2,0,B|258:216|258:216|287:165,1,116.999994644165,2|0,3:2|3:0,0:0:0:0:
355,277,81488,1,2,3:2:0:0:
171,168,81659,1,0,3:0:0:0:
226,370,81831,5,2,3:2:0:0:
230,359,81916,1,0,3:0:0:0:
303,376,82002,5,8,3:2:0:0:
307,365,82087,1,0,3:0:0:0:
384,371,82173,6,0,L|450:373,1,67.5000025749208,0|0,3:0|0:0,0:0:0:0:
278,272,82345,6,0,P|221:260|173:291,1,116.999994644165,2|2,3:2|3:2,0:0:0:0:
106,333,82602,2,0,P|92:277|122:228,1,116.999994644165,2|0,3:2|3:0,0:0:0:0:
171,168,82859,1,2,3:2:0:0:
60,23,83031,5,0,3:0:0:0:
63,34,83116,1,0,3:0:0:0:
83,110,83202,5,2,3:2:0:0:
86,122,83287,1,0,3:0:0:0:
18,96,83373,6,0,B|-2:82|-2:82|144:43|144:43|131:65,1,202.500007724762,8|0,3:0|0:0,0:0:0:0:
229,173,83716,6,0,L|170:167,1,58.4999973220826,6|0,3:2|3:0,0:0:0:0:
267,47,83888,2,0,L|325:52,1,58.4999973220826,2|0,3:2|3:0,0:0:0:0:
366,157,84059,5,8,3:2:0:0:
401,164,84145,1,0,3:0:0:0:
435,155,84231,1,2,3:2:0:0:
461,132,84316,1,0,3:0:0:0:
493,59,84402,5,2,3:2:0:0:
458,52,84488,1,0,3:0:0:0:
424,61,84573,1,2,3:2:0:0:
398,84,84659,1,0,3:0:0:0:
461,132,84745,5,8,3:2:0:0:
484,158,84830,1,0,3:0:0:0:
493,192,84916,2,0,L|487:259,1,67.5000025749208,2|0,3:2|3:0,0:0:0:0:
307,312,85088,6,0,L|363:296,1,58.4999973220826,2|0,3:2|3:0,0:0:0:0:
487,259,85259,2,0,L|430:243,1,58.4999973220826,0|0,3:0|3:0,0:0:0:0:
366,157,85431,2,0,L|350:213,1,58.4999973220826,8|0,3:2|3:0,0:0:0:0:
237,262,85602,2,0,L|221:205,1,58.4999973220826,2|0,3:2|3:0,0:0:0:0:
191,97,85773,5,0,3:0:0:0:
223,94,85859,1,0,3:0:0:0:
256,91,85945,1,2,3:2:0:0:
289,88,86030,1,0,3:0:0:0:
322,85,86116,6,0,L|325:52,7,33.7500012874604,8|0|0|0|0|0|0|0,3:2|3:0|3:0|3:0|3:0|3:0|3:0|3:0,0:0:0:0:
375,49,86459,6,0,L|365:156,1,107.999996704102,6|0,3:2|0:0,0:0:0:0:
237,262,86802,1,8,0:0:0:0:
430,243,86973,1,2,0:0:0:0:
256,91,87145,1,0,0:0:0:0:
340,309,87316,1,2,0:0:0:0:
134,215,87488,1,8,0:0:0:0:
365,156,87659,1,6,0:0:0:0:
256,192,87745,12,8,88859,0:0:0:0:
482,226,89202,5,6,0:0:0:0:
470,370,89373,2,0,P|475:298|482:226,1,144,0|2,0:0|0:0,0:0:0:0:
389,168,89888,1,8,0:0:0:0:
356,271,90059,1,0,0:0:0:0:
212,184,90231,2,0,L|283:190,1,72,2|0,0:0|0:0,0:0:0:0:
389,168,90573,5,0,0:0:0:0:
317,88,90745,1,0,0:0:0:0:
356,271,90916,1,2,0:0:0:0:
317,88,91088,2,0,L|245:81,1,72,0|8,0:0|0:0,0:0:0:0:
107,207,91431,1,0,0:0:0:0:
212,184,91602,1,2,0:0:0:0:
139,104,91773,1,0,0:0:0:0:
155,273,91945,6,0,P|86:285|33:239,1,144,2|0,0:0|0:0,0:0:0:0:
212,184,92459,1,2,0:0:0:0:
261,278,92631,2,0,L|254:349,1,72,8|0,0:0|0:0,0:0:0:0:
212,184,92973,1,2,0:0:0:0:
355,229,93145,6,0,L|348:158,1,72,8|0,0:0|0:0,0:0:0:0:
219,112,93488,2,0,L|212:183,1,72,2|0,0:0|0:0,0:0:0:0:
310,55,93831,1,2,0:0:0:0:
124,61,94002,1,8,0:0:0:0:
347,157,94173,1,2,0:0:0:0:
93,165,94345,2,0,L|21:168,1,72,8|0,0:0|0:0,0:0:0:0:
219,112,94688,5,2,0:0:0:0:
146,291,94859,2,0,P|194:241|264:247,1,144,0|2,0:0|0:0,0:0:0:0:
352,309,95373,1,8,0:0:0:0:
255,355,95545,1,0,0:0:0:0:
271,176,95716,2,0,L|264:247,1,72,2|0,0:0|0:0,0:0:0:0:
93,165,96059,6,0,L|164:158,1,72,0|0,0:0|0:0,0:0:0:0:
24,249,96402,1,2,0:0:0:0:
86,94,96573,2,0,L|93:165,1,72,0|8,0:0|0:0,0:0:0:0:
271,176,96916,1,0,0:0:0:0:
233,73,97088,1,2,0:0:0:0:
171,229,97259,1,0,0:0:0:0:
160,42,97431,6,0,P|212:-3|280:8,1,144,2|0,0:0|0:0,0:0:0:0:
365,77,97945,1,2,0:0:0:0:
271,176,98116,2,0,L|342:183,1,72,8|2,0:0|0:0,0:0:0:0:
446,150,98459,1,8,0:0:0:0:
284,319,98631,6,0,P|280:265|274:211,1,108,6|0,0:0|0:0,0:0:0:0:
271,176,98973,1,0,3:0:0:0:
401,247,99145,1,0,1:0:0:0:
200,300,99316,1,0,1:0:0:0:
411,353,99488,5,0,1:0:0:0:
271,176,99659,1,0,1:0:0:0:
507,237,99831,1,0,1:0:0:0:
344,28,100002,2,0,L|340:63,1,36,0|0,1:0|0:0,0:0:0:0:
327,231,100173,6,0,P|269:94|213:231,1,377.999988464356,6|0,0:0|0:0,0:0:0:0:
271,176,101373,6,0,B|295:143|336:135|336:135|158:167|6:82|6:82|45:103|60:143,1,503.999984619141,2|0,0:0|0:0,0:0:0:0:
100,217,102916,6,0,B|121:241|126:272|126:272|160:229|177:132|143:62|103:42,1,314.999990386963,2|0,0:0|0:0,0:0:0:0:
7,82,103945,6,0,B|165:-62|180:233|337:99,1,377.999988464356,2|4,0:0|2:3,0:0:0:0:
260,53,105145,1,0,0:0:0:0:
410,145,105316,1,0,0:0:0:0:
250,216,105488,1,0,0:0:0:0:
403,311,105659,5,6,3:2:0:0:
421,295,105745,1,0,3:0:0:0:
437,276,105831,1,0,3:0:0:0:
448,253,105916,1,0,3:0:0:0:
452,231,106002,1,2,3:2:0:0:
451,205,106088,1,0,3:0:0:0:
442,182,106173,1,0,3:0:0:0:
429,161,106259,1,0,3:0:0:0:
410,145,106345,5,2,3:2:0:0:
399,167,106430,1,0,3:0:0:0:
386,187,106516,1,8,3:2:0:0:
367,204,106602,1,0,3:0:0:0:
345,216,106688,1,2,3:2:0:0:
322,224,106773,1,0,3:0:0:0:
297,227,106859,5,6,3:2:0:0:
273,223,106945,1,0,3:0:0:0:
250,216,107030,1,0,3:0:0:0:
229,201,107116,1,0,3:0:0:0:
211,184,107202,1,2,3:2:0:0:
197,164,107288,1,0,3:0:0:0:
189,141,107373,6,0,L|185:96,3,45,8|0|2|0,3:2|3:0|3:2|3:0,0:0:0:0:
80,78,107716,2,0,L|76:33,3,45,2|0|2|0,3:2|3:0|3:2|3:0,0:0:0:0:
80,204,108059,5,8,3:2:0:0:
189,141,108231,2,0,L|233:137,1,45,8|8,0:0|0:0,0:0:0:0:
352,181,108402,5,12,0:0:0:0:
80,78,108573,1,8,0:0:0:0:
329,56,108745,1,8,0:0:0:0:
80,204,108916,1,8,0:0:0:0:
198,0,109088,1,8,0:0:0:0:
198,8,109173,1,8,0:0:0:0:
199,17,109259,2,0,L|203:66,1,49.5000015106202,8|8,0:0|0:0,0:0:0:0:
223,282,109431,5,12,0:0:0:0:
352,181,110116,6,0,P|349:215|347:249,1,67.5,2|0,0:0|0:0,0:0:0:0:
223,282,110459,2,0,P|226:316|228:350,1,67.5,2|0,0:0|0:0,0:0:0:0:
447,361,110802,6,0,B|459:349|477:345|477:345|397:298|316:333,1,202.500007724762,8|0,0:0|0:0,0:0:0:0:
228,350,111145,6,0,P|153:333|131:260,1,161.999995056153,6|0,0:0|0:0,0:0:0:0:
148,218,111488,2,0,P|202:215|256:209,1,107.999996704102,8|0,0:0|0:0,0:0:0:0:
449,153,111831,1,0,0:0:0:0:
265,90,112002,1,2,0:0:0:0:
347,248,112173,1,8,0:0:0:0:
338,27,112345,6,0,P|240:-3|170:70,1,215.999993408203,2|2,0:0|0:0,0:0:0:0:
255,209,112859,1,8,0:0:0:0:
85,135,113031,1,2,0:0:0:0:
265,90,113202,1,0,0:0:0:0:
95,16,113373,1,2,0:0:0:0:
148,218,113545,2,0,P|153:271|156:325,1,107.999996704102,8|0,0:0|0:0,0:0:0:0:
392,350,113888,6,0,P|436:287|403:218,1,161.999995056153,2|0,0:0|0:0,0:0:0:0:
362,200,114231,2,0,P|308:205|254:208,1,107.999996704102,8|0,0:0|0:0,0:0:0:0:
42,229,114573,1,0,0:0:0:0:
175,113,114745,1,2,0:0:0:0:
156,325,114916,1,8,0:0:0:0:
7,88,115088,6,0,B|61:111|107:65|107:65|153:19|202:36,1,215.999993408203,2|2,0:0|0:0,0:0:0:0:
419,141,115602,1,8,0:0:0:0:
305,19,115773,2,0,P|300:72|297:126,1,107.999996704102,2|0,0:0|0:0,0:0:0:0:
262,314,116116,1,2,0:0:0:0:
297,127,116288,1,8,0:0:0:0:
148,218,116459,1,0,0:0:0:0:
368,303,116631,5,2,0:0:0:0:
156,325,116802,2,0,L|48:334,1,107.999996704102,0|8,0:0|0:0,0:0:0:0:
255,208,117145,1,0,0:0:0:0:
49,173,117316,1,0,0:0:0:0:
197,28,117488,2,0,L|304:18,1,107.999996704102,2|8,0:0|0:0,0:0:0:0:
148,218,117831,1,0,0:0:0:0:
362,198,118002,5,2,0:0:0:0:
173,123,118173,1,0,0:0:0:0:
262,314,118345,1,8,0:0:0:0:
469,189,118516,2,0,L|361:198,1,107.999996704102,2|0,0:0|0:0,0:0:0:0:
156,325,118859,1,2,0:0:0:0:
262,314,119031,1,8,0:0:0:0:
368,303,119202,1,0,0:0:0:0:
147,217,119373,6,0,P|77:143|112:46,1,215.999993408203,2|8,0:0|0:0,0:0:0:0:
304,17,119888,2,0,P|299:70|293:124,1,107.999996704102,2|0,0:0|0:0,0:0:0:0:
469,189,120231,2,0,P|464:135|459:81,1,107.999996704102,2|8,0:0|0:0,0:0:0:0:
222,172,120573,6,0,B|261:215|322:238|382:230|382:230|365:214|361:197,1,215.999993408203,2|2,0:0|0:0,0:0:0:0:
304,17,121088,1,8,0:0:0:0:
147,217,121259,1,2,0:0:0:0:
301,43,121431,1,8,0:0:0:0:
262,314,121602,1,2,0:0:0:0:
299,70,121773,1,8,0:0:0:0:
423,324,121945,2,0,L|372:304,1,53.9999983520508,8|8,0:0|0:0,0:0:0:0:
147,217,122116,6,0,P|71:196|17:251,1,161.999995056153,6|0,0:0|0:0,0:0:0:0:
45,277,122459,2,0,P|51:330|54:384,1,107.999996704102,8|0,0:0|0:0,0:0:0:0:
262,314,122802,1,0,0:0:0:0:
223,143,122973,1,2,0:0:0:0:
158,349,123145,1,8,0:0:0:0:
339,180,123316,6,0,B|369:171|393:152|393:152|372:305,1,215.999993408203,2|2,0:0|0:0,0:0:0:0:
147,217,123831,1,8,0:0:0:0:
299,69,124002,1,2,0:0:0:0:
249,245,124173,1,0,0:0:0:0:
197,41,124345,1,2,0:0:0:0:
13,122,124516,2,0,P|66:118|120:114,1,107.999996704102,8|0,0:0|0:0,0:0:0:0:
337,180,124859,6,0,P|274:139|299:68,1,161.999995056153,2|0,0:0|0:0,0:0:0:0:
305,33,125202,2,0,P|251:37|197:41,1,107.999996704102,8|0,0:0|0:0,0:0:0:0:
425,115,125545,1,0,0:0:0:0:
249,245,125716,1,2,0:0:0:0:
453,259,125888,1,8,0:0:0:0:
213,335,126059,6,0,B|181:319|163:288|163:288|106:335|27:334,1,215.999993408203,2|2,0:0|0:0,0:0:0:0:
120,113,126573,1,8,0:0:0:0:
249,245,126745,2,0,L|257:138,1,107.999996704102,2|0,0:0|0:0,0:0:0:0:
128,312,127088,1,2,0:0:0:0:
356,253,127259,2,0,L|249:245,1,107.999996704102,8|2,0:0|0:0,0:0:0:0:
66,214,127602,5,12,0:0:0:0:
303,340,127773,1,2,0:0:0:0:
45,212,127945,5,8,0:0:0:0:
350,152,128116,1,2,0:0:0:0:
25,220,128288,5,8,0:0:0:0:
356,253,128459,1,2,0:0:0:0:
11,236,128631,5,8,0:0:0:0:
288,73,128802,1,2,0:0:0:0:
128,312,128973,5,12,0:0:0:0:
191,43,129145,1,2,0:0:0:0:
356,253,129316,5,8,0:0:0:0:
170,33,129488,1,2,0:0:0:0:
251,318,129659,5,8,0:0:0:0:
149,23,129831,1,2,0:0:0:0:
405,140,130002,5,8,0:0:0:0:
128,13,130173,1,2,0:0:0:0:
271,232,130345,5,12,3:2:0:0:
240,195,130431,1,0,3:0:0:0:
232,148,130516,1,8,3:2:0:0:
250,103,130602,1,0,3:0:0:0:
288,73,130688,1,8,3:2:0:0:
335,66,130773,1,0,3:0:0:0:
379,83,130859,5,8,3:2:0:0:
341,113,130945,1,0,3:0:0:0:
294,120,131030,1,8,3:2:0:0:
250,103,131116,1,0,3:0:0:0:
206,86,131202,1,8,3:2:0:0:
159,93,131287,1,0,3:0:0:0:
121,123,131373,6,0,P|112:147|105:174,1,53.9999983520508,8|0,3:2|3:0,0:0:0:0:
187,376,131545,1,6,3:2:0:0:
26,376,132745,6,0,B|78:377|106:324|106:324|134:376|188:376,1,202.500007724762,10|0,0:0|0:0,0:0:0:0:
274,376,133088,6,0,P|322:324|306:254,1,148.50000453186,6|0,0:0|0:0,0:0:0:0:
271,232,133431,2,0,P|221:236|172:240,1,99.0000030212403,8|0,0:0|0:0,0:0:0:0:
64,250,133773,1,0,0:0:0:0:
161,130,133945,1,2,0:0:0:0:
183,350,134116,1,8,0:0:0:0:
145,109,134288,6,0,P|243:118|342:126,1,198.000006042481,2|2,0:0|0:0,0:0:0:0:
446,33,134802,1,8,0:0:0:0:
351,224,134973,2,0,P|347:174|342:125,1,99.0000030212403,2|0,0:0|0:0,0:0:0:0:
506,232,135316,1,2,0:0:0:0:
446,33,135488,2,0,P|449:82|454:131,1,99.0000030212403,8|0,0:0|0:0,0:0:0:0:
424,306,135831,5,2,3:2:0:0:
395,300,135916,1,0,3:0:0:0:
365,302,136002,1,0,3:0:0:0:
337,312,136088,1,0,3:0:0:0:
313,329,136173,2,0,L|325:376,3,49.5000015106202,8|0|0|0,3:2|3:0|3:0|3:0,0:0:0:0:
241,245,136517,5,0,3:0:0:0:
217,262,136602,1,0,3:0:0:0:
189,272,136688,1,2,3:2:0:0:
159,274,136774,1,0,3:0:0:0:
130,268,136859,2,0,L|142:315,3,49.5000015106202,8|0|2|0,3:2|3:0|3:2|3:0,0:0:0:0:
167,163,137202,5,0,3:0:0:0:
177,135,137288,1,0,3:0:0:0:
176,105,137373,1,2,3:2:0:0:
164,77,137459,1,0,3:0:0:0:
144,54,137545,1,8,3:2:0:0:
117,39,137631,1,0,3:0:0:0:
87,36,137716,2,0,L|37:40,1,49.5000015106202,2|0,3:2|3:0,0:0:0:0:
265,115,137888,5,0,3:0:0:0:
293,124,137973,1,0,3:0:0:0:
323,120,138059,1,2,3:2:0:0:
348,104,138145,1,0,3:0:0:0:
370,84,138231,1,8,3:2:0:0:
397,73,138316,1,0,3:0:0:0:
427,74,138402,2,0,L|477:78,1,49.5000015106202,0|0,3:0|3:0,0:0:0:0:
423,216,138573,5,2,3:2:0:0:
420,225,138659,1,0,3:0:0:0:
418,234,138745,2,0,L|422:184,1,49.5000015106202,0|0,3:0|3:0,0:0:0:0:
378,52,138916,5,8,3:2:0:0:
375,43,139002,1,0,3:0:0:0:
373,34,139088,2,0,L|369:84,1,49.5000015106202,0|0,3:0|3:0,0:0:0:0:
318,247,139259,5,0,3:0:0:0:
315,256,139345,1,0,3:0:0:0:
313,265,139431,2,0,L|317:215,1,49.5000015106202,2|0,3:2|3:0,0:0:0:0:
273,83,139602,5,8,3:2:0:0:
270,74,139688,1,0,3:0:0:0:
268,65,139774,2,0,L|264:115,1,49.5000015106202,2|0,3:2|3:0,0:0:0:0:
213,278,139944,5,0,3:0:0:0:
210,287,140030,1,0,3:0:0:0:
208,296,140116,2,0,L|212:246,1,49.5000015106202,2|0,3:2|3:0,0:0:0:0:
168,114,140287,5,8,3:2:0:0:
165,105,140373,1,0,3:0:0:0:
163,96,140459,2,0,L|159:146,1,49.5000015106202,2|0,3:2|3:0,0:0:0:0:
108,309,140630,5,0,3:0:0:0:
105,318,140716,1,0,3:0:0:0:
103,327,140802,2,0,L|107:277,1,49.5000015106202,2|0,3:2|3:0,0:0:0:0:
4,127,140973,5,8,3:2:0:0:
0,157,141059,1,0,3:0:0:0:
6,186,141145,2,0,P|29:179|54:175,1,49.5000015106202,0|0,3:0|3:0,0:0:0:0:
198,21,141316,6,0,B|145:0|106:37,1,99.0000030212403,2|0,3:2|3:0,0:0:0:0:
91,50,141573,1,0,3:0:0:0:
80,66,141659,1,8,3:2:0:0:
264,114,141831,1,0,0:0:0:0:
159,145,142002,1,0,0:0:0:0:
308,9,142173,1,2,0:0:0:0:
211,246,142345,1,8,0:0:0:0:
436,118,142516,6,0,B|396:113|364:87|364:87|322:127|322:127|263:113,1,198.000006042481,2|2,0:0|0:0,0:0:0:0:
211,246,143031,2,0,B|247:206|301:221,1,99.0000030212403,8|2,0:0|0:0,0:0:0:0:
435,377,143373,2,0,B|382:364|368:311,1,99.0000030212403,0|2,0:0|0:0,0:0:0:0:
436,118,143716,2,0,B|451:169|412:208,1,99.0000030212403,8|0,0:0|3:0,0:0:0:0:
228,266,143973,1,0,3:0:0:0:
211,246,144059,6,0,P|136:252|62:259,1,148.50000453186,6|0,3:2|0:0,0:0:0:0:
25,248,144402,2,0,B|-8:205|16:155,1,99.0000030212403,8|0,0:0|0:0,0:0:0:0:
119,107,144745,1,0,0:0:0:0:
25,40,144916,1,2,0:0:0:0:
127,207,145088,1,8,0:0:0:0:
285,52,145259,6,0,B|338:99|338:99|301:220,1,198.000006042481,2|2,0:0|0:0,0:0:0:0:
119,107,145773,2,0,P|168:112|217:115,1,99.0000030212403,8|2,0:0|0:0,0:0:0:0:
399,212,146116,2,0,P|349:215|300:220,1,99.0000030212403,0|2,0:0|0:0,0:0:0:0:
119,314,146459,2,0,P|168:319|217:322,1,99.0000030212403,8|0,0:0|3:0,0:0:0:0:
408,372,146716,1,0,3:0:0:0:
384,368,146802,6,0,P|345:308|373:242,1,148.50000453186,2|0,3:2|0:0,0:0:0:0:
399,211,147145,2,0,P|449:208|498:203,1,99.0000030212403,8|0,0:0|0:0,0:0:0:0:
338,99,147488,1,0,0:0:0:0:
465,102,147659,1,2,0:0:0:0:
300,218,147831,1,8,0:0:0:0:
186,38,148002,6,0,P|94:13|26:78,1,198.000006042481,2|2,0:0|0:0,0:0:0:0:
178,215,148516,1,8,0:0:0:0:
119,107,148688,1,2,0:0:0:0:
55,213,148859,1,0,3:0:0:0:
54,232,148945,1,0,3:0:0:0:
61,250,149031,1,2,3:2:0:0:
243,128,149202,1,8,0:0:0:0:
119,314,149373,1,2,0:0:0:0:
349,382,149545,5,12,3:2:0:0:
318,376,149631,1,0,3:0:0:0:
290,359,149717,1,2,3:2:0:0:
271,334,149802,1,0,3:0:0:0:
263,304,149888,1,8,3:2:0:0:
264,272,149974,1,0,3:0:0:0:
276,242,150059,1,2,3:2:0:0:
300,218,150145,1,0,3:0:0:0:
330,203,150231,5,8,3:2:0:0:
370,220,150316,1,0,3:0:0:0:
413,214,150402,1,2,3:2:0:0:
447,187,150488,1,0,3:0:0:0:
462,146,150573,1,8,3:2:0:0:
454,102,150659,1,0,3:0:0:0:
425,69,150745,2,0,L|371:64,1,53.9999983520508,2|0,3:2|3:0,0:0:0:0:
163,2,150916,5,12,3:2:0:0:
194,8,151002,1,0,3:0:0:0:
222,25,151088,1,2,3:2:0:0:
241,50,151173,1,0,3:0:0:0:
249,80,151259,1,8,3:2:0:0:
248,112,151345,1,0,3:0:0:0:
236,142,151430,1,2,3:2:0:0:
212,166,151516,1,0,3:0:0:0:
182,181,151602,5,8,3:2:0:0:
142,164,151687,1,0,3:0:0:0:
99,170,151773,1,2,3:2:0:0:
65,197,151859,1,0,3:0:0:0:
50,238,151944,1,8,3:2:0:0:
58,282,152030,1,0,3:0:0:0:
87,315,152116,2,0,L|140:319,1,53.9999983520508,2|0,3:2|3:0,0:0:0:0:
330,203,152288,5,12,3:2:0:0:
371,189,152373,1,0,3:0:0:0:
414,195,152459,1,8,3:2:0:0:
449,221,152545,1,0,3:0:0:0:
468,259,152630,1,8,3:2:0:0:
470,302,152716,1,0,3:0:0:0:
452,341,152802,1,8,3:2:0:0:
419,369,152888,1,0,3:0:0:0:
377,378,152973,5,12,3:2:0:0:
364,326,153059,1,0,3:0:0:0:
331,284,153145,1,8,3:2:0:0:
283,261,153231,1,0,3:0:0:0:
230,260,153316,1,8,3:2:0:0:
181,281,153402,1,0,3:0:0:0:
231,345,153488,6,0,B|303:278|252:193|190:176|122:192|100:266|100:266|44:143|179:55|270:115|270:115|170:132|168:18|254:5,1,810,6|0,0:0|0:0,0:0:0:0:
241,7,166002,5,6,0:0:0:0:
256,21,166345,2,0,L|335:27,1,80.9999975280763
355,36,166602,1,0,0:0:0:0:
371,48,166688,1,0,0:0:0:0:
383,63,166773,1,0,0:0:0:0:
390,80,166859,1,0,0:0:0:0:
280,149,167031,1,0,0:0:0:0:
418,262,167202,1,0,0:0:0:0:
435,252,167288,1,0,0:0:0:0:
452,242,167373,6,0,L|444:161,1,80.9999975280763,0|0,0:0|0:0,0:0:0:0:
333,258,167716,2,0,P|297:238|257:236,1,80.9999975280763,0|0,0:0|0:0,0:0:0:0:
142,276,168059,1,0,0:0:0:0:
125,288,168145,1,0,0:0:0:0:
111,303,168231,1,0,0:0:0:0:
257,235,168402,1,0,0:0:0:0:
101,321,168573,1,0,0:0:0:0:
194,126,168745,5,0,0:0:0:0:
202,107,169088,2,0,L|122:113,1,80.9999975280763,0|0,0:0|0:0,0:0:0:0:
14,26,169431,1,0,0:0:0:0:
32,33,169516,1,0,0:0:0:0:
52,35,169602,1,0,0:0:0:0:
178,7,169773,1,0,0:0:0:0:
120,113,169945,1,0,0:0:0:0:
284,101,170116,5,0,0:0:0:0:
128,194,170288,2,0,L|120:113,1,80.9999975280763,0|0,0:0|0:0,0:0:0:0:
48,261,170631,1,0,0:0:0:0:
232,206,170802,1,0,0:0:0:0:
246,218,170888,1,0,0:0:0:0:
257,235,170973,1,0,0:0:0:0:
194,349,171145,2,0,L|113:341,1,80.9999975280763,0|0,0:0|0:0,0:0:0:0:
48,261,171488,5,12,0:0:0:0:
284,101,171659,1,2,0:0:0:0:
194,349,171831,5,8,0:0:0:0:
138,13,172002,1,2,0:0:0:0:
430,189,172173,5,8,0:0:0:0:
93,137,172345,1,2,0:0:0:0:
324,346,172516,5,8,0:0:0:0:
434,19,172688,1,2,0:0:0:0:
176,237,172859,5,12,0:0:0:0:
512,289,173031,1,2,0:0:0:0:
286,16,173202,5,8,0:0:0:0:
324,346,173373,1,2,0:0:0:0:
48,261,173545,5,8,0:0:0:0:
383,104,173716,1,2,0:0:0:0:
138,13,173888,5,8,0:0:0:0:
324,346,174059,1,2,0:0:0:0:
93,137,174231,5,12,0:0:0:0:
480,105,174402,1,2,0:0:0:0:
93,137,174573,1,8,0:0:0:0:
435,372,174745,5,12,0:0:0:0:
48,261,174916,1,2,0:0:0:0:
435,372,175088,1,8,0:0:0:0:
286,16,175259,5,12,0:0:0:0:
240,315,175431,2,0,P|232:286|224:258,1,58.4999973220826,2|2,0:0|0:0,0:0:0:0:
137,51,175603,5,8,0:0:0:0:
80,41,175688,1,8,0:0:0:0:
28,66,175774,1,8,0:0:0:0:
0,116,175860,1,8,0:0:0:0:
4,174,175945,1,8,0:0:0:0:
41,218,176031,1,8,0:0:0:0:
97,233,176117,1,8,0:0:0:0:
151,213,176203,1,8,0:0:0:0:
185,166,176288,5,8,0:0:0:0:
222,108,176373,1,8,0:0:0:0:
285,79,176459,1,8,0:0:0:0:
354,89,176545,1,8,0:0:0:0:
407,134,176630,1,8,0:0:0:0:
427,200,176716,1,8,0:0:0:0:
408,267,176802,1,8,0:0:0:0:
355,313,176888,1,8,0:0:0:0:
285,323,176973,5,2,0:0:0:0:
90,282,177316,6,0,P|99:314|107:347,1,67.5,2|0,0:0|0:0,0:0:0:0:
202,163,177659,2,0,P|210:130|219:97,1,67.5,2|0,0:0|0:0,0:0:0:0:
41,218,178002,6,0,B|82:185|145:195|135:231|179:257|227:239,1,202.500007724762,8|0,0:0|0:0,0:0:0:0:
277,174,178345,6,0,P|363:150|428:203,1,175.499991966248,6|0,0:0|0:0,0:0:0:0:
492,265,178688,2,0,P|501:207|512:149,1,116.999994644165,8|0,0:0|0:0,0:0:0:0:
399,10,179031,2,0,P|403:38|409:67,1,58.4999973220826,0|0,0:0|0:0,0:0:0:0:
277,174,179202,2,0,P|282:145|287:116,1,58.4999973220826,2|0,0:0|0:0,0:0:0:0:
206,9,179373,1,8,0:0:0:0:
342,245,179545,6,0,B|301:212|231:199|176:211|176:211|225:222|237:255,1,233.999989288331,2|2,0:0|0:0,0:0:0:0:
177,349,180059,2,0,P|171:320|166:291,1,58.4999973220826,8|0,0:0|0:0,0:0:0:0:
141,141,180231,1,2,0:0:0:0:
54,299,180402,2,0,P|50:271|44:242,1,58.4999973220826,0|0,0:0|0:0,0:0:0:0:
18,91,180574,1,2,0:0:0:0:
177,212,180745,2,0,P|215:169|214:112,1,116.999994644165,8|0,0:0|0:0,0:0:0:0:
378,39,181088,6,0,P|291:24|205:8,1,175.499991966248,2|0,0:0|0:0,0:0:0:0:
131,34,181431,2,0,P|115:88|140:140,1,116.999994644165,8|0,0:0|0:0,0:0:0:0:
370,139,181773,2,0,P|336:144|312:149,1,58.4999973220826,0|0,0:0|0:0,0:0:0:0:
177,212,181945,2,0,P|205:216|234:222,1,58.4999973220826,2|0,0:0|0:0,0:0:0:0:
342,321,182116,1,8,0:0:0:0:
504,141,182288,6,0,B|438:91|438:91|466:257,1,233.999989288331,2|2,0:0|0:0,0:0:0:0:
312,148,182802,1,8,0:0:0:0:
457,340,182973,2,0,P|399:329|341:320,1,116.999994644165,2|0,0:0|0:0,0:0:0:0:
504,141,183316,1,2,0:0:0:0:
327,234,183488,1,8,0:0:0:0:
457,340,183659,1,0,0:0:0:0:
260,363,183831,5,2,0:0:0:0:
463,240,184002,1,0,0:0:0:0:
219,136,184173,1,8,0:0:0:0:
422,13,184345,1,0,0:0:0:0:
327,234,184516,2,0,P|298:229|269:223,1,58.4999973220826,0|0,0:0|0:0,0:0:0:0:
131,61,184688,2,0,P|188:51|246:39,1,116.999994644165,2|8,0:0|0:0,0:0:0:0:
375,124,185031,1,2,0:0:0:0:
132,186,185202,5,0,0:0:0:0:
260,363,185373,1,2,0:0:0:0:
318,135,185545,2,0,P|346:130|375:124,1,58.4999973220826,8|0,0:0|0:0,0:0:0:0:
166,291,185716,2,0,P|108:279|50:269,1,116.999994644165,2|0,0:0|0:0,0:0:0:0:
327,234,186059,1,2,0:0:0:0:
260,363,186231,1,8,0:0:0:0:
219,136,186402,1,0,0:0:0:0:
435,332,186573,6,0,P|449:245|465:159,1,175.499991966248,2|0,0:0|0:0,0:0:0:0:
438,94,186916,1,8,0:0:0:0:
240,250,187088,2,0,P|230:192|218:135,1,116.999994644165,0|0,0:0|0:0,0:0:0:0:
464,159,187431,2,0,P|473:101|485:44,1,116.999994644165,2|8,0:0|0:0,0:0:0:0:
170,51,187773,6,0,B|231:19|280:63|280:63|312:7|376:14,1,233.999989288331,2|2,0:0|0:0,0:0:0:0:
464,159,188288,2,0,P|435:153|406:147,1,58.4999973220826,8|0,0:0|0:0,0:0:0:0:
240,250,188459,1,2,0:0:0:0:
484,272,188631,2,0,P|455:266|426:260,1,58.4999973220826,0|0,0:0|0:0,0:0:0:0:
260,363,188802,1,2,0:0:0:0:
309,166,188973,2,0,P|315:109|281:63,1,116.999994644165,8|0,0:0|0:0,0:0:0:0:
67,220,189316,6,0,P|153:234|239:249,1,175.499991966248,6|0,0:0|0:0,0:0:0:0:
323,286,189659,2,0,P|369:252|426:260,1,116.999994644165,8|0,0:0|0:0,0:0:0:0:
453,101,190002,2,0,P|457:129|463:158,1,58.4999973220826,0|0,0:0|0:0,0:0:0:0:
281,63,190173,2,0,P|309:58|338:52,1,58.4999973220826,2|0,0:0|0:0,0:0:0:0:
491,0,190345,1,8,0:0:0:0:
309,166,190516,6,0,B|263:171|228:138|228:138|181:177|181:177|149:147|101:149,1,233.999989288331,2|2,0:0|0:0,0:0:0:0:
198,15,191031,2,0,P|192:43|187:72,1,58.4999973220826,8|0,0:0|0:0,0:0:0:0:
240,249,191202,1,2,0:0:0:0:
93,91,191373,2,0,P|97:119|103:148,1,58.4999973220826,0|0,0:0|0:0,0:0:0:0:
309,166,191545,1,2,0:0:0:0:
119,262,191716,2,0,P|61:250|3:240,1,116.999994644165,8|0,0:0|0:0,0:0:0:0:
259,384,192059,6,0,P|325:331|321:246,1,175.499991966248,2|0,0:0|0:0,0:0:0:0:
309,166,192402,2,0,P|366:177|423:187,1,116.999994644165,8|0,0:0|0:0,0:0:0:0:
501,57,192745,2,0,P|495:28|490:0,1,58.4999973220826,0|0,0:0|0:0,0:0:0:0:
424,187,192916,2,0,P|418:215|413:244,1,58.4999973220826,2|0,0:0|0:0,0:0:0:0:
338,51,193088,1,8,0:0:0:0:
142,138,193259,6,0,B|184:169|254:180|309:166|309:166|259:156|246:124,1,233.999989288331,2|2,0:0|0:0,0:0:0:0:
119,262,193773,1,8,0:0:0:0:
46,55,193945,2,0,P|103:44|161:33,1,116.999994644165,2|0,0:0|0:0,0:0:0:0:
23,180,194288,1,2,0:0:0:0:
256,140,194459,2,0,P|244:197|234:255,1,116.999994644165,8|2,0:0|0:0,0:0:0:0:
161,33,194802,5,12,0:0:0:0:
412,244,194973,1,2,0:0:0:0:
137,29,195145,5,8,0:0:0:0:
212,368,195316,1,2,0:0:0:0:
113,29,195488,5,8,0:0:0:0:
322,323,195659,1,2,0:0:0:0:
90,35,195831,5,8,0:0:0:0:
470,139,196002,1,2,0:0:0:0:
211,337,196173,5,12,0:0:0:0:
377,33,196345,1,2,0:0:0:0:
75,152,196516,5,8,0:0:0:0:
397,24,196688,1,2,0:0:0:0:
119,262,196859,5,8,0:0:0:0:
449,147,197031,1,2,0:0:0:0:
90,35,197202,5,8,0:0:0:0:
470,139,197373,1,2,0:0:0:0:
209,306,197545,5,8,3:2:0:0:
240,272,197630,1,0,3:3:0:0:
284,250,197716,1,8,3:2:0:0:
335,250,197802,1,0,3:3:0:0:
384,272,197887,1,8,3:2:0:0:
420,315,197973,1,0,3:3:0:0:
436,371,198059,5,8,3:2:0:0:
445,310,198145,1,0,3:3:0:0:
430,248,198230,1,8,3:2:0:0:
392,192,198316,1,0,3:3:0:0:
333,153,198402,1,8,3:2:0:0:
261,141,198487,1,0,3:3:0:0:
187,161,198573,6,0,P|159:171|133:184,1,58.4999973220826,8|0,3:2|3:0,0:0:0:0:
0,371,198745,1,6,3:2:0:0:
77,377,199945,6,0,B|80:319|44:284|44:284|3:313|0:370,1,202.500007724762,8|0,0:0|0:0,0:0:0:0:
95,304,200288,6,0,P|160:275|220:314,1,148.50000453186,6|0,0:0|0:0,0:0:0:0:
240,350,200631,2,0,P|289:345|338:342,1,99.0000030212403,8|0,0:0|0:0,0:0:0:0:
470,270,200973,1,0,0:0:0:0:
333,153,201145,1,2,0:0:0:0:
465,33,201316,1,8,0:0:0:0:
333,250,201488,6,0,P|250:203|248:108,1,198.000006042481,2|2,0:0|0:0,0:0:0:0:
86,34,202002,2,0,P|91:83|94:132,1,99.0000030212403,8|2,0:0|0:0,0:0:0:0:
227,224,202345,2,0,B|191:264|137:249,1,99.0000030212403,0|2,0:0|0:0,0:0:0:0:
0,384,202688,2,0,B|36:344|90:359,1,99.0000030212403,8|0,0:0|3:0,0:0:0:0:
262,382,202945,1,0,3:0:0:0:
240,372,203031,6,0,P|233:298|227:224,1,148.50000453186,2|0,3:2|0:0,0:0:0:0:
245,185,203373,2,0,B|300:195|333:153,1,99.0000030212403,8|0,0:0|0:0,0:0:0:0:
94,132,203716,1,0,0:0:0:0:
243,12,203888,1,2,0:0:0:0:
227,224,204059,1,8,0:0:0:0:
467,142,204231,6,0,B|389:161|308:127|308:127|326:139|333:153,1,198.000006042481,2|2,0:0|0:0,0:0:0:0:
373,326,204745,1,8,0:0:0:0:
227,224,204916,1,2,0:0:0:0:
421,241,205087,1,0,3:0:0:0:
439,236,205173,1,0,3:0:0:0:
455,224,205259,1,2,3:2:0:0:
341,53,205431,2,0,P|336:102|332:151,1,99.0000030212403,8|0,0:0|0:0,0:0:0:0:
167,278,205773,6,0,P|148:209|193:153,1,148.50000453186,6|0,0:0|0:0,0:0:0:0:
233,142,206116,2,0,P|282:147|331:151,1,99.0000030212403,8|0,0:0|0:0,0:0:0:0:
455,224,206459,1,0,0:0:0:0:
341,53,206631,1,2,0:0:0:0:
300,275,206802,1,8,0:0:0:0:
344,34,206973,6,0,P|295:39|246:43,1,99.0000030212403,2|0,0:0|0:0,0:0:0:0:
87,22,207316,1,2,0:0:0:0:
233,142,207488,1,8,3:2:0:0:
242,170,207573,1,0,3:0:0:0:
243,200,207659,1,2,3:2:0:0:
236,229,207745,1,0,3:0:0:0:
221,255,207831,5,0,3:0:0:0:
191,282,207916,1,0,3:0:0:0:
153,297,208002,1,2,3:2:0:0:
112,298,208088,1,0,3:0:0:0:
73,284,208173,1,8,3:2:0:0:
41,257,208259,1,0,3:0:0:0:
20,219,208345,2,0,P|26:196|32:172,1,49.5000015106202,0|0,3:0|3:0,0:0:0:0:
87,22,208516,5,2,3:2:0:0:
191,282,208688,1,0,0:0:0:0:
344,34,208859,1,8,0:0:0:0:
132,157,209031,1,0,0:0:0:0:
358,318,209202,2,0,P|362:268|367:219,1,99.0000030212403,0|2,0:0|0:0,0:0:0:0:
191,282,209545,1,8,0:0:0:0:
439,168,209716,6,0,P|370:188|313:145,1,148.50000453186,6|0,0:0|0:0,0:0:0:0:
294,109,210059,1,0,3:0:0:0:
358,318,210231,1,0,3:0:0:0:
465,42,210402,1,0,3:0:0:0:
263,226,210573,1,8,0:0:0:0:
36,59,210745,6,0,B|132:113|248:114|345:58|345:58|325:89|293:109,1,396.000012084961,8|0,0:0|0:0,0:0:0:0:
