osu file format v14

[General]
AudioFilename: audio.mp3
AudioLeadIn: 0
PreviewTime: 63519
Countdown: 0
SampleSet: Normal
StackLeniency: 0.7
Mode: 1
LetterboxInBreaks: 0
WidescreenStoryboard: 0

[Editor]
DistanceSpacing: 1.3
BeatDivisor: 8
GridSize: 8
TimelineZoom: 1.3

[Metadata]
Title:take it easy feat. Hatsune Miku (Cut Ver.)
TitleUnicode:take it easy feat. 初音ミク (Cut Ver.)
Artist:Hachioji P
ArtistUnicode:八王子P
Creator:roxorotto
Version:oni
Source:
Tags:8#Prince HachiojiP Hachioji-P P*Light P Light ViViD WAVE vocaloid japanese electronic pop jpop j-pop ボーカロイド short version
BeatmapID:3376943
BeatmapSetID:1654454

[Difficulty]
HPDrainRate:5.5
CircleSize:3
OverallDifficulty:5
ApproachRate:9
SliderMultiplier:1.4
SliderTickRate:1

[Events]
//Background and Video events
0,0,"yurishe bg.jpg",0,80
//Break Periods
//Storyboard Layer 0 (Background)
//Storyboard Layer 1 (Fail)
//Storyboard Layer 2 (Pass)
//Storyboard Layer 3 (Foreground)
//Storyboard Layer 4 (Overlay)
//Storyboard Sound Samples

[TimingPoints]
62,468.75,4,1,0,40,1,8
3694,-100,4,1,0,60,0,0
11246,-100,4,1,0,65,0,0
18688,-100,4,1,0,80,0,0
33688,-100,4,1,0,70,0,0
60052,-100,4,1,0,70,0,0
60520,-98.31662749988,4,1,0,70,0,0
60637,-97.904602710286,4,1,0,70,0,0
60755,-97.492539442866,4,1,0,70,0,0
60989,-96.6855714471,4,1,0,70,0,0
61223,-95.891852700759,4,1,0,70,0,0
61458,-95.107750121784,4,1,0,70,0,0
61575,-94.72212916864,4,1,0,70,0,0
61692,-94.339622641509,4,1,0,70,0,0
63688,-94.339622641509,4,1,0,90,0,0
63812,-86.9565217391304,4,1,0,90,0,1
64043,-90.9090909090909,4,1,0,90,0,1
77874,-90.909090909091,4,1,0,90,0,0
77985,-92.305672268908,4,1,0,90,0,0
78102,-93.745832777704,4,1,0,90,0,0
78337,-96.778634361233,4,1,0,90,0,0
78571,-100,4,1,0,90,0,0
78812,-86.9565217391304,4,1,0,90,0,1
79042,-90.9090909090909,4,1,0,90,0,1
91701,-95.2380952380952,4,1,0,90,0,1
91937,-100,4,1,0,80,0,0

[HitObjects]
256,192,1937,12,0,3343,0:0:0:0:
256,191,3577,5,0,0:0:0:0:
312,156,3812,5,12,0:0:0:0:
325,152,4046,1,8,0:0:0:0:
325,152,4280,1,0,0:0:0:0:
242,169,4515,1,8,0:0:0:0:
325,152,4749,1,0,0:0:0:0:
303,181,5452,1,0,0:0:0:0:
325,152,5687,1,8,0:0:0:0:
325,152,5921,1,0,0:0:0:0:
325,152,6155,1,8,0:0:0:0:
319,160,6390,1,0,0:0:0:0:
325,152,6624,1,0,0:0:0:0:
311,129,7093,1,8,0:0:0:0:
311,129,7327,1,8,0:0:0:0:
311,129,7796,1,0,0:0:0:0:
311,129,8265,1,0,0:0:0:0:
311,129,8499,1,8,0:0:0:0:
311,129,8733,1,8,0:0:0:0:
326,133,9202,1,0,0:0:0:0:
326,133,9437,1,8,0:0:0:0:
305,160,9671,1,8,0:0:0:0:
326,133,9905,1,0,0:0:0:0:
326,133,10140,1,0,0:0:0:0:
326,133,10843,1,8,0:0:0:0:
326,133,11077,1,8,0:0:0:0:
326,133,11194,1,8,0:0:0:0:
326,133,11312,1,0,0:0:0:0:
326,133,11780,1,0,0:0:0:0:
341,139,12249,1,8,0:0:0:0:
159,166,12483,1,0,0:0:0:0:
341,139,12718,1,8,0:0:0:0:
340,163,12952,1,0,0:0:0:0:
368,165,13187,1,8,0:0:0:0:
341,139,13421,1,8,0:0:0:0:
341,139,13655,1,0,0:0:0:0:
368,165,14124,1,0,0:0:0:0:
134,171,14358,1,0,0:0:0:0:
368,165,14593,1,8,0:0:0:0:
363,180,14827,1,0,0:0:0:0:
368,165,15062,1,8,0:0:0:0:
371,186,15296,1,8,0:0:0:0:
371,186,15530,1,0,0:0:0:0:
371,186,15765,1,0,0:0:0:0:
370,186,15999,1,8,0:0:0:0:
206,171,16116,1,8,0:0:0:0:
206,171,16233,1,8,0:0:0:0:
378,169,16468,1,0,0:0:0:0:
378,169,16702,1,0,0:0:0:0:
361,164,16937,1,0,0:0:0:0:
321,166,17874,1,8,0:0:0:0:
253,161,18343,1,0,0:0:0:0:
288,144,18812,5,12,0:0:0:0:
331,168,19046,5,0,0:0:0:0:
331,168,19280,1,8,0:0:0:0:
322,163,19632,1,8,0:0:0:0:
331,168,19866,1,0,0:0:0:0:
331,157,19983,1,0,0:0:0:0:
282,190,20218,1,8,0:0:0:0:
282,190,20452,1,8,0:0:0:0:
282,190,20687,1,0,0:0:0:0:
206,146,20921,1,0,0:0:0:0:
337,168,21155,1,8,0:0:0:0:
337,168,21507,1,0,0:0:0:0:
337,169,21741,1,8,0:0:0:0:
335,185,21858,1,0,0:0:0:0:
344,121,22093,1,8,0:0:0:0:
335,185,22327,1,8,0:0:0:0:
329,178,22562,1,0,0:0:0:0:
224,152,22796,1,8,0:0:0:0:
334,192,23030,1,0,0:0:0:0:
337,180,23382,1,0,0:0:0:0:
337,180,23616,1,0,0:0:0:0:
327,168,23733,1,0,0:0:0:0:
327,168,23968,1,8,0:0:0:0:
315,165,24085,1,0,0:0:0:0:
327,168,24202,1,8,0:0:0:0:
327,168,24437,1,4,0:0:0:0:
327,168,24788,1,4,0:0:0:0:
327,168,25140,1,12,0:0:0:0:
327,168,25491,1,0,0:0:0:0:
240,144,25608,1,0,0:0:0:0:
240,144,25726,1,8,0:0:0:0:
271,159,25843,1,8,0:0:0:0:
327,168,25960,1,0,0:0:0:0:
327,168,26077,1,8,0:0:0:0:
327,168,26312,1,0,0:0:0:0:
345,188,26780,1,12,0:0:0:0:
345,188,27015,1,0,0:0:0:0:
345,188,27132,1,8,0:0:0:0:
345,188,27483,1,0,0:0:0:0:
345,188,27718,1,8,0:0:0:0:
350,183,27952,1,0,0:0:0:0:
309,143,28187,1,8,0:0:0:0:
277,92,28421,1,8,0:0:0:0:
349,183,28655,1,8,0:0:0:0:
350,183,28772,1,0,0:0:0:0:
350,183,28890,1,0,0:0:0:0:
350,183,29007,1,8,0:0:0:0:
360,167,29358,1,0,0:0:0:0:
360,167,29593,1,8,0:0:0:0:
342,196,29827,1,0,0:0:0:0:
342,196,30062,1,8,0:0:0:0:
175,161,30296,1,8,0:0:0:0:
371,179,30530,1,0,0:0:0:0:
371,179,30647,1,8,0:0:0:0:
394,184,30765,1,0,0:0:0:0:
394,184,30882,1,8,0:0:0:0:
394,184,31233,1,0,0:0:0:0:
394,184,31468,1,8,0:0:0:0:
342,196,31585,1,0,0:0:0:0:
394,184,31702,1,8,0:0:0:0:
356,189,31937,1,4,0:0:0:0:
359,204,32171,1,8,0:0:0:0:
356,189,32405,1,4,0:0:0:0:
356,189,32757,1,4,0:0:0:0:
244,136,32991,1,8,0:0:0:0:
244,136,33108,1,8,0:0:0:0:
244,136,33226,1,0,0:0:0:0:
244,136,33343,1,8,0:0:0:0:
281,158,33460,1,0,0:0:0:0:
281,158,33577,1,8,0:0:0:0:
281,158,33812,1,4,0:0:0:0:
281,158,34280,1,8,0:0:0:0:
281,158,34515,1,0,0:0:0:0:
281,158,34749,1,8,0:0:0:0:
281,158,34983,1,0,0:0:0:0:
281,158,35452,1,8,0:0:0:0:
281,158,35687,1,0,0:0:0:0:
281,158,35921,1,8,0:0:0:0:
281,158,36155,1,0,0:0:0:0:
281,158,36624,1,0,0:0:0:0:
276,163,37093,1,8,0:0:0:0:
276,163,37327,1,8,0:0:0:0:
274,163,37562,1,0,0:0:0:0:
276,163,38030,1,0,0:0:0:0:
276,163,38265,1,8,0:0:0:0:
276,174,38499,1,8,0:0:0:0:
271,180,38968,1,0,0:0:0:0:
271,180,39437,1,0,0:0:0:0:
271,180,39905,1,8,0:0:0:0:
271,180,40140,1,8,0:0:0:0:
272,160,40608,1,0,0:0:0:0:
271,160,40726,1,0,0:0:0:0:
272,160,40843,1,8,0:0:0:0:
271,160,41077,1,8,0:0:0:0:
233,145,41312,1,0,0:0:0:0:
294,168,41780,1,0,0:0:0:0:
294,168,42015,1,8,0:0:0:0:
294,168,42249,1,0,0:0:0:0:
294,168,42483,1,8,0:0:0:0:
294,168,42952,1,0,0:0:0:0:
294,168,43187,1,8,0:0:0:0:
294,168,43421,1,0,0:0:0:0:
294,168,43655,1,8,0:0:0:0:
294,168,44124,1,0,0:0:0:0:
315,200,44593,1,8,0:0:0:0:
315,200,44827,1,8,0:0:0:0:
315,200,45062,1,0,0:0:0:0:
345,81,45530,1,0,0:0:0:0:
315,200,45765,1,8,0:0:0:0:
229,131,45999,1,0,0:0:0:0:
322,205,46468,1,8,0:0:0:0:
322,205,46937,1,0,0:0:0:0:
322,205,47405,1,8,0:0:0:0:
322,205,47640,1,8,0:0:0:0:
322,205,48108,1,0,0:0:0:0:
179,144,48226,1,0,0:0:0:0:
322,205,48343,1,0,0:0:0:0:
322,205,48577,1,0,0:0:0:0:
322,205,48812,1,12,0:0:0:0:
322,205,49280,1,8,0:0:0:0:
322,205,49515,1,0,0:0:0:0:
322,205,49749,1,8,0:0:0:0:
322,205,49983,1,0,0:0:0:0:
322,205,50452,1,8,0:0:0:0:
322,205,50687,1,0,0:0:0:0:
322,205,50921,1,8,0:0:0:0:
322,205,51155,1,0,0:0:0:0:
315,196,51624,1,0,0:0:0:0:
249,196,51858,1,0,0:0:0:0:
297,141,52093,1,8,0:0:0:0:
332,201,52327,1,0,0:0:0:0:
325,216,52562,1,8,0:0:0:0:
360,187,53030,1,0,0:0:0:0:
325,216,53265,1,8,0:0:0:0:
325,216,53499,1,8,0:0:0:0:
325,216,53968,1,0,0:0:0:0:
335,201,54437,1,8,0:0:0:0:
269,136,54671,1,8,0:0:0:0:
337,192,54905,1,0,0:0:0:0:
337,192,55140,1,0,0:0:0:0:
337,192,55608,1,8,0:0:0:0:
352,163,55726,1,8,0:0:0:0:
337,192,55843,1,8,0:0:0:0:
352,163,56077,1,8,0:0:0:0:
352,163,56312,1,0,0:0:0:0:
217,156,56780,1,0,0:0:0:0:
217,156,57015,1,8,0:0:0:0:
217,156,57249,1,0,0:0:0:0:
217,156,57483,1,8,0:0:0:0:
293,129,57952,1,0,0:0:0:0:
352,163,58187,1,8,0:0:0:0:
352,163,58421,1,0,0:0:0:0:
352,163,58655,1,8,0:0:0:0:
217,156,58890,1,8,0:0:0:0:
217,156,59124,1,0,0:0:0:0:
255,185,59358,1,0,0:0:0:0:
263,149,59593,1,8,0:0:0:0:
290,199,59827,1,8,0:0:0:0:
290,199,60062,1,4,0:0:0:0:
290,199,60530,1,8,0:0:0:0:
290,199,60647,1,8,0:0:0:0:
290,199,60765,1,8,0:0:0:0:
290,199,60999,1,0,0:0:0:0:
290,199,61233,1,8,0:0:0:0:
290,199,61468,1,0,0:0:0:0:
290,199,61585,1,0,0:0:0:0:
290,199,61702,1,0,0:0:0:0:
290,199,61937,1,12,0:0:0:0:
290,199,62405,1,8,0:0:0:0:
290,199,62874,1,8,0:0:0:0:
311,216,62991,1,8,0:0:0:0:
311,216,63108,1,0,0:0:0:0:
311,216,63226,1,0,0:0:0:0:
311,216,63343,1,8,0:0:0:0:
335,211,63577,1,0,0:0:0:0:
305,194,63812,1,12,0:0:0:0:
248,205,64046,1,0,0:0:0:0:
310,182,64163,1,0,0:0:0:0:
310,182,64280,1,8,0:0:0:0:
310,182,64515,1,8,0:0:0:0:
310,182,64749,1,0,0:0:0:0:
417,192,65218,1,0,0:0:0:0:
310,182,65452,1,8,0:0:0:0:
310,182,65569,1,0,0:0:0:0:
310,182,65687,1,8,0:0:0:0:
373,146,65804,1,8,0:0:0:0:
310,182,65921,1,0,0:0:0:0:
310,182,66155,1,8,0:0:0:0:
310,182,66390,1,0,0:0:0:0:
267,130,66507,1,8,0:0:0:0:
310,182,66624,1,0,0:0:0:0:
310,182,67093,1,8,0:0:0:0:
279,214,67210,1,8,0:0:0:0:
310,182,67327,1,8,0:0:0:0:
302,170,67562,1,0,0:0:0:0:
310,182,67796,1,8,0:0:0:0:
289,128,67913,1,0,0:0:0:0:
282,142,68030,1,8,0:0:0:0:
310,182,68265,1,0,0:0:0:0:
310,182,68499,1,8,0:0:0:0:
310,182,68616,1,8,0:0:0:0:
310,182,68733,1,0,0:0:0:0:
321,195,69202,1,0,0:0:0:0:
310,182,69437,1,8,0:0:0:0:
356,193,69671,1,0,0:0:0:0:
310,182,69905,1,8,0:0:0:0:
340,192,70022,1,8,0:0:0:0:
310,182,70140,1,0,0:0:0:0:
305,148,70257,1,0,0:0:0:0:
310,182,70374,1,8,0:0:0:0:
249,116,70608,1,0,0:0:0:0:
288,115,70843,1,8,0:0:0:0:
310,182,71077,1,0,0:0:0:0:
310,182,71312,1,8,0:0:0:0:
293,194,71546,1,8,0:0:0:0:
320,202,71663,1,0,0:0:0:0:
320,202,71780,1,8,0:0:0:0:
264,145,72015,1,8,0:0:0:0:
289,164,72483,1,0,0:0:0:0:
352,179,72952,1,0,0:0:0:0:
321,185,73187,1,8,0:0:0:0:
302,190,73421,1,0,0:0:0:0:
302,190,73538,1,8,0:0:0:0:
302,190,73655,1,8,0:0:0:0:
368,128,73772,1,0,0:0:0:0:
302,190,73890,1,8,0:0:0:0:
302,190,74124,1,0,0:0:0:0:
302,190,74358,1,8,0:0:0:0:
239,95,74476,1,8,0:0:0:0:
188,161,74593,1,0,0:0:0:0:
240,186,74827,1,0,0:0:0:0:
280,152,75062,1,8,0:0:0:0:
249,124,75296,1,0,0:0:0:0:
302,190,75765,1,0,0:0:0:0:
302,190,75999,1,8,0:0:0:0:
302,190,76233,1,8,0:0:0:0:
302,190,76468,1,0,0:0:0:0:
302,190,76702,1,0,0:0:0:0:
302,190,76937,1,8,0:0:0:0:
302,190,77054,1,0,0:0:0:0:
302,190,77171,1,8,0:0:0:0:
314,142,77288,1,8,0:0:0:0:
302,190,77405,1,0,0:0:0:0:
302,190,77640,1,8,0:0:0:0:
302,190,77874,1,0,0:0:0:0:
222,120,77991,1,0,0:0:0:0:
302,190,78108,1,8,0:0:0:0:
321,58,78343,1,8,0:0:0:0:
302,190,78577,1,0,0:0:0:0:
302,190,78812,1,12,0:0:0:0:
275,192,79046,1,8,0:0:0:0:
198,163,79163,1,0,0:0:0:0:
302,190,79280,1,8,0:0:0:0:
292,201,79515,1,0,0:0:0:0:
292,201,79749,1,8,0:0:0:0:
317,198,80218,1,0,0:0:0:0:
325,212,80452,1,0,0:0:0:0:
271,202,80569,1,0,0:0:0:0:
297,215,80687,1,8,0:0:0:0:
331,121,80804,1,8,0:0:0:0:
297,221,80921,1,8,0:0:0:0:
297,221,81155,1,8,0:0:0:0:
297,215,81390,1,0,0:0:0:0:
297,215,81507,1,8,0:0:0:0:
297,215,81624,1,8,0:0:0:0:
297,221,82093,1,8,0:0:0:0:
319,209,82327,1,8,0:0:0:0:
321,182,82444,1,8,0:0:0:0:
297,215,82562,1,0,0:0:0:0:
285,218,82796,1,0,0:0:0:0:
297,221,83030,1,8,0:0:0:0:
297,215,83265,1,0,0:0:0:0:
297,215,83499,1,8,0:0:0:0:
284,220,83616,1,0,0:0:0:0:
297,221,83733,1,0,0:0:0:0:
260,151,83851,1,0,0:0:0:0:
297,221,83968,1,8,0:0:0:0:
279,187,84202,1,0,0:0:0:0:
297,215,84437,1,8,0:0:0:0:
304,204,84671,1,8,0:0:0:0:
234,144,84788,1,0,0:0:0:0:
304,204,84905,1,8,0:0:0:0:
304,204,85140,1,0,0:0:0:0:
302,204,85257,1,0,0:0:0:0:
346,166,85374,1,8,0:0:0:0:
305,182,85608,1,0,0:0:0:0:
304,204,85843,1,8,0:0:0:0:
295,176,86077,1,0,0:0:0:0:
295,176,86194,1,8,0:0:0:0:
295,176,86312,1,0,0:0:0:0:
301,188,86780,1,0,0:0:0:0:
322,186,87015,1,8,0:0:0:0:
413,115,87132,1,0,0:0:0:0:
323,182,87249,1,8,0:0:0:0:
186,151,87483,1,8,0:0:0:0:
319,185,87718,1,8,0:0:0:0:
322,186,87952,1,0,0:0:0:0:
323,182,88187,1,8,0:0:0:0:
319,185,88304,1,8,0:0:0:0:
319,185,88421,1,0,0:0:0:0:
319,185,88655,1,0,0:0:0:0:
324,188,89124,1,0,0:0:0:0:
324,188,89358,1,0,0:0:0:0:
327,180,89593,1,8,0:0:0:0:
327,180,89827,1,8,0:0:0:0:
327,180,89944,1,8,0:0:0:0:
327,180,90062,1,0,0:0:0:0:
371,176,90179,1,8,0:0:0:0:
329,142,90296,1,0,0:0:0:0:
327,180,90530,1,8,0:0:0:0:
319,198,90765,1,0,0:0:0:0:
327,180,90999,1,8,0:0:0:0:
327,180,91233,1,0,0:0:0:0:
327,180,91351,1,0,0:0:0:0:
327,180,91468,1,8,0:0:0:0:
327,180,91702,1,8,0:0:0:0:
327,180,91937,1,4,0:0:0:0:
323,154,92874,1,0,0:0:0:0:
243,139,93343,1,0,0:0:0:0:
288,144,93812,5,12,0:0:0:0:
331,168,94046,5,0,0:0:0:0:
331,168,94280,1,8,0:0:0:0:
322,163,94632,1,8,0:0:0:0:
331,168,94866,1,0,0:0:0:0:
331,157,94983,1,0,0:0:0:0:
282,190,95218,1,8,0:0:0:0:
282,190,95452,1,8,0:0:0:0:
282,190,95687,1,0,0:0:0:0:
206,146,95921,1,0,0:0:0:0:
337,168,96155,1,8,0:0:0:0:
337,168,96507,1,0,0:0:0:0:
337,169,96741,1,8,0:0:0:0:
335,185,96858,1,0,0:0:0:0:
344,121,97093,1,8,0:0:0:0:
335,185,97327,1,8,0:0:0:0:
329,178,97562,1,0,0:0:0:0:
224,152,97796,1,8,0:0:0:0:
334,192,98030,1,0,0:0:0:0:
337,180,98382,1,0,0:0:0:0:
337,180,98616,1,0,0:0:0:0:
327,168,98733,1,0,0:0:0:0:
327,168,98968,1,8,0:0:0:0:
315,165,99085,1,0,0:0:0:0:
327,168,99202,1,8,0:0:0:0:
327,168,99437,1,4,0:0:0:0:
327,168,99788,1,4,0:0:0:0:
327,168,100140,1,12,0:0:0:0:
327,168,100491,1,0,0:0:0:0:
240,144,100608,1,0,0:0:0:0:
240,144,100726,1,8,0:0:0:0:
271,159,100843,1,8,0:0:0:0:
327,168,100960,1,0,0:0:0:0:
327,168,101077,1,8,0:0:0:0:
327,168,101312,1,8,0:0:0:0:
345,188,101780,1,4,0:0:0:0:
345,188,102015,1,0,0:0:0:0:
345,188,102132,1,8,0:0:0:0:
345,188,102483,1,0,0:0:0:0:
345,188,102718,1,8,0:0:0:0:
350,183,102952,1,0,0:0:0:0:
309,143,103187,1,8,0:0:0:0:
277,92,103421,1,0,0:0:0:0:
349,183,103655,1,8,0:0:0:0:
350,183,103772,1,0,0:0:0:0:
350,183,103890,1,0,0:0:0:0:
350,183,104007,1,8,0:0:0:0:
323,156,104241,1,0,0:0:0:0:
360,167,104358,1,0,0:0:0:0:
360,167,104593,1,8,0:0:0:0:
342,196,104827,1,0,0:0:0:0:
342,196,105062,1,8,0:0:0:0:
175,161,105296,1,8,0:0:0:0:
371,179,105530,1,8,0:0:0:0:
371,179,105647,1,0,0:0:0:0:
394,184,105765,1,0,0:0:0:0:
394,184,105882,1,8,0:0:0:0:
394,184,106233,1,0,0:0:0:0:
394,184,106468,1,8,0:0:0:0:
342,196,106585,1,0,0:0:0:0:
394,184,106702,1,8,0:0:0:0:
356,189,106937,1,4,0:0:0:0:
359,204,107171,1,8,0:0:0:0:
356,189,107405,1,4,0:0:0:0:
356,189,107757,1,4,0:0:0:0:
256,141,107991,1,8,0:0:0:0:
265,161,108108,1,8,0:0:0:0:
265,161,108226,1,0,0:0:0:0:
265,161,108343,1,8,0:0:0:0:
281,158,108460,1,0,0:0:0:0:
281,158,108577,1,8,0:0:0:0:
