osu file format v14

[General]
AudioFilename: audio.mp3
AudioLeadIn: 0
PreviewTime: 63519
Countdown: 0
SampleSet: Normal
StackLeniency: 0.7
Mode: 1
LetterboxInBreaks: 0
WidescreenStoryboard: 1

[Editor]
Bookmarks: 11307,18807,33807,63807,93807
DistanceSpacing: 1.3
BeatDivisor: 8
GridSize: 8
TimelineZoom: 0.8

[Metadata]
Title:take it easy feat. Hatsune Miku (Cut Ver.)
TitleUnicode:take it easy feat. 初音ミク (Cut Ver.)
Artist:Hachioji P
ArtistUnicode:八王子P
Creator:roxorotto
Version:futsuu
Source:
Tags:8#Prince HachiojiP Hachioji-P P*Light P Light ViViD WAVE vocaloid japanese electronic pop jpop j-pop ボーカロイド short version
BeatmapID:3376940
BeatmapSetID:1654454

[Difficulty]
HPDrainRate:7
CircleSize:3
OverallDifficulty:3
ApproachRate:9
SliderMultiplier:1.4
SliderTickRate:1

[Events]
//Background and Video events
0,0,"yurishe bg.jpg",0,80
//Break Periods
//Storyboard Layer 0 (Background)
//Storyboard Layer 1 (Fail)
//Storyboard Layer 2 (Pass)
//Storyboard Layer 3 (Foreground)
//Storyboard Layer 4 (Overlay)
//Storyboard Sound Samples

[TimingPoints]
62,468.75,4,1,0,40,1,8
3694,-100,4,1,0,60,0,0
11194,-100,4,1,0,65,0,0
18577,-100,4,1,0,80,0,0
33694,-100,4,1,0,70,0,0
63694,-100,4,1,0,90,0,0
63812,-100,4,1,0,90,0,1
77874,-100,4,1,0,90,0,0
78812,-100,4,1,0,90,0,1
91937,-100,4,1,0,80,0,0

[HitObjects]
256,192,1937,12,0,3343,0:0:0:0:
252,192,3812,5,12,0:0:0:0:
232,174,4280,1,8,0:0:0:0:
265,188,4749,1,0,0:0:0:0:
265,188,5687,1,8,0:0:0:0:
265,188,6155,1,8,0:0:0:0:
265,188,6624,1,0,0:0:0:0:
251,165,7093,1,8,0:0:0:0:
247,197,7327,1,8,0:0:0:0:
180,196,7796,1,0,0:0:0:0:
251,165,8265,1,0,0:0:0:0:
251,165,8499,1,8,0:0:0:0:
266,169,9202,1,0,0:0:0:0:
266,169,9437,1,8,0:0:0:0:
266,169,10140,1,0,0:0:0:0:
266,169,10843,1,8,0:0:0:0:
268,186,11077,1,8,0:0:0:0:
266,169,11312,1,0,0:0:0:0:
266,169,11780,1,0,0:0:0:0:
281,175,12249,1,8,0:0:0:0:
281,175,12718,1,8,0:0:0:0:
308,201,13187,1,8,0:0:0:0:
281,175,13655,1,0,0:0:0:0:
308,201,14124,1,8,0:0:0:0:
308,201,14593,1,8,0:0:0:0:
308,201,15062,1,0,0:0:0:0:
318,205,15530,1,0,0:0:0:0:
318,205,15999,1,8,0:0:0:0:
318,205,16468,1,0,0:0:0:0:
272,180,16702,1,0,0:0:0:0:
301,200,16937,1,8,0:0:0:0:
298,210,17874,1,8,0:0:0:0:
187,182,18812,5,12,0:0:0:0:
262,199,19632,1,8,0:0:0:0:
271,193,19983,1,0,0:0:0:0:
222,226,20218,1,8,0:0:0:0:
153,183,20687,1,0,0:0:0:0:
277,204,21507,1,0,0:0:0:0:
275,221,21858,1,8,0:0:0:0:
284,157,22093,1,8,0:0:0:0:
269,214,22562,1,0,0:0:0:0:
277,216,23382,1,0,0:0:0:0:
267,204,23733,1,0,0:0:0:0:
267,204,23968,1,8,0:0:0:0:
267,204,24437,1,4,0:0:0:0:
193,128,25140,1,12,0:0:0:0:
91,198,25374,1,0,0:0:0:0:
266,83,26312,1,0,0:0:0:0:
285,224,26780,1,12,0:0:0:0:
285,224,27132,1,0,0:0:0:0:
285,224,27483,1,8,0:0:0:0:
285,224,27718,1,8,0:0:0:0:
184,199,27952,1,0,0:0:0:0:
184,199,28187,1,8,0:0:0:0:
290,219,29007,1,8,0:0:0:0:
300,203,29358,1,0,0:0:0:0:
300,203,29593,1,8,0:0:0:0:
268,189,29827,1,8,0:0:0:0:
282,232,30062,1,0,0:0:0:0:
334,220,30882,1,8,0:0:0:0:
334,220,31233,1,8,0:0:0:0:
334,220,31468,1,8,0:0:0:0:
221,171,31702,1,0,0:0:0:0:
296,225,31937,1,4,0:0:0:0:
296,225,32757,1,4,0:0:0:0:
221,194,33343,1,8,0:0:0:0:
221,194,33577,1,8,0:0:0:0:
221,194,33812,1,4,0:0:0:0:
221,194,34280,1,8,0:0:0:0:
221,194,34749,1,8,0:0:0:0:
211,173,34983,1,0,0:0:0:0:
221,194,35452,1,8,0:0:0:0:
221,194,35921,1,8,0:0:0:0:
221,194,36155,1,0,0:0:0:0:
216,199,37093,1,8,0:0:0:0:
214,199,37562,1,0,0:0:0:0:
216,199,38030,1,0,0:0:0:0:
216,210,38499,1,8,0:0:0:0:
211,216,38968,1,0,0:0:0:0:
211,216,39437,1,0,0:0:0:0:
212,196,40608,1,0,0:0:0:0:
212,196,40843,1,8,0:0:0:0:
212,196,41312,1,0,0:0:0:0:
234,204,41780,1,0,0:0:0:0:
234,204,42249,1,0,0:0:0:0:
234,204,42483,1,8,0:0:0:0:
234,204,42952,1,0,0:0:0:0:
234,204,43421,1,0,0:0:0:0:
234,204,43655,1,8,0:0:0:0:
255,236,44593,1,8,0:0:0:0:
255,236,45062,1,0,0:0:0:0:
255,236,45765,1,8,0:0:0:0:
262,241,46468,1,8,0:0:0:0:
262,241,47405,1,8,0:0:0:0:
262,241,47640,1,8,0:0:0:0:
262,241,48108,1,0,0:0:0:0:
262,241,48343,1,0,0:0:0:0:
262,241,48812,1,12,0:0:0:0:
262,241,49280,1,8,0:0:0:0:
262,241,49749,1,8,0:0:0:0:
262,241,49983,1,0,0:0:0:0:
262,241,50452,1,8,0:0:0:0:
262,241,50921,1,8,0:0:0:0:
262,241,51155,1,0,0:0:0:0:
272,237,52093,1,8,0:0:0:0:
265,252,52562,1,8,0:0:0:0:
300,223,53030,1,0,0:0:0:0:
265,252,53265,1,8,0:0:0:0:
265,252,53968,1,0,0:0:0:0:
277,228,54905,1,0,0:0:0:0:
277,228,55140,1,0,0:0:0:0:
277,228,55608,1,8,0:0:0:0:
292,199,55843,1,8,0:0:0:0:
292,199,56780,1,0,0:0:0:0:
292,199,57249,1,0,0:0:0:0:
233,165,57483,1,8,0:0:0:0:
157,192,57952,1,0,0:0:0:0:
157,192,58421,1,0,0:0:0:0:
157,192,58655,1,8,0:0:0:0:
195,159,59124,1,0,0:0:0:0:
203,185,59593,1,8,0:0:0:0:
230,235,59827,1,8,0:0:0:0:
230,235,60062,1,4,0:0:0:0:
191,189,60530,1,8,0:0:0:0:
230,235,60999,1,0,0:0:0:0:
230,235,61233,1,8,0:0:0:0:
230,235,61468,1,0,0:0:0:0:
230,235,61702,1,0,0:0:0:0:
230,235,61937,1,12,0:0:0:0:
230,235,62405,1,8,0:0:0:0:
230,235,62874,1,0,0:0:0:0:
251,252,63108,1,0,0:0:0:0:
251,252,63343,1,8,0:0:0:0:
245,230,63812,1,12,0:0:0:0:
188,241,64046,1,0,0:0:0:0:
250,218,64280,1,8,0:0:0:0:
250,218,64515,1,8,0:0:0:0:
250,218,64749,1,0,0:0:0:0:
250,218,65452,1,8,0:0:0:0:
250,218,65687,1,8,0:0:0:0:
250,218,65921,1,0,0:0:0:0:
250,218,66155,1,8,0:0:0:0:
250,218,66624,1,0,0:0:0:0:
250,218,67093,1,8,0:0:0:0:
233,181,67327,1,8,0:0:0:0:
188,158,67562,1,0,0:0:0:0:
250,218,67796,1,0,0:0:0:0:
250,218,68265,1,8,0:0:0:0:
250,218,68499,1,8,0:0:0:0:
232,207,68733,1,0,0:0:0:0:
250,218,69202,1,0,0:0:0:0:
250,218,69437,1,8,0:0:0:0:
250,218,69905,1,8,0:0:0:0:
282,228,70140,1,0,0:0:0:0:
250,218,70374,1,8,0:0:0:0:
250,218,71312,1,8,0:0:0:0:
215,195,71546,1,0,0:0:0:0:
184,217,71780,1,0,0:0:0:0:
184,217,72015,1,8,0:0:0:0:
241,168,72483,1,0,0:0:0:0:
197,161,72952,1,0,0:0:0:0:
261,221,73187,1,8,0:0:0:0:
242,226,73655,1,8,0:0:0:0:
308,162,73890,1,0,0:0:0:0:
242,226,74124,1,0,0:0:0:0:
268,151,74358,1,8,0:0:0:0:
191,188,74827,1,0,0:0:0:0:
242,226,75062,1,8,0:0:0:0:
231,161,75296,1,8,0:0:0:0:
236,189,75765,1,0,0:0:0:0:
242,226,75999,1,8,0:0:0:0:
263,144,76233,1,8,0:0:0:0:
242,226,76468,1,0,0:0:0:0:
242,226,76937,1,8,0:0:0:0:
242,226,77405,1,0,0:0:0:0:
186,192,77874,1,0,0:0:0:0:
242,226,78812,1,12,0:0:0:0:
248,207,79046,1,0,0:0:0:0:
242,226,79280,1,8,0:0:0:0:
293,207,79515,1,0,0:0:0:0:
232,237,79749,1,0,0:0:0:0:
179,180,80452,1,0,0:0:0:0:
307,230,80687,1,8,0:0:0:0:
237,257,80921,1,0,0:0:0:0:
237,257,81155,1,8,0:0:0:0:
237,251,81624,1,8,0:0:0:0:
226,221,82093,1,0,0:0:0:0:
235,213,82327,1,0,0:0:0:0:
237,257,82796,1,8,0:0:0:0:
237,251,83030,1,0,0:0:0:0:
217,172,83265,1,0,0:0:0:0:
237,251,83499,1,8,0:0:0:0:
237,257,83733,1,0,0:0:0:0:
237,257,83968,1,8,0:0:0:0:
237,251,84437,1,0,0:0:0:0:
244,240,84671,1,8,0:0:0:0:
244,240,84905,1,8,0:0:0:0:
244,240,85140,1,0,0:0:0:0:
59,184,85374,1,8,0:0:0:0:
244,240,85843,1,8,0:0:0:0:
235,212,86312,1,0,0:0:0:0:
263,218,87249,1,8,0:0:0:0:
259,221,87718,1,8,0:0:0:0:
263,218,88187,1,8,0:0:0:0:
256,202,88421,1,8,0:0:0:0:
259,221,88655,1,0,0:0:0:0:
264,224,89124,1,0,0:0:0:0:
267,216,89593,1,8,0:0:0:0:
267,216,90062,1,0,0:0:0:0:
259,178,90296,1,0,0:0:0:0:
267,216,90530,1,8,0:0:0:0:
267,216,90999,1,8,0:0:0:0:
267,216,91233,1,0,0:0:0:0:
267,216,91468,1,0,0:0:0:0:
267,216,91702,1,8,0:0:0:0:
267,216,91937,1,4,0:0:0:0:
137,166,92874,1,0,0:0:0:0:
145,147,93812,5,12,0:0:0:0:
262,199,94632,1,8,0:0:0:0:
271,193,94983,1,0,0:0:0:0:
222,226,95218,1,8,0:0:0:0:
153,183,95687,1,0,0:0:0:0:
277,204,96507,1,0,0:0:0:0:
275,221,96858,1,8,0:0:0:0:
284,157,97093,1,8,0:0:0:0:
269,214,97562,1,0,0:0:0:0:
277,216,98382,1,0,0:0:0:0:
267,204,98733,1,0,0:0:0:0:
267,204,98968,1,8,0:0:0:0:
267,204,99437,1,4,0:0:0:0:
267,204,100140,1,12,0:0:0:0:
149,181,100374,1,0,0:0:0:0:
83,179,101312,1,0,0:0:0:0:
285,224,101780,1,12,0:0:0:0:
285,224,102132,1,0,0:0:0:0:
285,224,102483,1,8,0:0:0:0:
285,224,102718,1,8,0:0:0:0:
335,174,102952,1,0,0:0:0:0:
335,174,103187,1,8,0:0:0:0:
290,219,104007,1,8,0:0:0:0:
300,203,104358,1,0,0:0:0:0:
300,203,104593,1,8,0:0:0:0:
337,173,104827,1,8,0:0:0:0:
282,232,105062,1,0,0:0:0:0:
334,220,105882,1,8,0:0:0:0:
334,220,106233,1,8,0:0:0:0:
334,220,106468,1,8,0:0:0:0:
358,175,106702,1,0,0:0:0:0:
296,225,106937,5,4,0:0:0:0:
296,225,107757,1,4,0:0:0:0:
277,182,108343,1,8,0:0:0:0:
221,194,108577,1,0,0:0:0:0:
