osu file format v14

[General]
AudioFilename: audio.mp3
AudioLeadIn: 0
PreviewTime: 54494
Countdown: 0
SampleSet: Normal
StackLeniency: 0.7
Mode: 1
LetterboxInBreaks: 0
WidescreenStoryboard: 1

[Editor]
Bookmarks: 70,6070,14976,15070,18070,24070,30070,36070,38320,42070,54070,72070,76570,78070,84070,88382,94570,96070,108070,126070,130570,132070,144070,150070,156070,159070,177070,181570,183070,198070
DistanceSpacing: 0.8
BeatDivisor: 4
GridSize: 16
TimelineZoom: 1.3

[Metadata]
Title:Kimagure Mercy feat. Hatsune Miku
TitleUnicode:気まぐれメルシィ feat. 初音ミク
Artist:Hachioji P
ArtistUnicode:八王子P
Creator:roxorotto
Version:Cry's Futsuu
Source:
Tags:q*Left q left 8#prince 8 prince merushii whimsical Eight -THE BEST OF 八王子P- Eight -THE BEST OF Hachioji-P- vocaloid female vocals jpop j-pop j pop japanese jp black star blackstar cryceptio cry electronic
BeatmapID:4484792
BeatmapSetID:1941780

[Difficulty]
HPDrainRate:7
CircleSize:5
OverallDifficulty:4
ApproachRate:5
SliderMultiplier:1.4
SliderTickRate:1

[Events]
//Background and Video events
0,0,"hdteedhwesrhgre.jpg",0,95
//Break Periods
//Storyboard Layer 0 (Background)
//Storyboard Layer 1 (Fail)
//Storyboard Layer 2 (Pass)
//Storyboard Layer 3 (Foreground)
//Storyboard Layer 4 (Overlay)
//Storyboard Sound Samples

[TimingPoints]
494,375,4,1,0,70,1,0
54494,-100,4,1,0,90,0,1
66494,-100,4,1,0,90,0,0
66869,-100,4,1,0,90,0,1
72494,-100,4,1,0,70,0,0
108494,-100,4,1,0,90,0,1
120494,-100,4,1,0,90,0,0
120869,-100,4,1,0,90,0,1
126494,-100,4,1,0,70,0,0
159494,375,4,1,0,90,1,1
159494,-100,4,1,0,90,0,1
171494,-100,4,1,0,90,0,0
171869,-100,4,1,0,90,0,1
177494,-100,4,1,0,70,0,0
192494,375,4,1,0,70,1,0

[HitObjects]
64,320,494,5,4,0:0:0:0:
448,64,1244,1,8,0:0:0:0:
448,64,1619,1,8,0:0:0:0:
256,240,1994,1,0,0:0:0:0:
448,64,2744,1,8,0:0:0:0:
256,240,3494,1,0,0:0:0:0:
448,64,4244,1,8,0:0:0:0:
448,64,4619,1,8,0:0:0:0:
256,240,4994,1,0,0:0:0:0:
256,240,5556,1,0,0:0:0:0:
64,320,6494,1,4,0:0:0:0:
64,64,6869,1,0,0:0:0:0:
448,64,7244,1,8,0:0:0:0:
448,64,7431,1,8,0:0:0:0:
256,240,7619,1,0,0:0:0:0:
64,64,7994,1,0,0:0:0:0:
256,240,8369,1,8,0:0:0:0:
448,64,8744,1,8,0:0:0:0:
256,240,8931,1,0,0:0:0:0:
256,240,9119,1,8,0:0:0:0:
64,64,9494,1,0,0:0:0:0:
256,240,9869,1,8,0:0:0:0:
448,64,10244,1,8,0:0:0:0:
448,64,10431,1,8,0:0:0:0:
256,240,10619,1,0,0:0:0:0:
448,64,10994,1,8,0:0:0:0:
448,64,11556,1,8,0:0:0:0:
64,320,12494,1,4,0:0:0:0:
64,64,12869,1,0,0:0:0:0:
448,64,13244,1,8,0:0:0:0:
448,64,13431,1,0,0:0:0:0:
256,240,13619,1,8,0:0:0:0:
64,64,13994,1,0,0:0:0:0:
256,240,14369,1,8,0:0:0:0:
448,64,14744,1,0,0:0:0:0:
256,240,14931,1,0,0:0:0:0:
256,240,15119,1,8,0:0:0:0:
256,240,15494,1,0,0:0:0:0:
448,64,16056,1,8,0:0:0:0:
256,240,16619,1,0,0:0:0:0:
448,320,16994,1,12,0:0:0:0:
448,320,17556,1,12,0:0:0:0:
448,64,18494,1,12,0:0:0:0:
256,240,19244,1,0,0:0:0:0:
256,240,19619,1,0,0:0:0:0:
256,240,19994,1,8,0:0:0:0:
448,64,20556,1,0,0:0:0:0:
448,64,21494,1,8,0:0:0:0:
448,64,21869,1,8,0:0:0:0:
256,240,22244,1,0,0:0:0:0:
256,240,22619,1,8,0:0:0:0:
256,240,22994,1,0,0:0:0:0:
448,64,23556,1,8,0:0:0:0:
64,320,24494,1,4,0:0:0:0:
64,64,24869,1,0,0:0:0:0:
448,64,25244,1,8,0:0:0:0:
448,64,25431,1,0,0:0:0:0:
256,240,25619,1,8,0:0:0:0:
64,64,25994,1,0,0:0:0:0:
256,240,26369,1,8,0:0:0:0:
448,64,26744,1,0,0:0:0:0:
256,240,26931,1,8,0:0:0:0:
256,240,27119,1,8,0:0:0:0:
64,64,27494,1,0,0:0:0:0:
256,240,27869,1,8,0:0:0:0:
448,64,28244,1,0,0:0:0:0:
448,64,28431,1,0,0:0:0:0:
256,240,28619,1,8,0:0:0:0:
448,64,28994,1,8,0:0:0:0:
448,64,29556,1,8,0:0:0:0:
448,64,30119,1,8,0:0:0:0:
64,320,30494,1,4,0:0:0:0:
256,240,31244,1,0,0:0:0:0:
448,64,31619,1,8,0:0:0:0:
448,64,31994,1,8,0:0:0:0:
256,240,32556,1,0,0:0:0:0:
256,240,33494,1,0,0:0:0:0:
448,64,33869,1,8,0:0:0:0:
256,240,34244,1,0,0:0:0:0:
448,64,34619,1,8,0:0:0:0:
256,240,34994,1,0,0:0:0:0:
448,64,35556,1,8,0:0:0:0:
64,320,36494,1,4,0:0:0:0:
64,64,36869,1,0,0:0:0:0:
448,64,37244,1,8,0:0:0:0:
448,64,37431,1,0,0:0:0:0:
256,240,37619,1,8,0:0:0:0:
256,240,37994,1,0,0:0:0:0:
256,240,38369,1,8,0:0:0:0:
448,64,38744,1,8,0:0:0:0:
256,240,38931,1,0,0:0:0:0:
256,240,39119,1,0,0:0:0:0:
256,240,39494,1,0,0:0:0:0:
256,240,39869,1,0,0:0:0:0:
448,64,40244,1,8,0:0:0:0:
448,64,40431,1,8,0:0:0:0:
256,240,40619,1,0,0:0:0:0:
448,64,40994,1,8,0:0:0:0:
448,64,41556,1,8,0:0:0:0:
448,64,42119,1,8,0:0:0:0:
64,320,42494,1,4,0:0:0:0:
448,64,43244,1,8,0:0:0:0:
448,64,43619,1,8,0:0:0:0:
256,240,43994,1,0,0:0:0:0:
256,240,44369,1,0,0:0:0:0:
448,64,44556,1,8,0:0:0:0:
256,240,45119,1,0,0:0:0:0:
256,240,45494,1,0,0:0:0:0:
256,240,45869,1,0,0:0:0:0:
448,64,46056,1,8,0:0:0:0:
448,64,46431,1,8,0:0:0:0:
256,240,46806,1,0,0:0:0:0:
256,240,47181,1,0,0:0:0:0:
256,240,47369,1,0,0:0:0:0:
448,64,48494,1,8,0:0:0:0:
448,64,49244,1,8,0:0:0:0:
64,64,49619,1,0,0:0:0:0:
448,64,49994,1,8,0:0:0:0:
448,64,50556,1,8,0:0:0:0:
448,64,51119,1,8,0:0:0:0:
448,64,51494,1,8,0:0:0:0:
256,240,52056,1,0,0:0:0:0:
256,240,52431,1,8,0:0:0:0:
256,240,52806,1,0,0:0:0:0:
224,143,53931,1,0,0:0:0:0:
448,64,54119,1,8,0:0:0:0:
448,320,54494,1,12,0:0:0:0:
448,320,54869,1,12,0:0:0:0:
256,240,55244,1,0,0:0:0:0:
256,240,55431,1,0,0:0:0:0:
448,64,55619,1,8,0:0:0:0:
448,64,55806,1,8,0:0:0:0:
256,240,55994,1,0,0:0:0:0:
448,64,56369,1,8,0:0:0:0:
448,64,56556,1,8,0:0:0:0:
256,240,56931,1,0,0:0:0:0:
256,240,57306,1,0,0:0:0:0:
256,240,57494,1,0,0:0:0:0:
256,240,57869,1,0,0:0:0:0:
256,240,58244,1,0,0:0:0:0:
256,240,58431,1,0,0:0:0:0:
448,64,58619,1,8,0:0:0:0:
256,240,58994,1,0,0:0:0:0:
256,240,59369,1,0,0:0:0:0:
256,240,59556,1,0,0:0:0:0:
448,64,59931,1,8,0:0:0:0:
448,320,60494,1,12,0:0:0:0:
448,320,60869,1,12,0:0:0:0:
256,240,61244,1,0,0:0:0:0:
256,240,61431,1,0,0:0:0:0:
448,64,61619,1,8,0:0:0:0:
448,64,61806,1,8,0:0:0:0:
256,240,61994,1,0,0:0:0:0:
448,64,62369,1,8,0:0:0:0:
448,64,62556,1,8,0:0:0:0:
256,240,62931,1,0,0:0:0:0:
448,64,63306,1,8,0:0:0:0:
256,240,63494,1,0,0:0:0:0:
256,240,63869,1,0,0:0:0:0:
256,240,64244,1,0,0:0:0:0:
256,240,64431,1,0,0:0:0:0:
448,64,64619,1,8,0:0:0:0:
448,64,64994,1,8,0:0:0:0:
256,240,65369,1,0,0:0:0:0:
256,240,65556,1,0,0:0:0:0:
448,64,65931,1,8,0:0:0:0:
448,320,66869,1,12,0:0:0:0:
448,64,67244,1,8,0:0:0:0:
448,64,67431,1,8,0:0:0:0:
256,240,67619,1,0,0:0:0:0:
256,240,67806,1,0,0:0:0:0:
448,64,67994,1,8,0:0:0:0:
448,64,68369,1,8,0:0:0:0:
256,240,68556,1,0,0:0:0:0:
256,240,68931,1,0,0:0:0:0:
448,64,69306,1,8,0:0:0:0:
256,240,69494,1,0,0:0:0:0:
256,240,69869,1,0,0:0:0:0:
448,64,70244,1,8,0:0:0:0:
448,64,70431,1,8,0:0:0:0:
448,64,70619,1,8,0:0:0:0:
448,64,70994,1,8,0:0:0:0:
256,240,71181,1,0,0:0:0:0:
256,240,71369,1,0,0:0:0:0:
448,64,71556,1,8,0:0:0:0:
256,240,71931,1,0,0:0:0:0:
64,320,72494,1,4,0:0:0:0:
149,72,72869,1,8,0:0:0:0:
256,240,73244,1,0,0:0:0:0:
151,125,73619,1,8,0:0:0:0:
369,114,73806,1,8,0:0:0:0:
256,240,73994,1,0,0:0:0:0:
369,114,74181,1,0,0:0:0:0:
151,125,74369,1,8,0:0:0:0:
256,240,74744,1,0,0:0:0:0:
256,240,75306,1,0,0:0:0:0:
215,125,75494,1,8,0:0:0:0:
286,95,75681,1,0,0:0:0:0:
240,127,75869,1,8,0:0:0:0:
240,127,76244,1,8,0:0:0:0:
448,64,76619,1,8,0:0:0:0:
262,132,76806,1,8,0:0:0:0:
64,320,76994,1,4,0:0:0:0:
256,240,78494,1,0,0:0:0:0:
256,192,78681,12,0,82994,0:0:0:0:
64,320,84494,5,4,0:0:0:0:
448,64,85244,1,8,0:0:0:0:
256,240,85994,1,0,0:0:0:0:
256,240,86369,1,0,0:0:0:0:
448,64,86744,1,8,0:0:0:0:
64,64,87119,1,0,0:0:0:0:
256,240,87494,1,0,0:0:0:0:
448,64,88244,1,8,0:0:0:0:
256,240,88994,1,0,0:0:0:0:
448,64,89744,1,8,0:0:0:0:
448,64,90119,1,8,0:0:0:0:
64,320,90494,1,4,0:0:0:0:
448,64,91244,1,8,0:0:0:0:
256,240,91994,1,0,0:0:0:0:
256,240,92369,1,0,0:0:0:0:
448,64,92744,1,8,0:0:0:0:
256,240,93494,1,0,0:0:0:0:
448,64,94244,1,8,0:0:0:0:
64,64,94900,1,0,0:0:0:0:
448,64,95744,1,8,0:0:0:0:
448,64,96119,1,8,0:0:0:0:
64,320,96494,1,4,0:0:0:0:
448,64,96869,1,8,0:0:0:0:
448,64,97244,1,8,0:0:0:0:
448,64,97431,1,8,0:0:0:0:
256,240,97619,1,0,0:0:0:0:
448,64,97994,1,8,0:0:0:0:
256,240,98181,1,0,0:0:0:0:
256,240,98556,1,0,0:0:0:0:
448,64,99119,1,8,0:0:0:0:
256,240,99494,1,0,0:0:0:0:
256,240,99869,1,0,0:0:0:0:
256,240,100056,1,0,0:0:0:0:
448,64,100431,1,8,0:0:0:0:
256,240,100806,1,0,0:0:0:0:
256,240,101181,1,0,0:0:0:0:
448,64,101369,1,8,0:0:0:0:
448,320,102494,1,12,0:0:0:0:
448,64,102869,1,8,0:0:0:0:
448,64,103244,1,8,0:0:0:0:
256,240,103619,1,0,0:0:0:0:
256,240,103806,1,0,0:0:0:0:
448,64,103994,1,8,0:0:0:0:
448,64,104556,1,8,0:0:0:0:
448,64,105119,1,8,0:0:0:0:
256,240,105494,1,0,0:0:0:0:
64,64,107181,1,0,0:0:0:0:
448,64,107369,1,8,0:0:0:0:
256,240,107556,1,0,0:0:0:0:
448,64,107744,1,8,0:0:0:0:
256,240,108119,1,0,0:0:0:0:
448,320,108494,1,12,0:0:0:0:
448,320,108869,1,12,0:0:0:0:
256,240,109244,1,0,0:0:0:0:
256,240,109431,1,0,0:0:0:0:
448,64,109619,1,8,0:0:0:0:
448,64,109806,1,8,0:0:0:0:
256,240,109994,1,0,0:0:0:0:
448,64,110369,1,8,0:0:0:0:
448,64,110556,1,8,0:0:0:0:
256,240,110931,1,0,0:0:0:0:
256,240,111306,1,0,0:0:0:0:
256,240,111494,1,0,0:0:0:0:
256,240,111869,1,0,0:0:0:0:
256,240,112244,1,0,0:0:0:0:
256,240,112431,1,0,0:0:0:0:
448,64,112619,1,8,0:0:0:0:
256,240,112994,1,0,0:0:0:0:
256,240,113369,1,0,0:0:0:0:
256,240,113556,1,0,0:0:0:0:
448,64,113931,1,8,0:0:0:0:
448,320,114494,1,12,0:0:0:0:
448,320,114869,1,12,0:0:0:0:
256,240,115244,1,0,0:0:0:0:
256,240,115431,1,0,0:0:0:0:
448,64,115619,1,8,0:0:0:0:
448,64,115806,1,8,0:0:0:0:
256,240,115994,1,0,0:0:0:0:
448,64,116369,1,8,0:0:0:0:
448,64,116556,1,8,0:0:0:0:
256,240,116931,1,0,0:0:0:0:
448,64,117306,1,8,0:0:0:0:
256,240,117494,1,0,0:0:0:0:
256,240,117869,1,0,0:0:0:0:
256,240,118244,1,0,0:0:0:0:
256,240,118431,1,0,0:0:0:0:
448,64,118619,1,8,0:0:0:0:
448,64,118994,1,8,0:0:0:0:
256,240,119369,1,0,0:0:0:0:
256,240,119556,1,0,0:0:0:0:
256,240,119744,1,0,0:0:0:0:
448,320,120869,1,12,0:0:0:0:
448,64,121244,1,8,0:0:0:0:
448,64,121431,1,8,0:0:0:0:
256,240,121619,1,0,0:0:0:0:
256,240,121806,1,0,0:0:0:0:
448,64,121994,1,8,0:0:0:0:
448,64,122369,1,8,0:0:0:0:
256,240,122556,1,0,0:0:0:0:
256,240,122931,1,0,0:0:0:0:
448,64,123306,1,8,0:0:0:0:
256,240,123494,1,0,0:0:0:0:
256,240,123869,1,0,0:0:0:0:
448,64,124244,1,8,0:0:0:0:
448,64,124431,1,8,0:0:0:0:
448,64,124619,1,8,0:0:0:0:
448,64,124994,1,8,0:0:0:0:
256,240,125181,1,0,0:0:0:0:
448,64,125556,1,8,0:0:0:0:
256,240,125931,1,0,0:0:0:0:
64,320,126494,1,4,0:0:0:0:
448,64,126869,1,8,0:0:0:0:
256,240,127244,1,0,0:0:0:0:
448,64,127619,1,8,0:0:0:0:
239,102,127806,1,8,0:0:0:0:
256,240,127994,1,0,0:0:0:0:
239,102,128181,1,0,0:0:0:0:
176,138,128369,1,8,0:0:0:0:
256,240,128744,1,0,0:0:0:0:
256,240,129306,1,0,0:0:0:0:
239,102,129494,1,8,0:0:0:0:
239,102,129681,1,0,0:0:0:0:
239,102,129869,1,8,0:0:0:0:
448,64,130244,1,8,0:0:0:0:
448,64,130619,1,8,0:0:0:0:
239,102,130806,1,8,0:0:0:0:
64,320,130994,1,4,0:0:0:0:
64,320,132494,1,4,0:0:0:0:
256,256,132869,1,0,0:0:0:0:
448,64,133244,1,8,0:0:0:0:
256,256,133431,1,0,0:0:0:0:
448,64,133619,1,8,0:0:0:0:
256,256,133994,1,0,0:0:0:0:
448,64,134369,1,8,0:0:0:0:
448,64,134744,1,8,0:0:0:0:
256,256,134931,1,0,0:0:0:0:
256,256,135119,1,0,0:0:0:0:
256,256,135494,1,0,0:0:0:0:
256,256,135869,1,8,0:0:0:0:
448,64,136244,1,8,0:0:0:0:
448,64,136431,1,8,0:0:0:0:
256,256,136619,1,0,0:0:0:0:
448,64,136994,1,8,0:0:0:0:
448,64,137556,1,8,0:0:0:0:
64,320,138494,1,4,0:0:0:0:
256,256,138869,1,0,0:0:0:0:
448,64,139244,1,8,0:0:0:0:
256,256,139431,1,0,0:0:0:0:
448,64,139619,1,8,0:0:0:0:
256,256,139994,1,0,0:0:0:0:
448,64,140369,1,8,0:0:0:0:
448,64,140744,1,8,0:0:0:0:
256,256,140931,1,0,0:0:0:0:
256,256,141119,1,0,0:0:0:0:
256,256,141494,1,0,0:0:0:0:
256,256,141869,1,8,0:0:0:0:
448,64,142244,1,8,0:0:0:0:
448,64,142431,1,8,0:0:0:0:
256,256,142619,1,0,0:0:0:0:
448,64,142994,1,8,0:0:0:0:
448,64,143556,1,8,0:0:0:0:
64,320,144494,1,4,0:0:0:0:
256,256,145244,1,0,0:0:0:0:
256,256,145619,1,0,0:0:0:0:
448,64,145994,1,8,0:0:0:0:
448,64,146369,1,8,0:0:0:0:
448,64,146744,1,8,0:0:0:0:
256,256,147119,1,8,0:0:0:0:
256,256,147494,1,0,0:0:0:0:
256,256,148244,1,0,0:0:0:0:
256,256,148619,1,0,0:0:0:0:
448,64,148994,1,8,0:0:0:0:
448,64,149744,1,8,0:0:0:0:
448,64,150119,1,8,0:0:0:0:
448,64,150306,1,8,0:0:0:0:
256,256,150494,1,4,0:0:0:0:
256,256,151244,1,4,0:0:0:0:
448,64,151994,1,12,0:0:0:0:
256,256,152744,1,4,0:0:0:0:
448,320,153494,1,12,0:0:0:0:
448,320,153869,1,12,0:0:0:0:
64,320,154244,1,0,0:0:0:0:
256,240,154431,1,0,0:0:0:0:
448,320,154806,1,12,0:0:0:0:
448,320,155181,1,12,0:0:0:0:
256,240,155556,1,0,0:0:0:0:
64,320,155744,1,0,0:0:0:0:
256,256,157994,1,0,0:0:0:0:
256,256,158744,1,0,0:0:0:0:
448,64,159119,1,8,0:0:0:0:
448,320,159494,1,12,0:0:0:0:
448,320,159869,1,12,0:0:0:0:
256,240,160244,1,0,0:0:0:0:
256,240,160431,1,0,0:0:0:0:
448,64,160619,1,8,0:0:0:0:
448,64,160806,1,8,0:0:0:0:
256,240,160994,1,0,0:0:0:0:
256,240,161369,1,0,0:0:0:0:
448,64,161556,1,8,0:0:0:0:
256,240,161931,1,0,0:0:0:0:
448,64,162119,1,8,0:0:0:0:
256,240,162306,1,0,0:0:0:0:
256,240,162494,1,0,0:0:0:0:
256,240,162869,1,0,0:0:0:0:
256,240,163244,1,0,0:0:0:0:
256,240,163431,1,0,0:0:0:0:
448,64,163619,1,8,0:0:0:0:
256,240,163806,1,0,0:0:0:0:
256,240,163994,1,0,0:0:0:0:
256,240,164369,1,0,0:0:0:0:
256,240,164556,1,0,0:0:0:0:
448,64,164931,1,8,0:0:0:0:
448,320,165494,1,12,0:0:0:0:
448,320,165869,1,12,0:0:0:0:
256,240,166244,1,0,0:0:0:0:
256,240,166431,1,0,0:0:0:0:
448,64,166619,1,8,0:0:0:0:
448,64,166806,1,8,0:0:0:0:
256,240,166994,1,0,0:0:0:0:
256,240,167369,1,0,0:0:0:0:
448,64,167556,1,8,0:0:0:0:
256,240,167931,1,0,0:0:0:0:
448,64,168119,1,8,0:0:0:0:
448,64,168306,1,8,0:0:0:0:
256,240,168494,1,0,0:0:0:0:
256,240,168869,1,0,0:0:0:0:
256,240,169244,1,0,0:0:0:0:
256,240,169431,1,0,0:0:0:0:
448,64,169619,1,8,0:0:0:0:
256,240,169806,1,0,0:0:0:0:
448,64,169994,1,8,0:0:0:0:
256,240,170369,1,0,0:0:0:0:
64,64,170556,1,0,0:0:0:0:
448,64,170931,1,8,0:0:0:0:
448,320,171869,1,12,0:0:0:0:
448,64,172244,1,8,0:0:0:0:
448,64,172431,1,8,0:0:0:0:
256,240,172619,1,0,0:0:0:0:
256,240,172806,1,0,0:0:0:0:
448,64,172994,1,8,0:0:0:0:
256,240,173369,1,0,0:0:0:0:
256,240,173556,1,0,0:0:0:0:
256,240,173931,1,0,0:0:0:0:
448,64,174119,1,8,0:0:0:0:
256,240,174306,1,0,0:0:0:0:
256,240,174494,1,0,0:0:0:0:
256,240,174869,1,0,0:0:0:0:
448,64,175244,1,8,0:0:0:0:
448,64,175431,1,8,0:0:0:0:
256,240,175619,1,0,0:0:0:0:
448,64,175994,1,8,0:0:0:0:
256,240,176181,1,0,0:0:0:0:
448,64,176556,1,8,0:0:0:0:
256,240,176931,1,0,0:0:0:0:
64,320,177494,1,4,0:0:0:0:
448,64,177869,1,8,0:0:0:0:
256,240,178244,1,0,0:0:0:0:
448,64,178619,1,8,0:0:0:0:
192,43,178806,1,8,0:0:0:0:
256,240,178994,1,0,0:0:0:0:
181,55,179181,1,0,0:0:0:0:
181,55,179369,1,8,0:0:0:0:
256,240,179744,1,0,0:0:0:0:
448,64,180306,1,8,0:0:0:0:
265,90,180494,1,8,0:0:0:0:
265,90,180681,1,0,0:0:0:0:
265,90,180869,1,8,0:0:0:0:
448,64,181244,1,8,0:0:0:0:
448,64,181619,1,8,0:0:0:0:
265,90,181806,1,8,0:0:0:0:
64,320,181994,1,4,0:0:0:0:
64,320,183494,1,4,0:0:0:0:
256,240,183869,1,0,0:0:0:0:
448,64,184244,1,8,0:0:0:0:
448,64,184431,1,8,0:0:0:0:
256,240,184619,1,0,0:0:0:0:
256,240,184994,1,0,0:0:0:0:
256,240,185369,1,8,0:0:0:0:
256,240,185744,1,0,0:0:0:0:
448,64,185931,1,8,0:0:0:0:
256,240,186119,1,0,0:0:0:0:
256,240,186494,1,0,0:0:0:0:
256,240,186869,1,8,0:0:0:0:
448,64,187244,1,8,0:0:0:0:
448,64,187431,1,8,0:0:0:0:
256,240,187619,1,0,0:0:0:0:
448,64,187994,1,8,0:0:0:0:
448,64,188556,1,8,0:0:0:0:
64,320,189494,1,4,0:0:0:0:
256,240,189869,1,0,0:0:0:0:
448,64,190244,1,8,0:0:0:0:
448,64,190431,1,8,0:0:0:0:
256,240,190619,1,0,0:0:0:0:
256,240,190994,1,0,0:0:0:0:
256,240,191369,1,8,0:0:0:0:
256,240,191744,1,0,0:0:0:0:
448,64,191931,1,8,0:0:0:0:
448,64,192119,1,8,0:0:0:0:
256,240,192494,1,0,0:0:0:0:
448,64,193056,1,8,0:0:0:0:
256,240,193619,1,0,0:0:0:0:
256,240,193806,1,8,0:0:0:0:
256,240,193994,1,0,0:0:0:0:
448,64,194556,1,8,0:0:0:0:
256,240,195119,1,0,0:0:0:0:
256,240,195306,1,8,0:0:0:0:
256,240,195494,1,0,0:0:0:0:
448,64,196056,1,8,0:0:0:0:
256,240,196619,1,0,0:0:0:0:
256,240,196806,1,8,0:0:0:0:
448,320,197181,1,12,0:0:0:0:
448,320,197744,1,12,0:0:0:0:
63,320,198494,1,4,0:0:0:0:
