osu file format v14

[General]
AudioFilename: audio.mp3
AudioLeadIn: 0
PreviewTime: -1
Countdown: 1
SampleSet: Normal
StackLeniency: 0.7
Mode: 0
LetterboxInBreaks: 0
WidescreenStoryboard: 0

[Editor]
DistanceSpacing: 2
BeatDivisor: 4
GridSize: 32
TimelineZoom: 1

[Metadata]
Title:A Power
TitleUnicode:A Power
Artist:Hachimitsu-Lemon Aftergrow
ArtistUnicode:はちみつれもん × Aftergrow
Creator:FireAce62
Version:Oni
Source:東方萃夢想 ~ Immaterial and Missing Power
Tags:Touhou Six String 05.想 砕月 御伽の国の鬼が島 ~ Missing Power 東方萃夢想 ~ Immaterial and Missing Power Mitsuki Nakae Aizawa ZUN U2 Akiyama Comic Market 93 Suika Ibuki Vocal Rock
BeatmapID:2083339
BeatmapSetID:995979

[Difficulty]
HPDrainRate:5
CircleSize:4
OverallDifficulty:6
ApproachRate:9
SliderMultiplier:1.8
SliderTickRate:1

[Events]
//Background and Video events
0,0,"stretched-1920-1080-761374.jpg",0,0
//Break Periods
//Storyboard Layer 0 (Background)
//Storyboard Layer 1 (Fail)
//Storyboard Layer 2 (Pass)
//Storyboard Layer 3 (Foreground)
//Storyboard Sound Samples

[TimingPoints]
19735,283.018867924528,4,1,0,50,1,0
115819,-100,4,1,0,50,0,1
134074,-100,4,1,0,50,0,0

[HitObjects]
219,309,19729,5,0,0:0:0:0:
271,145,19876,1,0,0:0:0:0:
261,316,20018,1,0,0:0:0:0:
191,160,20159,5,0,0:0:0:0:
328,262,20301,1,0,0:0:0:0:
326,91,20442,2,0,L|326:-4,1,90
229,143,20725,5,0,0:0:0:0:
381,63,20867,1,0,0:0:0:0:
377,233,21008,2,0,L|376:333,1,90
442,151,21291,6,0,P|458:116|465:110,1,45
371,105,21433,2,0,P|377:67|382:59,1,45
290,78,21574,2,0,P|286:39|289:30,1,45
204,72,21716,2,0,P|223:131|247:149,1,90
78,101,21999,5,0,0:0:0:0:
179,237,22140,1,0,0:0:0:0:
116,77,22282,1,0,0:0:0:0:
93,245,22423,5,0,0:0:0:0:
190,104,22565,1,0,0:0:0:0:
255,261,22706,2,0,L|294:349,1,90
146,251,22989,5,0,0:0:0:0:
317,262,23131,2,0,L|433:267,1,90
327,113,23414,5,0,0:0:0:0:
156,102,23555,2,0,B|87:99|87:99|64:132|64:132|-29:126,1,180
154,183,23980,2,0,L|270:188,1,90
477,50,24263,6,0,P|426:79|423:203,1,180
511,144,24687,1,0,0:0:0:0:
350,82,24829,1,0,0:0:0:0:
369,251,24970,2,0,L|378:353,1,90
208,274,25253,1,0,0:0:0:0:
227,105,25395,2,0,L|236:3,1,90
53,7,25678,1,0,0:0:0:0:
72,176,25819,2,0,L|81:278,1,90
61,85,26102,5,0,0:0:0:0:
232,74,26244,2,0,B|301:71|301:71|324:104|324:104|417:98,1,180
254,159,26668,5,0,0:0:0:0:
72,176,26810,2,0,L|178:167,1,90
329,234,27093,1,0,0:0:0:0:
147,251,27234,2,0,L|253:242,1,90
404,309,27518,1,0,0:0:0:0:
222,326,27659,5,0,0:0:0:0:
367,191,27801,1,0,0:0:0:0:
176,242,27942,1,0,0:0:0:0:
321,107,28084,1,0,0:0:0:0:
96,102,28225,2,0,P|37:147|32:194,1,90
194,320,28508,2,0,P|253:275|258:228,1,90
360,5,28791,1,0,0:0:0:0:
176,242,28933,1,0,0:0:0:0:
481,156,29216,5,0,0:0:0:0:
481,156,29357,1,0,0:0:0:0:
189,54,29640,5,0,0:0:0:0:
189,54,29782,1,0,0:0:0:0:
165,347,30065,5,0,0:0:0:0:
261,196,30206,1,0,0:0:0:0:
346,354,30489,5,0,0:0:0:0:
189,54,30914,5,0,0:0:0:0:
117,266,31055,1,0,0:0:0:0:
512,15,31338,5,0,0:0:0:0:
440,227,31480,1,0,0:0:0:0:
153,53,31763,5,0,0:0:0:0:
81,265,31904,1,0,0:0:0:0:
507,189,32187,2,0,P|512:254|472:302,1,90
374,88,32470,2,0,P|416:38|478:32,1,90
351,239,32753,2,0,P|289:216|263:159,1,90
454,114,33036,5,0,0:0:0:0:
306,60,33178,2,0,L|216:24,1,90
349,155,33461,1,0,0:0:0:0:
143,245,33602,5,0,0:0:0:0:
266,112,33744,1,0,0:0:0:0:
54,186,33885,5,0,0:0:0:0:
221,117,34027,1,0,0:0:0:0:
0,90,34168,5,0,0:0:0:0:
180,98,34310,1,0,0:0:0:0:
87,251,34451,2,0,P|135:283|176:283,1,90
182,95,34734,5,0,0:0:0:0:
87,251,34876,1,0,0:0:0:0:
268,253,35018,1,0,0:0:0:0:
182,95,35159,5,0,0:0:0:0:
130,271,35301,1,0,0:0:0:0:
306,226,35443,1,0,0:0:0:0:
182,95,35584,5,0,0:0:0:0:
178,278,35726,1,0,0:0:0:0:
336,189,35868,1,0,0:0:0:0:
412,28,36008,2,0,P|462:14|473:17,1,45
453,104,36150,2,0,P|498:129|503:139,1,45
434,182,36291,5,0,0:0:0:0:
217,116,36433,1,0,0:0:0:0:
396,108,36574,1,0,0:0:0:0:
227,42,36716,2,0,L|128:6,1,90
273,135,36999,5,0,0:0:0:0:
105,70,37140,1,0,0:0:0:0:
134,248,37282,1,0,0:0:0:0:
308,206,37423,5,0,0:0:0:0:
183,76,37564,1,0,0:0:0:0:
134,249,37706,1,0,0:0:0:0:
310,282,37848,5,0,0:0:0:0:
252,111,37989,1,0,0:0:0:0:
134,248,38131,1,0,0:0:0:0:
252,382,38272,2,0,P|307:371|311:367,1,45
257,295,38414,2,0,P|288:248|288:242,1,45
