osu file format v14

[General]
AudioFilename: audio.mp3
AudioLeadIn: 0
PreviewTime: 139312
Countdown: 1
SampleSet: Normal
StackLeniency: 0.7
Mode: 0
LetterboxInBreaks: 0
WidescreenStoryboard: 1

[Editor]
Bookmarks: 93138,94754
DistanceSpacing: 0.9
BeatDivisor: 2
GridSize: 4
TimelineZoom: 3.100002

[Metadata]
Title:Shir Mekory Lo Shelaanoo
TitleUnicode:שיר מקורי לא שלנו
Artist:Haapijaamot
ArtistUnicode:הפיג'מות
Creator:OmriZK
Version:Hard
Source:Haapijamot
Tags:Hebrew
BeatmapID:1790964
BeatmapSetID:855040

[Difficulty]
HPDrainRate:6.5
CircleSize:4.7
OverallDifficulty:6.7
ApproachRate:8
SliderMultiplier:1.4
SliderTickRate:1

[Events]
//Background and Video events
0,0,"418761292_i.jpg",0,0
//Break Periods
//Storyboard Layer 0 (Background)
//Storyboard Layer 1 (Fail)
//Storyboard Layer 2 (Pass)
//Storyboard Layer 3 (Foreground)
//Storyboard Sound Samples

[TimingPoints]
-92,461.538461538462,4,1,1,85,1,0
831,-100,4,1,1,60,0,0
37754,-100,4,1,1,63,0,0
67984,-80,4,1,1,65,0,0
87600,-71.4285714285714,4,1,1,70,0,1
102369,-100,4,1,1,63,0,0
109754,-83.3333333333333,4,1,1,65,0,0
117138,-71.4285714285714,4,1,1,70,0,1
131908,-83.3333333333333,4,1,1,65,0,0
139292,-71.4285714285714,4,1,1,70,0,1
154061,-71.4285714285714,4,1,1,75,0,1
168831,-100,4,1,1,85,0,0

[Colours]
Combo1 : 255,0,0
Combo2 : 4,156,200
Combo3 : 6,208,199
Combo4 : 255,128,0

[HitObjects]
212,51,831,6,2,P|259:55|279:66,1,70
347,143,1292,1,10,0:0:0:0:
296,229,1523,2,2,P|269:257|242:252,1,70
178,176,1984,2,2,P|143:160|104:180,1,70,2|10,0:0|0:0,0:0:0:0:
56,246,2446,1,4,0:0:0:0:
161,316,2677,1,6,0:0:0:0:
300,219,3138,6,0,P|348:242|372:233,1,70,2|4,0:0|0:0,0:0:0:0:
455,180,3600,2,0,P|434:138|414:115,1,70,4|8,0:0|0:0,0:0:0:0:
339,50,4061,1,8,0:0:0:0:
268,150,4292,1,8,0:0:0:0:
180,62,4523,1,6,0:0:0:0:
92,114,4754,6,2,P|67:143|67:191,1,70,2|10,0:0|0:0,0:0:0:0:
114,267,5215,2,2,P|147:284|191:280,1,70
246,198,5677,2,2,P|286:186|325:162,1,70,2|10,0:0|0:0,0:0:0:0:
413,190,6138,2,2,P|431:223|426:258,1,70
336,312,6600,2,2,P|298:315|266:330,1,70,2|10,0:0|0:0,0:0:0:0:
166,290,7061,1,2,0:0:0:0:
111,192,7292,1,2,0:0:0:0:
217,155,7523,1,2,0:0:0:0:
138,79,7754,1,10,0:0:0:0:
241,37,7984,5,2,0:0:0:0:
352,38,8215,1,2,0:0:0:0:
422,117,8446,2,2,P|449:144|457:174,1,70,2|10,0:0|0:0,0:0:0:0:
403,253,8908,2,2,B|381:284|326:253|268:290,1,140
174,340,9600,1,10,0:0:0:0:
102,256,9831,2,2,B|69:234|33:226|88:178|97:102|117:88|99:64,1,210,2|10,0:0|0:0,0:0:0:0:
222,149,10984,5,2,0:0:0:0:
323,72,11215,1,2,0:0:0:0:
358,190,11446,2,6,P|429:221|393:267,1,140,14|6,0:0|0:0,0:0:0:0:
267,282,12369,6,2,P|211:280|197:269,1,70
132,185,12831,2,2,P|158:161|143:129,1,70
209,55,13292,2,2,P|249:53|275:72,1,70,10|2,0:0|0:0,0:0:0:0:
280,175,13754,2,2,P|251:197|217:198,1,70
123,147,14215,1,10,0:0:0:0:
171,52,14446,1,2,0:0:0:0:
228,149,14677,1,2,0:0:0:0:
294,61,14908,1,2,0:0:0:0:
185,52,15138,1,10,0:0:0:0:
90,101,15369,5,0,0:0:0:0:
85,201,15600,2,2,P|124:211|158:215,1,70
218,140,16061,2,2,P|261:141|290:153,1,70,10|2,0:0|0:0,0:0:0:0:
371,216,16523,2,2,P|408:208|430:183,1,70
398,77,16984,1,10,0:0:0:0:
287,66,17215,2,2,B|227:79|220:95|221:139|180:167|140:177|131:206|137:236,1,210,2|10,0:0|0:0,0:0:0:0:
177,299,18138,2,4,P|226:312|254:309,1,70
395,227,18831,1,12,0:0:0:0:
271,59,19292,5,6,0:0:0:0:
123,127,19754,2,2,P|81:145|81:168,1,70
134,248,20215,2,2,P|155:280|200:292,1,70
294,273,20677,1,10,0:0:0:0:
351,178,20908,2,2,P|340:139|315:123,1,70
231,52,21369,2,2,P|193:59|167:84,1,70,2|10,0:0|0:0,0:0:0:0:
105,167,21831,2,2,P|133:202|159:215,1,70
239,287,22292,2,2,P|211:319|174:309,1,70,2|10,0:0|0:0,0:0:0:0:
140,220,22754,6,2,B|147:176|176:155|176:120|232:108|248:172|309:157,1,210,2|10,0:0|0:0,0:0:0:0:
400,118,23677,2,2,P|440:170|440:177,1,70
362,249,24138,2,2,P|333:279|288:263,1,70,2|10,0:0|0:0,0:0:0:0:
222,209,24600,2,2,P|196:179|162:164,1,70
75,214,25061,2,2,P|69:254|80:285,1,70,2|10,0:0|0:0,0:0:0:0:
181,317,25523,2,2,P|228:292|250:292,1,70,2|4,0:0|0:0,0:0:0:0:
364,339,25984,5,10,0:0:0:0:
441,248,26215,1,10,0:0:0:0:
337,182,26446,1,10,0:0:0:0:
430,106,26677,1,10,0:0:0:0:
164,47,27138,5,12,0:0:0:0:
386,95,27600,2,2,P|367:131|322:146,1,70
282,227,28061,1,10,0:0:0:0:
177,262,28292,2,2,P|148:297|183:320,1,70
263,344,28754,2,2,P|298:332|339:326,1,70,2|10,0:0|0:0,0:0:0:0:
417,260,29215,2,2,P|441:234|441:187,1,70
344,156,29677,2,2,P|340:194|327:228,1,70,2|10,0:0|0:0,0:0:0:0:
231,304,30138,1,2,0:0:0:0:
137,241,30369,2,2,B|153:180|42:185|39:152|65:122|89:136,1,140,2|10,0:0|0:0,0:0:0:0:
162,65,31061,6,2,P|199:79|212:108,1,70
303,168,31523,2,2,P|346:174|371:151,1,70,2|10,0:0|0:0,0:0:0:0:
469,204,31984,2,2,P|473:243|450:266,1,70
346,235,32446,1,2,0:0:0:0:
259,300,32677,1,10,0:0:0:0:
161,254,32908,2,0,L|135:189,1,70,2|4,0:0|0:0,0:0:0:0:
161,78,33369,5,10,0:0:0:0:
229,177,33600,1,10,0:0:0:0:
310,81,33831,1,10,0:0:0:0:
348,196,34061,1,12,0:0:0:0:
77,260,35215,5,0,0:0:0:0:
150,161,35446,1,0,0:0:0:0:
215,265,35677,1,0,0:0:0:0:
77,260,35908,1,12,0:0:0:0:
83,96,36369,6,0,P|115:63|160:49,1,70
251,95,36831,2,0,B|216:140|276:149|242:188,1,70,0|4,0:0|0:0,0:0:0:0:
317,263,37523,5,4,0:0:0:0:
419,170,37754,1,6,0:0:0:0:
91,299,38215,5,10,0:0:0:0:
147,212,38446,2,2,P|123:177|143:149,1,70
230,108,38908,2,2,L|274:169,1,70,2|10,0:0|0:0,0:0:0:0:
372,206,39369,2,2,P|387:242|370:272,1,70
276,318,39831,2,2,L|199:300,1,70,2|10,0:0|0:0,0:0:0:0:
129,224,40292,2,2,P|102:193|117:174,2,70
236,181,40984,5,10,0:0:0:0:
315,96,41215,1,2,0:0:0:0:
384,191,41446,1,2,0:0:0:0:
465,111,41677,2,2,L|403:66,1,70,2|10,0:0|0:0,0:0:0:0:
302,45,42138,2,2,P|255:71|255:97,2,70
361,140,42831,1,10,0:0:0:0:
354,251,43061,2,2,B|316:286|330:208|137:196|185:129,1,210,2|10,0:0|0:0,0:0:0:0:
65,233,44215,5,2,0:0:0:0:
152,312,44446,1,2,0:0:0:0:
260,254,44677,2,2,B|302:217|297:174|266:148|210:144,1,140,10|4,0:0|0:0,0:0:0:0:
348,59,45600,5,14,0:0:0:0:
420,209,46061,2,2,P|461:246|445:271,2,70,2|2|10,0:0|0:0|0:0,0:0:0:0:
330,152,46754,1,2,0:0:0:0:
291,254,46984,2,2,P|296:301|283:328,2,70,2|2|10,0:0|0:0|0:0,0:0:0:0:
227,171,47677,2,2,P|183:152|171:126,1,70
102,54,48138,2,2,P|65:60|61:95,1,70,2|10,0:0|0:0,0:0:0:0:
108,180,48600,1,2,0:0:0:0:
62,281,48831,1,2,0:0:0:0:
151,336,49061,2,2,L|198:281,1,70,2|10,0:0|0:0,0:0:0:0:
303,245,49523,5,2,0:0:0:0:
400,300,49754,2,2,P|434:290|439:253,2,70,2|2|10,0:0|0:0|0:0,0:0:0:0:
292,316,50446,2,2,B|241:305|233:263|284:247|269:186|195:185|234:135,1,210,2|10,0:0|0:0,0:0:0:0:
315,67,51369,2,0,L|363:125,1,70,2|4,0:0|0:0,0:0:0:0:
286,316,52061,1,12,0:0:0:0:
41,141,52523,5,14,0:0:0:0:
126,54,52754,1,2,0:0:0:0:
209,144,52984,1,10,0:0:0:0:
120,220,53215,2,2,P|81:235|83:260,1,70
182,303,53677,2,2,P|220:309|268:284,1,70,2|10,0:0|0:0,0:0:0:0:
324,221,54138,2,2,P|285:195|283:162,2,70
432,244,54831,1,10,0:0:0:0:
337,299,55061,2,2,P|378:333|410:325,2,70
260,218,55754,1,10,0:0:0:0:
287,109,55984,6,2,P|262:81|284:60,1,70
388,41,56446,2,2,L|386:116,1,70,2|10,0:0|0:0,0:0:0:0:
447,202,56908,2,2,P|450:241|424:255,1,70
316,249,57369,2,2,P|300:289|257:288,1,70,2|10,0:0|0:0,0:0:0:0:
144,253,57831,2,2,P|92:228|103:206,1,70
139,131,58292,1,2,0:0:0:0:
227,61,58523,1,10,0:0:0:0:
336,81,58754,2,2,L|288:140,1,70,2|10,0:0|0:0,0:0:0:0:
216,230,59215,5,6,0:0:0:0:
291,335,59446,1,6,0:0:0:0:
406,272,59677,1,6,0:0:0:0:
446,150,59908,1,14,0:0:0:0:
196,55,60369,1,14,0:0:0:0:
313,99,60600,2,2,P|336:131|335:160,2,70
194,56,61292,1,10,0:0:0:0:
89,107,61523,6,2,P|70:145|79:173,1,70
160,243,61984,2,2,L|235:265,1,70,2|10,0:0|0:0,0:0:0:0:
309,197,62446,1,2,0:0:0:0:
341,302,62677,1,2,0:0:0:0:
431,255,62908,2,2,P|460:225|458:195,1,70,2|10,0:0|0:0,0:0:0:0:
418,100,63369,2,2,P|393:71|353:64,1,70
297,145,63831,2,2,L|334:211,1,70,2|10,0:0|0:0,0:0:0:0:
259,287,64292,5,2,0:0:0:0:
212,188,64523,2,2,P|188:141|172:128,2,70,2|2|10,0:0|0:0|0:0,0:0:0:0:
127,255,65215,1,2,0:0:0:0:
64,166,65446,2,2,P|40:107|46:92,2,70,2|2|10,0:0|0:0|0:0,0:0:0:0:
69,272,66138,2,2,L|134:302,1,70,2|4,0:0|0:0,0:0:0:0:
249,332,66600,1,0,0:0:0:0:
327,224,66831,1,0,0:0:0:0:
360,100,67061,1,0,0:0:0:0:
467,182,67292,1,6,0:0:0:0:
55,295,67984,5,0,0:0:0:0:
209,177,68446,2,0,P|247:202|264:243,1,87.5,0|8,0:0|0:0,0:0:0:0:
441,327,69138,1,4,0:0:0:0:
77,52,70061,1,8,0:0:0:0:
424,82,70754,1,0,0:0:0:0:
241,58,71215,6,0,P|199:79|190:118,1,87.5
72,176,71908,1,0,0:0:0:0:
138,282,72138,1,0,0:0:0:0:
244,215,72369,1,0,0:0:0:0:
372,212,72600,1,4,0:0:0:0:
402,83,72831,1,6,0:0:0:0:
425,316,73523,6,4,P|403:255|381:229,1,87.5,4|12,0:0|0:0,0:0:0:0:
113,61,74446,1,0,0:0:0:0:
56,190,74908,2,0,P|53:238|79:272,1,87.5,0|4,0:0|0:0,0:0:0:0:
159,291,75600,5,0,0:0:0:0:
199,273,75754,1,0,0:0:0:0:
237,252,75908,1,0,0:0:0:0:
284,229,76061,1,0,0:0:0:0:
376,139,76292,2,0,P|425:89|438:34,1,87.5,0|4,0:0|0:0,0:0:0:0:
257,337,77446,5,8,0:0:0:0:
68,73,78138,1,0,0:0:0:0:
221,116,78600,1,0,0:0:0:0:
263,223,78831,1,0,0:0:0:0:
438,164,79292,1,0,0:0:0:0:
354,273,79523,1,0,0:0:0:0:
238,213,79754,1,0,0:0:0:0:
191,80,80215,5,0,0:0:0:0:
264,125,80446,1,0,0:0:0:0:
183,177,80677,1,0,0:0:0:0:
246,251,80908,1,0,0:0:0:0:
324,178,81138,5,0,0:0:0:0:
430,220,81369,1,0,0:0:0:0:
390,102,81600,1,0,0:0:0:0:
269,142,81831,1,0,0:0:0:0:
178,42,82061,1,0,0:0:0:0:
79,148,82292,1,0,0:0:0:0:
208,215,82523,1,0,0:0:0:0:
292,315,82754,5,12,0:0:0:0:
362,162,83215,1,4,0:0:0:0:
424,271,83446,1,0,0:0:0:0:
424,271,83677,1,4,0:0:0:0:
279,165,84138,5,0,0:0:0:0:
211,237,84369,1,0,0:0:0:0:
143,313,84600,1,4,0:0:0:0:
82,156,85061,5,0,0:0:0:0:
179,102,85292,2,0,L|267:130,1,87.5,0|12,0:0|0:0,0:0:0:0:
411,98,85984,1,0,0:0:0:0:
469,195,86215,1,0,0:0:0:0:
424,314,86446,1,0,0:0:0:0:
346,225,86677,2,4,B|350:138|262:89|218:159,1,175,4|12,0:0|0:0,0:0:0:0:
106,74,87600,6,2,B|68:131|76:176|109:217|138:250,1,195.999994018555,2|10,0:0|0:0,0:0:0:0:
256,292,88292,2,2,P|252:230|221:203,1,97.9999970092774
173,51,88984,1,10,0:0:0:0:
319,95,89446,2,2,L|399:154,1,97.9999970092774
400,269,89908,2,2,L|288:216,1,97.9999970092774
207,181,90369,2,2,L|185:200|103:263,1,97.9999970092774
207,181,90831,2,2,L|270:258,1,97.9999970092774
372,289,91292,6,2,B|414:248|344:251|316:184|397:172|345:109,1,195.999994018555,2|10,0:0|0:0,0:0:0:0:
252,41,91984,2,2,P|197:54|170:94,1,97.9999970092774
115,200,92677,1,10,0:0:0:0:
212,293,93138,6,0,L|321:256,1,97.9999970092774
413,176,93600,2,0,L|318:119,1,97.9999970092774
198,78,94061,2,0,L|152:175,1,97.9999970092774
91,287,94523,2,0,L|195:319,1,97.9999970092774
326,306,94984,6,4,B|379:262|396:218|394:164|380:126,1,195.999994018555,4|12,0:0|0:0,0:0:0:0:
282,62,95908,2,4,P|196:50|224:157,1,195.999994018555,4|12,0:0|0:0,0:0:0:0:
271,254,96831,2,4,B|212:276|200:234|155:286|219:224|97:246|119:166|111:159,1,195.999994018555,4|12,0:0|0:0,0:0:0:0:
123,39,97754,1,4,0:0:0:0:
271,127,98215,1,4,0:0:0:0:
206,258,98677,2,2,P|167:214|131:189,2,97.9999970092774
341,157,99600,2,2,P|392:149|440:105,2,97.9999970092774
219,45,100523,6,0,B|154:51|132:98|170:160|247:131|127:199,1,195.999994018555,0|8,0:0|0:0,0:0:0:0:
63,246,101215,1,0,0:0:0:0:
218,176,101677,1,0,0:0:0:0:
136,62,101908,1,0,0:0:0:0:
67,142,102369,6,2,B|87:220|170:273|275:232|297:205,1,280,4|10,0:0|0:0,0:0:0:0:
398,125,103523,2,2,P|437:127|467:146,2,70
320,239,104215,2,2,B|243:269|166:259|201:188|181:133|123:133|88:181,1,280,2|10,0:0|0:0,0:0:0:0:
110,290,105369,2,2,P|70:308|55:334,2,70
226,315,106061,2,2,B|275:303|310:277|332:246|338:210|152:215|158:143,1,280,2|10,0:0|0:0,0:0:0:0:
250,54,107215,2,2,P|286:42|325:46,2,70
185,148,107908,2,2,B|147:169|122:218|227:248|139:302|279:324|293:213,1,280,2|10,0:0|0:0,0:0:0:0:
238,58,109292,2,4,B|181:54|128:83|134:131,1,140,4|12,0:0|0:0,0:0:0:0:
238,309,110215,5,8,0:0:0:0:
339,258,110446,1,2,0:0:0:0:
339,258,110561,1,2,0:0:0:0:
339,258,110677,1,2,0:0:0:0:
396,167,110908,2,0,P|370:128|332:115,2,83.9999974365235,8|2|2,0:0|0:0|0:0,0:0:0:0:
314,231,111600,2,0,L|271:213,1,41.9999987182618
240,144,111831,2,0,L|201:170,1,41.9999987182618
166,242,112061,1,10,0:0:0:0:
94,167,112292,6,0,L|109:120,1,41.9999987182618
163,72,112523,2,0,L|235:53,1,41.9999987182618
284,97,112754,1,2,0:0:0:0:
284,97,112869,1,10,0:0:0:0:
284,97,112984,2,0,P|275:143|299:172,1,83.9999974365235,0|8,0:0|0:0,0:0:0:0:
395,164,113446,5,2,0:0:0:0:
395,164,113561,1,2,0:0:0:0:
395,164,113677,2,2,L|368:102,2,41.9999987182618,2|2|10,0:0|0:0|0:0,0:0:0:0:
409,257,114138,6,0,L|365:275,1,41.9999987182618
291,245,114369,2,0,L|269:205,1,41.9999987182618
196,179,114600,2,0,L|155:200,1,41.9999987182618
83,160,114831,2,0,P|69:117|95:93,1,83.9999974365235,4|0,0:0|0:0,0:0:0:0:
203,43,115292,1,8,0:0:0:0:
445,266,116446,6,0,P|422:222|390:180,1,83.9999974365235,0|4,0:0|0:0,0:0:0:0:
222,63,117138,6,2,B|159:86|265:149|113:178|260:231,1,195.999994018555,2|10,0:0|0:0,0:0:0:0:
332,138,117831,2,2,P|384:150|401:197,1,97.9999970092774
352,321,118523,1,10,0:0:0:0:
222,253,118984,2,2,L|160:174,1,97.9999970092774
207,76,119445,2,2,L|310:38,1,97.9999970092774
386,111,119907,2,2,L|347:201,1,97.9999970092774
386,111,120368,2,2,L|291:73,1,97.9999970092774
170,108,120831,6,2,B|108:145|240:194|289:278|210:290,1,195.999994018555,2|10,0:0|0:0,0:0:0:0:
347,333,121523,2,2,P|399:317|431:275,1,97.9999970092774
361,141,122215,1,10,0:0:0:0:
189,137,122677,5,2,0:0:0:0:
253,236,122908,1,2,0:0:0:0:
159,324,123139,1,2,0:0:0:0:
139,207,123369,1,2,0:0:0:0:
253,236,123600,1,2,0:0:0:0:
159,324,123831,1,2,0:0:0:0:
139,206,124062,1,2,0:0:0:0:
253,236,124293,1,2,0:0:0:0:
357,275,124523,6,4,B|427:220|398:181|400:136|319:118,1,195.999994018555,4|12,0:0|0:0,0:0:0:0:
227,47,125446,2,4,B|315:81|243:144|141:160|307:192,1,195.999994018555,4|12,0:0|0:0,0:0:0:0:
393,242,126369,2,4,B|376:300|287:236|236:280|221:334|200:300,1,195.999994018555,4|12,0:0|0:0,0:0:0:0:
105,179,127292,1,4,0:0:0:0:
236,77,127754,1,4,0:0:0:0:
376,181,128215,2,2,P|423:214|465:186,2,97.9999970092774,2|2|10,0:0|0:0|0:0,0:0:0:0:
219,109,129138,2,2,P|153:105|141:133,2,97.9999970092774,2|2|10,0:0|0:0|0:0,0:0:0:0:
336,50,130061,5,4,0:0:0:0:
430,196,130523,1,8,0:0:0:0:
329,283,130754,1,0,0:0:0:0:
236,157,131215,5,0,0:0:0:0:
95,164,131446,1,0,0:0:0:0:
135,286,131677,1,0,0:0:0:0:
259,294,131908,6,0,L|328:243,1,83.9999974365235,4|10,0:0|0:0,0:0:0:0:
392,157,132369,2,2,L|306:96,1,83.9999974365235,2|10,0:0|0:0,0:0:0:0:
230,64,132831,2,2,L|145:94,1,83.9999974365235,2|10,0:0|0:0,0:0:0:0:
86,180,133292,2,2,L|148:246,1,83.9999974365235,2|10,0:0|0:0,0:0:0:0:
247,283,133754,2,2,L|284:195,1,83.9999974365235,2|10,0:0|0:0,0:0:0:0:
279,99,134215,2,2,L|368:127,1,83.9999974365235,2|10,0:0|0:0,0:0:0:0:
430,208,134677,1,0,0:0:0:0:
273,330,135138,1,2,0:0:0:0:
115,239,135600,6,2,L|154:155,1,83.9999974365235,2|10,0:0|0:0,0:0:0:0:
209,69,136061,2,2,L|304:89,1,83.9999974365235,2|10,0:0|0:0,0:0:0:0:
374,157,136523,2,2,P|345:191|290:186,1,83.9999974365235,2|10,0:0|0:0,0:0:0:0:
207,136,136984,2,2,L|149:68,2,83.9999974365235,2|6|2,0:0|0:0|0:0,0:0:0:0:
300,230,137677,1,0,0:0:0:0:
376,117,137908,1,0,0:0:0:0:
261,39,138138,1,0,0:0:0:0:
169,140,138369,1,8,0:0:0:0:
92,278,138831,6,4,L|104:282,1,10.4999996795654
307,44,139292,6,2,B|350:86|260:133|354:179|403:191,1,195.999994018555,4|10,0:0|0:0,0:0:0:0:
474,289,139984,2,2,P|454:341|416:355,1,97.9999970092774
307,229,140677,1,10,0:0:0:0:
212,109,141138,2,2,P|165:86|137:119,1,97.9999970092774
154,239,141600,2,2,P|153:309|186:294,1,97.9999970092774
286,278,142061,2,2,L|323:184,1,97.9999970092774
272,75,142523,2,2,L|160:55,1,97.9999970092774
76,121,142984,6,2,B|50:180|48:232|70:275|106:303,1,195.999994018555,2|10,0:0|0:0,0:0:0:0:
241,257,143677,2,2,P|295:233|253:200,1,97.9999970092774
119,156,144369,1,10,0:0:0:0:
216,56,144831,5,2,0:0:0:0:
334,52,145061,1,2,0:0:0:0:
221,140,145292,1,2,0:0:0:0:
285,252,145523,1,2,0:0:0:0:
341,141,145754,1,10,0:0:0:0:
241,53,145984,1,2,0:0:0:0:
143,142,146215,1,2,0:0:0:0:
207,251,146446,1,10,0:0:0:0:
83,206,146677,6,4,B|45:161|38:100|76:60|74:43|113:44,1,195.999994018555,4|12,0:0|0:0,0:0:0:0:
272,31,147600,2,4,B|387:52|358:126|271:141,1,195.999994018555,4|12,0:0|0:0,0:0:0:0:
130,228,148523,2,4,B|76:154|225:132|225:118|161:85,1,195.999994018555,4|12,0:0|0:0,0:0:0:0:
292,61,149446,1,4,0:0:0:0:
376,204,149908,1,12,0:0:0:0:
224,269,150369,2,2,P|167:279|160:315,2,97.9999970092774,2|2|10,0:0|0:0|0:0,0:0:0:0:
363,171,151292,2,2,P|417:191|412:240,2,97.9999970092774,2|2|10,0:0|0:0|0:0,0:0:0:0:
223,112,152215,5,0,0:0:0:0:
96,163,152446,1,0,0:0:0:0:
164,278,152677,1,10,0:0:0:0:
250,154,152908,1,0,0:0:0:0:
402,117,153138,1,0,0:0:0:0:
455,259,153369,1,0,0:0:0:0:
332,353,153600,1,10,0:0:0:0:
225,250,153831,1,4,0:0:0:0:
352,153,154061,2,4,B|326:92|265:65|197:68|153:116,1,195.999994018555,4|12,0:0|0:0,0:0:0:0:
233,262,154984,6,2,P|292:262|337:245,2,97.9999970092774,2|2|10,0:0|0:0|0:0,0:0:0:0:
92,250,155677,1,0,0:0:0:0:
95,116,155908,1,0,0:0:0:0:
221,39,156138,1,0,0:0:0:0:
270,162,156369,5,10,0:0:0:0:
349,54,156600,1,0,0:0:0:0:
454,137,156831,1,0,0:0:0:0:
333,212,157061,1,0,0:0:0:0:
475,242,157292,1,10,0:0:0:0:
371,340,157523,1,4,0:0:0:0:
286,233,157754,2,0,B|230:227|200:177|290:138|180:90,1,195.999994018555,4|10,0:0|0:0,0:0:0:0:
336,76,158677,6,2,P|410:112|394:144,2,97.9999970092774,2|2|10,0:0|0:0|0:0,0:0:0:0:
196,27,159369,1,0,0:0:0:0:
49,65,159600,1,0,0:0:0:0:
154,171,159831,1,0,0:0:0:0:
19,239,160061,1,12,0:0:0:0:
122,350,160292,1,0,0:0:0:0:
160,207,160523,5,0,0:0:0:0:
255,321,160754,1,0,0:0:0:0:
336,199,160984,1,12,0:0:0:0:
469,284,161215,1,0,0:0:0:0:
328,329,161446,2,4,B|263:331|228:299|232:237|168:211,1,195.999994018555,4|12,0:0|0:0,0:0:0:0:
131,52,162369,6,4,B|208:88|191:141|286:132|282:184,1,195.999994018555,4|12,0:0|0:0,0:0:0:0:
424,328,163292,2,4,B|372:270|442:244|388:170|432:129,1,195.999994018555,4|12,0:0|0:0,0:0:0:0:
243,70,164215,1,4,0:0:0:0:
123,211,164677,1,12,0:0:0:0:
244,67,165138,2,2,P|298:58|335:83,2,97.9999970092774,2|2|10,0:0|0:0|0:0,0:0:0:0:
113,175,166061,2,2,P|59:207|70:237,2,97.9999970092774,2|2|10,0:0|0:0|0:0,0:0:0:0:
309,104,166984,6,2,B|196:125|362:233|301:269,1,195.999994018555,2|10,0:0|0:0,0:0:0:0:
225,346,167677,1,2,0:0:0:0:
225,346,167792,1,2,0:0:0:0:
225,346,167908,1,2,0:0:0:0:
152,212,168138,2,10,P|84:193|52:157,1,97.9999970092774
127,42,168831,5,6,0:0:0:0:
