osu file format v14

[General]
AudioFilename: audio.mp3
AudioLeadIn: 0
PreviewTime: 61948
Countdown: 0
SampleSet: Normal
StackLeniency: 0.7
Mode: 1
LetterboxInBreaks: 0
WidescreenStoryboard: 0

[Editor]
DistanceSpacing: 0.3
BeatDivisor: 6
GridSize: 16
TimelineZoom: 1.8

[Metadata]
Title:Kyorikan (TV Size)
TitleUnicode:キョリ感 (TV Size)
Artist:HaKoniwalily
ArtistUnicode:ハコニワリリィ
Creator:miyagishima
Version:Oni
Source:阿波連さんははかれない
Tags:hanon kotoha honeyworks ハニーワークス ハニワ japanese pop jpop j-pop anime ed ending lolis aharen-san aharen san wa hakarenai Aharen Is Indecipherable
BeatmapID:3617760
BeatmapSetID:1767405

[Difficulty]
HPDrainRate:5
CircleSize:5
OverallDifficulty:5.5
ApproachRate:5
SliderMultiplier:1.4
SliderTickRate:1

[Events]
//Background and Video events
0,0,"image.jpg",0,30
//Break Periods
//Storyboard Layer 0 (Background)
//Storyboard Layer 1 (Fail)
//Storyboard Layer 2 (Pass)
//Storyboard Layer 3 (Foreground)
//Storyboard Layer 4 (Overlay)
//Storyboard Sound Samples

[TimingPoints]
1164,545.454545454546,4,1,0,50,1,0
1164,-133.333333333333,4,1,0,50,0,0
7709,-133.3333333,4,1,0,50,0,0
8795,-114.2857143,4,1,0,50,0,0
9340,-106.673185,4,1,0,50,0,0
9613,-103.2288587,4,1,0,50,0,0
9857,-100,4,1,0,60,0,0
19164,-100,4,1,0,70,0,0
19709,-100,4,1,0,70,0,0
19977,-97.5587946,4,1,0,70,0,0
20159,-95.9964804,4,1,0,70,0,0
20249,-95.2422523,4,1,0,70,0,0
20431,-93.7526854,4,1,0,70,0,0
20522,-93.0252387,4,1,0,70,0,0
20704,-91.6036944,4,1,0,70,0,0
20795,-90.9090909,4,1,0,70,0,0
28402,-90.9090909,4,1,0,70,0,0
28704,-93.0252387,4,1,0,70,0,0
28976,-95.2339385,4,1,0,70,0,0
29158,-96.7713323,4,1,0,70,0,0
29249,-97.5587946,4,1,0,70,0,0
29493,-100,4,1,0,70,0,0
47073,-111.111111111111,4,1,0,60,0,0
53220,-100.639293,4,1,0,60,0,0
53493,-100,4,1,0,70,0,0
53794,-99.360707,4,1,0,70,0,0
54067,-98.7272303,4,1,0,70,0,0
54340,-98.1017799,4,1,0,70,0,0
54522,-97.689197,4,1,0,70,0,0
54612,-97.4864522,4,1,0,70,0,0
54885,-96.8765755,4,1,0,70,0,0
55158,-96.2742821,4,1,0,70,0,0
55340,-95.8768966,4,1,0,70,0,0
55431,-95.6794315,4,1,0,70,0,0
55612,-95.2890792,4,1,0,70,0,0
55703,-95.0940256,4,1,0,70,0,0
55976,-94.5136265,4,1,0,70,0,0
56249,-93.9402693,4,1,0,70,0,0
56522,-93.3738266,4,1,0,70,0,0
56703,-93.0020239,4,1,0,70,0,0
56794,-92.8162118,4,1,0,70,0,0
57067,-92.2632038,4,1,0,70,0,0
57249,-91.8981783,4,1,0,70,0,0
57340,-91.7167466,4,1,0,70,0,0
57522,-91.3560238,4,1,0,70,0,0
57612,-91.1786908,4,1,0,70,0,0
57794,-90.8221797,4,1,0,70,0,0
57885,-90.6449676,4,1,0,70,0,0
58158,-90.1174565,4,1,0,70,0,0
58340,-89.7691801,4,1,0,70,0,0
58431,-89.5960495,4,1,0,70,0,0
58703,-89.0825185,4,1,0,70,0,0
58976,-88.572985,4,1,0,70,0,0
59249,-88.0692471,4,1,0,70,0,0
59431,-87.7365931,4,1,0,70,0,0
59522,-87.5712066,4,1,0,70,0,0
59794,-87.0805611,4,1,0,70,0,0
60067,-86.5936092,4,1,0,70,0,0
60249,-86.2719889,4,1,0,70,0,0
60340,-86.112073,4,1,0,70,0,0
60522,-85.7940132,4,1,0,70,0,0
60612,-85.6375975,4,1,0,70,0,0
60794,-85.3230266,4,1,0,70,0,0
60885,-85.1666062,4,1,0,70,0,0
60976,-85.0107583,4,1,0,70,0,0
61067,-84.8554797,4,1,0,70,0,0
61158,-84.7007674,4,1,0,70,0,0
61340,-84.393029,4,1,0,70,0,0
61431,-84.2399968,4,1,0,70,0,0
61612,-83.937258,4,1,0,70,0,0
61703,-83.7858728,4,1,0,70,0,0
61982,-83.3333333333333,4,1,0,80,0,0
62254,-83.3333333333333,4,1,0,80,0,1
79164,-83.3333333333333,4,1,0,80,0,1
79436,-90.9090909090909,4,1,0,80,0,1
79709,-100,4,1,0,70,0,0
86220,-100,4,1,0,60,0,0
87311,-100,4,1,0,50,0,0

[HitObjects]
256,192,1164,5,2,0:0:0:0:
256,192,2254,1,2,0:0:0:0:
256,192,3345,1,2,0:0:0:0:
256,192,3891,1,2,0:0:0:0:
256,192,4436,1,2,0:0:0:0:
256,192,5527,1,2,0:0:0:0:
256,192,6618,1,2,0:0:0:0:
256,192,7709,1,2,0:0:0:0:
256,192,8800,1,2,0:0:0:0:
256,192,9345,1,2,0:0:0:0:
256,192,9618,1,2,0:0:0:0:
256,192,9891,1,4,0:0:0:0:
256,192,10164,1,2,0:0:0:0:
256,192,10709,1,0,0:0:0:0:
256,192,10981,1,0,0:0:0:0:
256,192,11254,1,2,0:0:0:0:
256,192,11800,1,0,0:0:0:0:
256,192,12073,1,0,0:0:0:0:
256,192,12345,1,0,0:0:0:0:
256,192,12618,1,0,0:0:0:0:
256,192,12891,1,2,0:0:0:0:
256,192,13164,1,0,0:0:0:0:
256,192,13436,1,2,0:0:0:0:
256,192,13709,1,2,0:0:0:0:
256,192,14254,1,0,0:0:0:0:
256,192,14527,1,2,0:0:0:0:
256,192,14664,1,0,0:0:0:0:
256,192,15073,1,2,0:0:0:0:
256,192,15345,1,0,0:0:0:0:
256,192,15482,1,2,0:0:0:0:
256,192,15618,1,2,0:0:0:0:
256,192,15754,1,0,0:0:0:0:
256,192,16164,1,2,0:0:0:0:
256,192,16436,1,0,0:0:0:0:
256,192,16709,1,0,0:0:0:0:
256,192,16982,1,2,0:0:0:0:
256,192,17254,1,2,0:0:0:0:
256,192,17527,1,0,0:0:0:0:
256,192,18073,1,0,0:0:0:0:
256,192,18618,1,6,0:0:0:0:
256,192,19618,1,2,0:0:0:0:
256,192,19709,1,0,0:0:0:0:
256,192,19982,1,2,0:0:0:0:
256,192,20164,1,0,0:0:0:0:
256,192,20254,1,2,0:0:0:0:
256,192,20436,1,2,0:0:0:0:
256,192,20527,1,0,0:0:0:0:
256,192,20709,1,2,0:0:0:0:
256,192,20800,1,0,0:0:0:0:
256,192,21072,1,0,0:0:0:0:
256,192,21345,1,2,0:0:0:0:
256,192,21618,1,0,0:0:0:0:
256,192,21800,1,2,0:0:0:0:
256,192,21890,1,0,0:0:0:0:
256,192,22163,1,0,0:0:0:0:
256,192,22436,1,2,0:0:0:0:
256,192,22709,1,0,0:0:0:0:
256,192,22890,1,0,0:0:0:0:
256,192,22981,1,2,0:0:0:0:
256,192,23254,1,2,0:0:0:0:
256,192,23527,1,0,0:0:0:0:
256,192,23709,1,2,0:0:0:0:
256,192,23800,1,2,0:0:0:0:
256,192,23981,1,2,0:0:0:0:
256,192,24072,1,0,0:0:0:0:
256,192,24345,1,2,0:0:0:0:
256,192,24618,1,0,0:0:0:0:
256,192,24709,1,2,0:0:0:0:
256,192,24800,1,2,0:0:0:0:
256,192,24890,1,0,0:0:0:0:
256,192,25072,1,0,0:0:0:0:
256,192,25163,1,2,0:0:0:0:
256,192,25436,1,2,0:0:0:0:
256,192,25618,1,0,0:0:0:0:
256,192,25890,1,0,0:0:0:0:
256,192,25981,1,2,0:0:0:0:
256,192,26163,1,2,0:0:0:0:
256,192,26254,1,0,0:0:0:0:
256,192,26527,1,2,0:0:0:0:
256,192,26709,1,0,0:0:0:0:
256,192,26981,1,0,0:0:0:0:
256,192,27072,1,2,0:0:0:0:
256,192,27345,1,0,0:0:0:0:
256,192,27618,1,2,0:0:0:0:
256,192,27890,1,2,0:0:0:0:
256,192,28073,1,0,0:0:0:0:
256,192,28163,1,2,0:0:0:0:
256,192,28345,1,0,0:0:0:0:
256,192,28436,1,0,0:0:0:0:
256,192,28709,1,0,0:0:0:0:
256,192,28981,1,2,0:0:0:0:
256,192,29163,1,2,0:0:0:0:
256,192,29254,1,0,0:0:0:0:
256,192,29527,1,0,0:0:0:0:
256,192,29800,1,2,0:0:0:0:
256,192,29981,1,0,0:0:0:0:
256,192,30072,1,2,0:0:0:0:
256,192,30345,1,0,0:0:0:0:
256,192,30527,1,2,0:0:0:0:
256,192,30618,1,0,0:0:0:0:
256,192,30800,1,0,0:0:0:0:
256,192,30890,1,2,0:0:0:0:
256,192,31073,1,2,0:0:0:0:
256,192,31436,1,0,0:0:0:0:
256,192,31618,1,2,0:0:0:0:
256,192,31709,1,0,0:0:0:0:
256,192,31981,1,0,0:0:0:0:
256,192,32254,1,2,0:0:0:0:
256,192,32527,1,0,0:0:0:0:
256,192,32709,1,2,0:0:0:0:
256,192,32800,1,0,0:0:0:0:
256,192,32981,1,0,0:0:0:0:
256,192,33072,1,0,0:0:0:0:
256,192,33345,1,2,0:0:0:0:
256,192,33618,1,0,0:0:0:0:
256,192,33800,1,0,0:0:0:0:
256,192,33890,1,2,0:0:0:0:
256,192,34163,1,0,0:0:0:0:
256,192,34345,1,2,0:0:0:0:
256,192,34709,1,2,0:0:0:0:
256,192,34890,1,0,0:0:0:0:
256,192,34981,1,0,0:0:0:0:
256,192,35254,1,2,0:0:0:0:
256,192,35436,1,2,0:0:0:0:
256,192,35800,1,0,0:0:0:0:
256,192,35981,1,2,0:0:0:0:
256,192,36072,1,0,0:0:0:0:
256,192,36345,1,0,0:0:0:0:
256,192,36618,1,2,0:0:0:0:
256,192,36800,1,0,0:0:0:0:
256,192,36890,1,2,0:0:0:0:
256,192,37072,1,0,0:0:0:0:
256,192,37163,1,0,0:0:0:0:
256,192,37345,1,2,0:0:0:0:
256,192,37436,1,0,0:0:0:0:
256,192,37709,1,2,0:0:0:0:
256,192,37981,1,0,0:0:0:0:
256,192,38254,1,2,0:0:0:0:
256,192,38527,1,0,0:0:0:0:
256,192,38709,1,0,0:0:0:0:
256,192,38800,1,2,0:0:0:0:
256,192,38982,1,0,0:0:0:0:
256,192,39073,1,0,0:0:0:0:
256,192,39254,1,2,0:0:0:0:
256,192,39345,1,0,0:0:0:0:
256,192,39618,1,2,0:0:0:0:
256,192,39800,1,2,0:0:0:0:
256,192,40163,1,0,0:0:0:0:
256,192,40436,1,2,0:0:0:0:
256,192,40709,1,0,0:0:0:0:
256,192,40890,1,2,0:0:0:0:
256,192,40981,1,2,0:0:0:0:
256,192,41254,1,2,0:0:0:0:
256,192,41436,1,0,0:0:0:0:
256,192,41527,1,0,0:0:0:0:
256,192,41800,1,0,0:0:0:0:
256,192,42072,1,2,0:0:0:0:
256,192,42345,1,0,0:0:0:0:
256,192,42527,1,2,0:0:0:0:
256,192,42618,1,0,0:0:0:0:
256,192,42890,1,0,0:0:0:0:
256,192,43072,1,2,0:0:0:0:
256,192,43436,1,0,0:0:0:0:
256,192,43618,1,0,0:0:0:0:
256,192,43709,1,2,0:0:0:0:
256,192,43981,1,2,0:0:0:0:
256,192,44163,1,2,0:0:0:0:
256,192,44527,1,0,0:0:0:0:
256,192,44709,1,2,0:0:0:0:
256,192,44800,1,0,0:0:0:0:
256,192,45072,1,0,0:0:0:0:
256,192,45345,1,2,0:0:0:0:
256,192,45618,1,2,0:0:0:0:
256,192,45800,1,0,0:0:0:0:
256,192,45890,1,0,0:0:0:0:
256,192,46163,1,0,0:0:0:0:
256,192,46436,1,2,0:0:0:0:
256,192,46618,1,2,0:0:0:0:
256,192,46709,1,0,0:0:0:0:
256,192,46982,1,4,0:0:0:0:
256,192,47800,1,0,0:0:0:0:
256,192,47981,1,0,0:0:0:0:
256,192,48072,1,2,0:0:0:0:
256,192,48345,1,0,0:0:0:0:
256,192,48890,1,2,0:0:0:0:
256,192,49163,1,0,0:0:0:0:
256,192,49709,1,2,0:0:0:0:
256,192,49981,1,2,0:0:0:0:
256,192,50163,1,0,0:0:0:0:
256,192,50254,1,0,0:0:0:0:
256,192,50527,1,0,0:0:0:0:
256,192,50800,1,2,0:0:0:0:
256,192,50981,1,0,0:0:0:0:
256,192,51254,1,0,0:0:0:0:
256,192,51345,1,0,0:0:0:0:
256,192,52164,1,0,0:0:0:0:
256,192,52345,1,0,0:0:0:0:
256,192,52436,1,2,0:0:0:0:
256,192,52709,1,0,0:0:0:0:
256,192,53254,1,2,0:0:0:0:
256,192,53527,1,0,0:0:0:0:
256,192,53799,1,2,0:0:0:0:
256,192,54072,1,0,0:0:0:0:
256,192,54345,1,2,0:0:0:0:
256,192,54527,1,2,0:0:0:0:
256,192,54617,1,0,0:0:0:0:
256,192,54890,1,2,0:0:0:0:
256,192,55163,1,0,0:0:0:0:
256,192,55345,1,0,0:0:0:0:
256,192,55436,1,2,0:0:0:0:
256,192,55617,1,2,0:0:0:0:
256,192,55708,1,0,0:0:0:0:
256,192,55981,1,2,0:0:0:0:
256,192,56254,1,0,0:0:0:0:
256,192,56527,1,2,0:0:0:0:
256,192,56708,1,2,0:0:0:0:
256,192,56799,1,0,0:0:0:0:
256,192,57072,1,2,0:0:0:0:
256,192,57254,1,2,0:0:0:0:
256,192,57345,1,0,0:0:0:0:
256,192,57527,1,2,0:0:0:0:
256,192,57617,1,2,0:0:0:0:
256,192,57799,1,0,0:0:0:0:
256,192,57890,1,2,0:0:0:0:
256,192,58163,1,0,0:0:0:0:
256,192,58345,1,0,0:0:0:0:
256,192,58436,1,2,0:0:0:0:
256,192,58708,1,0,0:0:0:0:
256,192,58981,1,2,0:0:0:0:
256,192,59254,1,0,0:0:0:0:
256,192,59436,1,0,0:0:0:0:
256,192,59527,1,2,0:0:0:0:
256,192,59799,1,0,0:0:0:0:
256,192,60072,1,2,0:0:0:0:
256,192,60254,1,0,0:0:0:0:
256,192,60345,1,0,0:0:0:0:
256,192,60527,1,0,0:0:0:0:
256,192,60617,1,2,0:0:0:0:
256,192,60799,1,0,0:0:0:0:
256,192,60890,1,2,0:0:0:0:
256,192,60981,1,2,0:0:0:0:
256,192,61072,1,2,0:0:0:0:
256,192,61163,1,0,0:0:0:0:
256,192,61345,1,2,0:0:0:0:
256,192,61436,1,0,0:0:0:0:
256,192,61617,1,0,0:0:0:0:
256,192,61708,1,2,0:0:0:0:
256,192,61981,1,2,0:0:0:0:
256,192,62254,1,4,0:0:0:0:
256,192,62709,1,0,0:0:0:0:
256,192,62799,1,2,0:0:0:0:
256,192,63072,1,0,0:0:0:0:
256,192,63254,1,0,0:0:0:0:
256,192,63345,1,2,0:0:0:0:
256,192,63617,1,0,0:0:0:0:
256,192,63890,1,2,0:0:0:0:
256,192,64163,1,0,0:0:0:0:
256,192,64345,1,2,0:0:0:0:
256,192,64436,1,0,0:0:0:0:
256,192,64617,1,0,0:0:0:0:
256,192,64708,1,2,0:0:0:0:
256,192,64982,1,2,0:0:0:0:
256,192,65254,1,0,0:0:0:0:
256,192,65436,1,0,0:0:0:0:
256,192,65527,1,2,0:0:0:0:
256,192,65799,1,0,0:0:0:0:
256,192,65981,1,2,0:0:0:0:
256,192,66072,1,2,0:0:0:0:
256,192,66345,1,2,0:0:0:0:
256,192,66617,1,0,0:0:0:0:
256,192,66799,1,2,0:0:0:0:
256,192,66890,1,0,0:0:0:0:
256,192,67072,1,0,0:0:0:0:
256,192,67164,1,2,0:0:0:0:
256,192,67436,1,2,0:0:0:0:
256,192,67617,1,2,0:0:0:0:
256,192,67708,1,0,0:0:0:0:
256,192,67890,1,0,0:0:0:0:
256,192,67981,1,2,0:0:0:0:
256,192,68163,1,0,0:0:0:0:
256,192,68254,1,2,0:0:0:0:
256,192,68527,1,0,0:0:0:0:
256,192,68708,1,2,0:0:0:0:
256,192,68799,1,0,0:0:0:0:
256,192,69072,1,2,0:0:0:0:
256,192,69254,1,2,0:0:0:0:
256,192,69345,1,0,0:0:0:0:
256,192,69617,1,2,0:0:0:0:
256,192,69800,1,0,0:0:0:0:
256,192,69890,1,0,0:0:0:0:
256,192,70072,1,2,0:0:0:0:
256,192,70163,1,0,0:0:0:0:
256,192,70345,1,2,0:0:0:0:
256,192,70436,1,0,0:0:0:0:
256,192,70708,1,2,0:0:0:0:
256,192,70981,1,4,0:0:0:0:
256,192,71436,1,0,0:0:0:0:
256,192,71527,1,2,0:0:0:0:
256,192,71799,1,2,0:0:0:0:
256,192,71981,1,0,0:0:0:0:
256,192,72072,1,2,0:0:0:0:
256,192,72345,1,0,0:0:0:0:
256,192,72617,1,2,0:0:0:0:
256,192,72890,1,2,0:0:0:0:
256,192,73072,1,0,0:0:0:0:
256,192,73163,1,2,0:0:0:0:
256,192,73345,1,2,0:0:0:0:
256,192,73436,1,0,0:0:0:0:
256,192,73708,1,2,0:0:0:0:
256,192,73981,1,0,0:0:0:0:
256,192,74163,1,2,0:0:0:0:
256,192,74254,1,0,0:0:0:0:
256,192,74527,1,2,0:0:0:0:
256,192,74708,1,0,0:0:0:0:
256,192,74799,1,2,0:0:0:0:
256,192,75072,1,2,0:0:0:0:
256,192,75345,1,0,0:0:0:0:
256,192,75527,1,2,0:0:0:0:
256,192,75617,1,0,0:0:0:0:
256,192,75799,1,0,0:0:0:0:
256,192,75891,1,2,0:0:0:0:
256,192,76164,1,2,0:0:0:0:
256,192,76345,1,2,0:0:0:0:
256,192,76436,1,0,0:0:0:0:
256,192,76617,1,0,0:0:0:0:
256,192,76708,1,2,0:0:0:0:
256,192,76890,1,0,0:0:0:0:
256,192,76982,1,2,0:0:0:0:
256,192,77254,1,0,0:0:0:0:
256,192,77436,1,2,0:0:0:0:
256,192,77527,1,0,0:0:0:0:
256,192,77799,1,2,0:0:0:0:
256,192,77981,1,0,0:0:0:0:
256,192,78072,1,2,0:0:0:0:
256,192,78254,1,2,0:0:0:0:
256,192,78345,1,0,0:0:0:0:
256,192,78527,1,0,0:0:0:0:
256,192,78617,1,2,0:0:0:0:
256,192,78890,1,2,0:0:0:0:
256,192,79072,1,0,0:0:0:0:
256,192,79163,1,2,0:0:0:0:
256,192,79436,1,0,0:0:0:0:
256,192,79709,1,0,0:0:0:0:
256,192,79981,1,2,0:0:0:0:
256,192,80117,1,0,0:0:0:0:
256,192,80254,1,2,0:0:0:0:
256,192,80527,1,2,0:0:0:0:
256,192,80708,1,0,0:0:0:0:
256,192,80799,1,0,0:0:0:0:
256,192,81072,1,0,0:0:0:0:
256,192,81345,1,2,0:0:0:0:
256,192,81617,1,0,0:0:0:0:
256,192,81799,1,2,0:0:0:0:
256,192,81890,1,0,0:0:0:0:
256,192,82163,1,0,0:0:0:0:
256,192,82299,1,0,0:0:0:0:
256,192,82436,1,2,0:0:0:0:
256,192,82708,1,0,0:0:0:0:
256,192,82890,1,2,0:0:0:0:
256,192,82981,1,0,0:0:0:0:
256,192,83254,1,0,0:0:0:0:
256,192,83527,1,2,0:0:0:0:
256,192,83799,1,0,0:0:0:0:
256,192,83981,1,2,0:0:0:0:
256,192,84072,1,0,0:0:0:0:
256,192,84254,1,2,0:0:0:0:
256,192,84345,1,0,0:0:0:0:
256,192,84436,1,0,0:0:0:0:
256,192,84527,1,2,0:0:0:0:
256,192,84617,1,0,0:0:0:0:
256,192,84890,1,2,0:0:0:0:
256,192,85072,1,0,0:0:0:0:
256,192,85163,1,0,0:0:0:0:
256,192,85436,1,0,0:0:0:0:
256,192,85708,1,2,0:0:0:0:
256,192,85981,1,2,0:0:0:0:
256,192,86254,1,0,0:0:0:0:
256,192,86435,1,2,0:0:0:0:
256,192,86526,1,2,0:0:0:0:
256,192,86799,1,2,0:0:0:0:
256,192,86981,1,0,0:0:0:0:
256,192,87072,1,2,0:0:0:0:
245,183,87254,1,0,0:0:0:0:
256,192,87344,1,0,0:0:0:0:
