osu file format v14

[General]
AudioFilename: audio.mp3
AudioLeadIn: 0
PreviewTime: 61948
Countdown: 0
SampleSet: Normal
StackLeniency: 0.7
Mode: 1
LetterboxInBreaks: 0
WidescreenStoryboard: 1

[Editor]
DistanceSpacing: 0.2
BeatDivisor: 1
GridSize: 16
TimelineZoom: 1

[Metadata]
Title:Kyorikan (TV Size)
TitleUnicode:キョリ感 (TV Size)
Artist:HaKoniwalily
ArtistUnicode:ハコニワリリィ
Creator:miyagishima
Version:Kantan
Source:阿波連さんははかれない
Tags:hanon kotoha honeyworks ハニーワークス ハニワ japanese pop jpop j-pop anime ed ending lolis aharen-san aharen san wa hakarenai Aharen Is Indecipherable
BeatmapID:3617764
BeatmapSetID:1767405

[Difficulty]
HPDrainRate:8
CircleSize:5
OverallDifficulty:3
ApproachRate:5
SliderMultiplier:1.4
SliderTickRate:1

[Events]
//Background and Video events
0,0,"image.jpg",0,30
//Break Periods
//Storyboard Layer 0 (Background)
//Storyboard Layer 1 (Fail)
//Storyboard Layer 2 (Pass)
//Storyboard Layer 3 (Foreground)
//Storyboard Layer 4 (Overlay)
//Storyboard Sound Samples

[TimingPoints]
1164,545.454545454546,4,1,0,50,1,0
9857,-100,4,1,0,60,0,0
19164,-100,4,1,0,70,0,0
47073,-100,4,1,0,60,0,0
53493,-100,4,1,0,70,0,0
61948,-100,4,1,0,80,0,0
62254,-100,4,1,0,80,0,1
79709,-100,4,1,0,70,0,0
86220,-100,4,1,0,60,0,0
87311,-100,4,1,0,50,0,0

[HitObjects]
256,192,1164,5,2,0:0:0:0:
256,192,3345,1,2,0:0:0:0:
256,192,4436,1,2,0:0:0:0:
256,192,5527,1,2,0:0:0:0:
256,192,7709,1,2,0:0:0:0:
256,192,9891,1,4,0:0:0:0:
256,192,10982,1,2,0:0:0:0:
256,192,12073,1,2,0:0:0:0:
256,192,14254,1,2,0:0:0:0:
256,192,15345,1,2,0:0:0:0:
256,192,16436,1,2,0:0:0:0:
256,192,18618,1,4,0:0:0:0:
256,192,20800,1,4,0:0:0:0:
256,192,21890,1,0,0:0:0:0:
256,192,22981,1,2,0:0:0:0:
256,192,24073,1,2,0:0:0:0:
256,192,25163,1,2,0:0:0:0:
256,192,26254,1,0,0:0:0:0:
256,192,27345,1,0,0:0:0:0:
256,192,27890,1,2,0:0:0:0:
256,192,28436,1,2,0:0:0:0:
256,192,29527,1,6,0:0:0:0:
256,192,30618,1,0,0:0:0:0:
256,192,31709,1,0,0:0:0:0:
256,192,32800,1,2,0:0:0:0:
256,192,33345,1,2,0:0:0:0:
256,192,33890,1,2,0:0:0:0:
256,192,34981,1,0,0:0:0:0:
256,192,36073,1,2,0:0:0:0:
256,192,37163,1,0,0:0:0:0:
256,192,37709,1,2,0:0:0:0:
256,192,38254,1,4,0:0:0:0:
256,192,39345,1,0,0:0:0:0:
256,192,40436,1,2,0:0:0:0:
256,192,41527,1,2,0:0:0:0:
256,192,42072,1,0,0:0:0:0:
256,192,42618,1,2,0:0:0:0:
256,192,43709,1,0,0:0:0:0:
256,192,44800,1,0,0:0:0:0:
256,192,45345,1,0,0:0:0:0:
256,192,45890,1,2,0:0:0:0:
256,192,46981,1,4,0:0:0:0:
256,192,49163,1,2,0:0:0:0:
256,192,51345,1,0,0:0:0:0:
256,192,53527,1,0,0:0:0:0:
256,192,54072,1,0,0:0:0:0:
256,192,54617,1,2,0:0:0:0:
256,192,55708,1,0,0:0:0:0:
256,192,56254,1,0,0:0:0:0:
256,192,56799,1,2,0:0:0:0:
256,192,57890,1,0,0:0:0:0:
256,192,58436,1,0,0:0:0:0:
256,192,58981,1,2,0:0:0:0:
256,192,59527,1,2,0:0:0:0:
256,192,60072,1,0,0:0:0:0:
256,192,61163,1,2,0:0:0:0:
256,192,62254,1,4,0:0:0:0:
256,192,62799,1,2,0:0:0:0:
256,192,63345,1,0,0:0:0:0:
256,192,63890,1,2,0:0:0:0:
256,192,64436,1,0,0:0:0:0:
256,192,65527,1,2,0:0:0:0:
256,192,66617,1,0,0:0:0:0:
256,192,67163,1,2,0:0:0:0:
256,192,67708,1,0,0:0:0:0:
256,192,68254,1,0,0:0:0:0:
256,192,68799,1,2,0:0:0:0:
256,192,69345,1,0,0:0:0:0:
256,192,69890,1,2,0:0:0:0:
256,192,70981,1,4,0:0:0:0:
256,192,71527,1,2,0:0:0:0:
256,192,72072,1,0,0:0:0:0:
256,192,72617,1,2,0:0:0:0:
256,192,73163,1,0,0:0:0:0:
256,192,74254,1,2,0:0:0:0:
256,192,75345,1,0,0:0:0:0:
256,192,75890,1,0,0:0:0:0:
256,192,76436,1,2,0:0:0:0:
256,192,76981,1,0,0:0:0:0:
256,192,77527,1,2,0:0:0:0:
256,192,78073,1,2,0:0:0:0:
256,192,78617,1,0,0:0:0:0:
256,192,79708,1,0,0:0:0:0:
256,192,80254,1,0,0:0:0:0:
256,192,80799,1,2,0:0:0:0:
256,192,81890,1,2,0:0:0:0:
256,192,82436,1,2,0:0:0:0:
256,192,82981,1,0,0:0:0:0:
256,192,84072,1,2,0:0:0:0:
256,192,84618,1,0,0:0:0:0:
256,192,85164,1,2,0:0:0:0:
256,192,85708,1,2,0:0:0:0:
256,192,86254,1,0,0:0:0:0:
256,192,87344,1,2,0:0:0:0:
