osu file format v14

[General]
AudioFilename: audio.mp3
AudioLeadIn: 0
PreviewTime: 61982
Countdown: 0
SampleSet: Soft
StackLeniency: 0.7
Mode: 3
LetterboxInBreaks: 0
SpecialStyle: 0
WidescreenStoryboard: 1

[Editor]
DistanceSpacing: 1.3
BeatDivisor: 8
GridSize: 32
TimelineZoom: 1.6

[Metadata]
Title:Kyorikan (TV Size)
TitleUnicode:キョリ感 (TV Size)
Artist:HaKoniwalily
ArtistUnicode:ハコニワリリィ
Creator:DenYi
Version:Nicknem's Normal
Source:阿波連さんははかれない
Tags:nicknem_ pop jpop j-pop aharen-san aharen san wa hakarenai Aharen Is Indecipherable hanon kotoha honeyworks ハニーワークス ハニワ japanese anime ed ending
BeatmapID:3686890
BeatmapSetID:1798553

[Difficulty]
HPDrainRate:7.5
CircleSize:4
OverallDifficulty:7.5
ApproachRate:5
SliderMultiplier:1.4
SliderTickRate:1

[Events]
//Background and Video events
0,0,"normall.jpg",0,0
Video,0,"video.mp4"
//Break Periods
//Storyboard Layer 0 (Background)
//Storyboard Layer 1 (Fail)
//Storyboard Layer 2 (Pass)
//Storyboard Layer 3 (Foreground)
//Storyboard Layer 4 (Overlay)
//Storyboard Sound Samples
Sample,45891,0,"Tom 1.wav",60
Sample,52982,0,"Tom 2.wav",60

[TimingPoints]
1164,545.454545454546,4,2,1,50,1,0
20800,-100,4,2,1,50,0,1
29527,-100,4,2,1,50,0,0
62254,-100,4,2,1,50,0,1
79709,-100,4,2,1,50,0,0

[HitObjects]
64,192,1164,5,0,0:0:0:0:
448,192,1164,1,0,0:0:0:0:
320,192,1436,1,0,0:0:0:0:
192,192,1709,1,0,0:0:0:0:
448,192,1982,1,0,0:0:0:0:
192,192,2254,1,0,0:0:0:0:
320,192,2254,1,0,0:0:0:0:
64,192,2527,1,0,0:0:0:0:
320,192,2800,1,0,0:0:0:0:
192,192,3073,1,0,0:0:0:0:
64,192,3345,1,0,0:0:0:0:
448,192,3345,1,0,0:0:0:0:
192,192,3618,1,0,0:0:0:0:
448,192,3891,1,0,0:0:0:0:
320,192,4164,1,0,0:0:0:0:
64,192,4436,1,0,0:0:0:0:
448,192,4436,1,0,0:0:0:0:
192,192,4709,1,0,0:0:0:0:
448,192,4982,1,0,0:0:0:0:
320,192,5254,1,0,0:0:0:0:
64,192,5527,1,0,0:0:0:0:
192,192,5527,1,0,0:0:0:0:
320,192,5800,1,0,0:0:0:0:
448,192,6073,1,0,0:0:0:0:
192,192,6345,1,0,0:0:0:0:
64,192,6618,1,0,0:0:0:0:
448,192,6618,1,0,0:0:0:0:
320,192,6891,1,0,0:0:0:0:
192,192,7164,1,0,0:0:0:0:
64,192,7436,1,0,0:0:0:0:
320,192,7709,1,0,0:0:0:0:
448,192,7709,1,0,0:0:0:0:
64,192,7982,1,0,0:0:0:0:
192,192,8254,1,0,0:0:0:0:
320,192,8527,1,0,0:0:0:0:
64,192,8800,1,0,0:0:0:0:
448,192,8800,128,0,9891:0:0:0:0:
192,192,9073,1,0,0:0:0:0:
320,192,9345,1,0,0:0:0:0:
192,192,9618,1,0,0:0:0:0:
64,192,9891,1,0,0:0:0:0:
320,192,9891,1,0,0:0:0:0:
192,192,10164,1,0,0:0:0:0:
448,192,10436,1,0,0:0:0:0:
192,192,10709,1,0,0:0:0:0:
64,192,10982,1,0,0:0:0:0:
320,192,10982,1,0,0:0:0:0:
192,192,11254,1,0,0:0:0:0:
320,192,11527,1,0,0:0:0:0:
448,192,11527,1,0,0:0:0:0:
192,192,11800,1,0,0:0:0:0:
64,192,12073,1,0,0:0:0:0:
448,192,12073,1,0,0:0:0:0:
192,192,12345,1,0,0:0:0:0:
320,192,12618,1,0,0:0:0:0:
448,192,12891,1,0,0:0:0:0:
64,192,13164,1,0,0:0:0:0:
192,192,13164,1,0,0:0:0:0:
320,192,13436,1,0,0:0:0:0:
64,192,13709,1,0,0:0:0:0:
448,192,13709,1,0,0:0:0:0:
192,192,13982,1,0,0:0:0:0:
320,192,14254,1,0,0:0:0:0:
448,192,14254,1,0,0:0:0:0:
64,192,14527,1,0,0:0:0:0:
448,192,14800,1,0,0:0:0:0:
320,192,15073,1,0,0:0:0:0:
64,192,15345,1,0,0:0:0:0:
448,192,15345,1,0,0:0:0:0:
192,192,15618,1,0,0:0:0:0:
320,192,15891,1,0,0:0:0:0:
448,192,15891,1,0,0:0:0:0:
64,192,16164,1,0,0:0:0:0:
192,192,16436,1,0,0:0:0:0:
320,192,16436,1,0,0:0:0:0:
448,192,16709,1,0,0:0:0:0:
64,192,16982,1,0,0:0:0:0:
192,192,17254,1,0,0:0:0:0:
320,192,17527,1,0,0:0:0:0:
448,192,17527,1,0,0:0:0:0:
64,192,17800,1,0,0:0:0:0:
192,192,18073,1,0,0:0:0:0:
448,192,18073,1,0,0:0:0:0:
320,192,18345,1,0,0:0:0:0:
64,192,18618,1,4,0:0:0:0:
448,192,18618,128,0,19709:0:0:0:0:
64,192,19709,1,2,0:0:0:0:
192,192,19709,1,0,0:0:0:0:
64,192,19982,1,0,0:0:0:40:LR_Drum Hit Drop High.wav
192,192,19982,1,0,0:0:0:0:
320,192,20254,1,0,0:0:0:40:LR_Drum Hit Drop High.wav
448,192,20254,1,0,0:0:0:0:
192,192,20527,1,2,0:0:0:0:
64,192,20800,1,4,0:0:0:0:
448,192,20800,128,2,21073:0:0:0:0:
64,192,21073,128,0,21345:0:0:0:60:LR_HiHat Click.wav
192,192,21345,1,8,0:0:0:0:
320,192,21345,1,0,0:0:0:0:
192,192,21618,1,0,0:0:0:60:LR_HiHat Click.wav
64,192,21891,128,2,22164:0:0:0:0:
448,192,22164,128,0,22436:0:0:0:60:LR_HiHat Click.wav
192,192,22436,1,8,0:0:0:0:
320,192,22436,1,0,0:0:0:0:
320,192,22709,1,0,0:0:0:60:LR_HiHat Click.wav
192,192,22982,128,2,23254:0:0:0:0:
448,192,23254,128,0,23527:0:0:0:60:LR_HiHat Click.wav
192,192,23527,1,8,0:0:0:0:
320,192,23527,1,0,0:0:0:0:
64,192,23800,128,0,24073:0:0:0:60:LR_HiHat Click.wav
448,192,24073,128,2,24345:0:0:0:0:
192,192,24345,128,2,24618:0:0:0:0:
64,192,24618,1,8,0:0:0:0:
448,192,24618,1,0,0:0:0:0:
320,192,24754,1,0,0:0:0:0:
192,192,24891,1,2,0:0:0:0:
64,192,25164,128,2,25436:0:0:0:0:
320,192,25436,128,0,25709:0:0:0:60:LR_HiHat Click.wav
64,192,25709,128,8,25982:0:0:0:0:
448,192,25709,1,0,0:0:0:0:
192,192,25982,1,0,0:0:0:60:LR_HiHat Click.wav
448,192,26254,128,2,26527:0:0:0:0:
192,192,26527,128,0,26800:0:0:0:60:LR_HiHat Click.wav
64,192,26800,1,8,0:0:0:0:
448,192,26800,128,0,27073:0:0:0:0:
320,192,27073,1,0,0:0:0:60:LR_HiHat Click.wav
192,192,27345,128,2,27618:0:0:0:0:
64,192,27618,128,0,27891:0:0:0:60:LR_HiHat Click.wav
192,192,27891,1,8,0:0:0:0:
320,192,27891,128,0,28164:0:0:0:0:
448,192,28164,128,0,28436:0:0:0:60:LR_HiHat Click.wav
64,192,28436,1,2,0:0:0:0:
64,192,28709,1,2,0:0:0:0:
320,192,28982,1,8,0:0:0:0:
448,192,28982,1,0,0:0:0:0:
192,192,29254,1,2,0:0:0:0:
64,192,29527,1,2,0:0:0:0:
448,192,29527,1,4,0:0:0:0:
320,192,29800,1,0,0:0:0:60:LR_HiHat Click.wav
64,192,30073,1,8,0:0:0:0:
192,192,30073,1,0,0:0:0:0:
448,192,30345,1,0,0:0:0:60:LR_HiHat Click.wav
320,192,30618,1,2,0:0:0:0:
64,192,30891,1,0,0:0:0:60:LR_HiHat Click.wav
192,192,31164,1,8,0:0:0:0:
320,192,31164,1,0,0:0:0:0:
448,192,31436,1,0,0:0:0:60:LR_HiHat Click.wav
64,192,31709,1,2,0:0:0:0:
320,192,31982,1,0,0:0:0:60:LR_HiHat Click.wav
64,192,32254,1,8,0:0:0:0:
192,192,32254,1,0,0:0:0:0:
320,192,32527,1,0,0:0:0:60:LR_HiHat Click.wav
192,192,32800,1,2,0:0:0:0:
192,192,33073,1,2,0:0:0:0:
320,192,33345,1,8,0:0:0:0:
448,192,33345,1,0,0:0:0:0:
64,192,33618,1,2,0:0:0:0:
448,192,33891,1,2,0:0:0:0:
192,192,34164,1,0,0:0:0:60:LR_HiHat Click.wav
320,192,34436,1,8,0:0:0:0:
448,192,34436,1,0,0:0:0:0:
64,192,34709,1,0,0:0:0:60:LR_HiHat Click.wav
448,192,34982,1,2,0:0:0:0:
192,192,35254,1,0,0:0:0:60:LR_HiHat Click.wav
64,192,35527,1,8,0:0:0:0:
448,192,35527,1,0,0:0:0:0:
320,192,35800,1,0,0:0:0:60:LR_HiHat Click.wav
192,192,36073,1,2,0:0:0:0:
192,192,36345,1,0,0:0:0:60:LR_HiHat Click.wav
64,192,36618,1,8,0:0:0:0:
448,192,36618,1,0,0:0:0:0:
448,192,36891,1,0,0:0:0:60:LR_HiHat Click.wav
320,192,37164,1,2,0:0:0:0:
192,192,37436,1,2,0:0:0:0:
64,192,37709,1,8,0:0:0:0:
448,192,37709,1,0,0:0:0:0:
64,192,37982,1,2,0:0:0:0:
192,192,38254,1,2,0:0:0:0:
448,192,38254,1,4,0:0:0:0:
320,192,38527,1,0,0:0:0:60:LR_HiHat Click.wav
64,192,38800,1,8,0:0:0:0:
192,192,38800,1,0,0:0:0:0:
448,192,39073,1,0,0:0:0:60:LR_HiHat Click.wav
64,192,39345,1,2,0:0:0:0:
320,192,39618,1,0,0:0:0:60:LR_HiHat Click.wav
64,192,39891,1,8,0:0:0:0:
448,192,39891,1,0,0:0:0:0:
192,192,40164,1,0,0:0:0:60:LR_HiHat Click.wav
448,192,40436,1,2,0:0:0:0:
320,192,40709,1,0,0:0:0:60:LR_HiHat Click.wav
64,192,40982,1,8,0:0:0:0:
448,192,40982,1,0,0:0:0:0:
192,192,41254,1,0,0:0:0:60:LR_HiHat Click.wav
320,192,41527,1,2,0:0:0:0:
320,192,41800,1,2,0:0:0:0:
64,192,42073,1,8,0:0:0:0:
448,192,42073,1,0,0:0:0:0:
192,192,42345,1,2,0:0:0:0:
320,192,42618,1,2,0:0:0:0:
64,192,42891,1,0,0:0:0:60:LR_HiHat Click.wav
320,192,43164,1,8,0:0:0:0:
448,192,43164,1,0,0:0:0:0:
192,192,43436,1,0,0:0:0:60:LR_HiHat Click.wav
64,192,43709,1,2,0:0:0:0:
320,192,43982,1,0,0:0:0:60:LR_HiHat Click.wav
64,192,44254,1,8,0:0:0:0:
192,192,44254,1,0,0:0:0:0:
320,192,44527,1,0,0:0:0:60:LR_HiHat Click.wav
64,192,44800,1,2,0:0:0:0:
64,192,45073,1,0,0:0:0:60:LR_HiHat Click.wav
192,192,45345,1,8,0:0:0:0:
448,192,45345,1,0,0:0:0:0:
192,192,45618,1,0,0:0:0:60:LR_HiHat Click.wav
320,192,45891,1,2,0:0:0:0:
192,192,46164,1,0,0:0:0:60:Tom 1.wav
64,192,46436,1,8,0:0:0:0:
448,192,46436,1,0,0:0:0:0:
448,192,46709,1,2,0:0:0:0:
64,192,46982,1,2,0:0:0:0:
192,192,46982,1,4,0:0:0:0:
320,192,47254,128,0,47527:0:0:0:60:LR_HiHat Click.wav
448,192,47527,1,0,0:0:0:50:clap_finger.wav
320,192,47800,1,2,0:0:0:0:
64,192,48073,128,8,48345:0:0:0:0:
192,192,48073,1,0,0:0:0:0:
448,192,48345,128,0,48618:0:0:0:60:LR_HiHat Click.wav
192,192,48891,1,2,0:0:0:0:
448,192,49164,128,2,49436:0:0:0:0:
320,192,49436,128,0,49709:0:0:0:60:LR_HiHat Click.wav
64,192,49709,128,0,49982:0:0:0:50:clap_finger.wav
448,192,49982,1,0,0:0:0:60:LR_HiHat Click.wav
192,192,50254,128,2,50527:0:0:0:0:
320,192,50527,128,0,50800:0:0:0:60:LR_HiHat Click.wav
64,192,50800,1,8,0:0:0:0:
448,192,50800,128,0,51073:0:0:0:0:
192,192,51073,1,0,0:0:0:60:LR_HiHat Click.wav
320,192,51345,1,2,0:0:0:0:
448,192,51618,1,0,0:0:0:60:LR_HiHat Click.wav
320,192,51754,1,0,0:0:0:0:
192,192,51891,128,0,52164:0:0:0:50:clap_finger.wav
64,192,52164,128,2,52436:0:0:0:0:
320,192,52436,1,8,0:0:0:0:
448,192,52436,1,0,0:0:0:0:
192,192,52573,1,0,0:0:0:0:
320,192,52709,128,0,52982:0:0:0:60:LR_HiHat Click.wav
64,192,52982,1,0,0:0:0:50:clap_finger.wav
192,192,53254,1,6,0:0:0:0:
448,192,53527,128,6,53800:0:0:0:0:
192,192,53527,1,0,0:0:0:0:
320,192,53800,128,0,54073:0:0:0:60:LR_HiHat Click.wav
64,192,54073,128,8,54345:0:0:0:0:
448,192,54073,1,0,0:0:0:0:
192,192,54345,128,0,54618:0:0:0:60:LR_HiHat Click.wav
320,192,54618,128,2,55164:0:0:0:0:
192,192,54891,1,0,0:0:0:60:LR_HiHat Click.wav
64,192,55164,1,8,0:0:0:0:
448,192,55164,1,0,0:0:0:0:
448,192,55436,128,0,55709:0:0:0:60:LR_HiHat Click.wav
64,192,55709,128,2,55982:0:0:0:0:
192,192,55982,128,0,56254:0:0:0:60:LR_HiHat Click.wav
64,192,56254,1,8,0:0:0:0:
448,192,56254,128,0,56527:0:0:0:0:
320,192,56527,128,0,56800:0:0:0:60:LR_HiHat Click.wav
64,192,56800,128,2,57073:0:0:0:0:
448,192,56800,1,0,0:0:0:0:
192,192,57073,128,0,57345:0:0:0:60:LR_HiHat Click.wav
64,192,57345,1,8,0:0:0:0:
448,192,57345,128,0,57618:0:0:0:0:
320,192,57618,128,2,57891:0:0:0:0:
64,192,57891,128,4,58164:0:0:0:0:
192,192,57891,1,8,0:0:0:0:
448,192,58164,1,2,0:0:0:0:
192,192,58436,1,8,0:0:0:0:
320,192,58436,1,0,0:0:0:0:
64,192,58709,1,2,0:0:0:0:
192,192,58982,128,8,59254:0:0:0:0:
320,192,58982,1,0,0:0:0:0:
64,192,59254,1,2,0:0:0:0:
320,192,59527,1,8,0:0:0:0:
448,192,59527,1,0,0:0:0:0:
192,192,59800,1,2,0:0:0:0:
64,192,60073,1,8,0:0:0:0:
320,192,60073,128,0,60618:0:0:0:0:
192,192,60345,1,0,0:0:0:60:LR_HiHat Click.wav
64,192,60618,1,8,0:0:0:0:
448,192,60618,1,0,0:0:0:0:
320,192,60891,1,0,0:0:0:50:Tom 1.wav
64,192,61164,128,2,61709:0:0:0:0:
448,192,61164,128,0,61709:0:0:0:0:
192,192,61709,1,8,0:0:0:0:
320,192,61709,1,0,0:0:0:0:
192,192,61982,128,0,62254:0:0:0:60:Tom 2.wav
64,192,62254,1,4,0:0:0:0:
320,192,62254,128,2,62527:0:0:0:0:
448,192,62527,128,0,62800:0:0:0:60:LR_HiHat Click.wav
64,192,62800,1,8,0:0:0:0:
320,192,62800,1,0,0:0:0:0:
192,192,63073,128,0,63345:0:0:0:60:LR_HiHat Click.wav
320,192,63345,128,2,63618:0:0:0:0:
448,192,63618,128,0,63891:0:0:0:60:LR_HiHat Click.wav
64,192,63891,1,8,0:0:0:0:
320,192,63891,1,0,0:0:0:0:
192,192,64164,128,0,64436:0:0:0:60:LR_HiHat Click.wav
448,192,64436,128,2,64709:0:0:0:0:
64,192,64709,128,0,64982:0:0:0:60:LR_HiHat Click.wav
192,192,64982,128,8,65254:0:0:0:0:
320,192,64982,1,0,0:0:0:0:
448,192,65254,128,0,65527:0:0:0:60:LR_HiHat Click.wav
64,192,65527,128,2,65800:0:0:0:0:
448,192,65800,128,2,66073:0:0:0:0:
64,192,66073,1,8,0:0:0:0:
192,192,66073,128,0,66345:0:0:0:0:
448,192,66345,1,2,0:0:0:0:
64,192,66618,128,2,66891:0:0:0:0:
448,192,66891,1,0,0:0:0:60:LR_HiHat Click.wav
320,192,67027,128,0,67300:0:0:0:0:
64,192,67164,1,8,0:0:0:0:
192,192,67436,128,0,67709:0:0:0:60:LR_HiHat Click.wav
64,192,67709,1,2,0:0:0:0:
320,192,67845,1,0,0:0:0:0:
192,192,67982,1,0,0:0:0:60:LR_HiHat Click.wav
448,192,68118,128,0,68391:0:0:0:0:
64,192,68254,1,8,0:0:0:0:
64,192,68527,128,0,68800:0:0:0:60:LR_HiHat Click.wav
320,192,68800,128,2,69073:0:0:0:0:
192,192,69073,128,0,69345:0:0:0:60:LR_HiHat Click.wav
320,192,69345,1,8,0:0:0:0:
448,192,69345,128,0,69618:0:0:0:0:
64,192,69618,128,0,69891:0:0:0:60:LR_HiHat Click.wav
192,192,69891,128,2,70164:0:0:0:0:
448,192,70164,128,2,70436:0:0:0:0:
192,192,70436,1,8,0:0:0:0:
320,192,70436,128,0,70709:0:0:0:0:
64,192,70709,128,2,70982:0:0:0:0:
192,192,70982,128,2,71254:0:0:0:0:
320,192,70982,1,4,0:0:0:0:
448,192,71254,128,0,71527:0:0:0:60:LR_HiHat Click.wav
192,192,71527,1,8,0:0:0:0:
320,192,71527,1,0,0:0:0:0:
64,192,71800,128,0,72073:0:0:0:60:LR_HiHat Click.wav
192,192,72073,128,2,72345:0:0:0:0:
448,192,72345,128,0,72618:0:0:0:60:LR_HiHat Click.wav
192,192,72618,1,8,0:0:0:0:
320,192,72618,1,0,0:0:0:0:
64,192,72891,128,0,73164:0:0:0:60:LR_HiHat Click.wav
320,192,73164,128,2,73436:0:0:0:0:
64,192,73436,128,0,73709:0:0:0:60:LR_HiHat Click.wav
192,192,73709,1,8,0:0:0:0:
320,192,73709,128,0,73982:0:0:0:0:
448,192,73982,128,0,74254:0:0:0:60:LR_HiHat Click.wav
64,192,74254,128,2,74527:0:0:0:0:
448,192,74527,128,2,74800:0:0:0:0:
192,192,74800,128,8,75073:0:0:0:0:
320,192,74800,1,0,0:0:0:0:
64,192,75073,1,2,0:0:0:0:
448,192,75345,1,2,0:0:0:0:
192,192,75618,1,0,0:0:0:60:LR_HiHat Click.wav
320,192,75754,128,0,76027:0:0:0:0:
64,192,75891,1,8,0:0:0:0:
192,192,76164,128,0,76436:0:0:0:60:LR_HiHat Click.wav
448,192,76436,1,2,0:0:0:0:
320,192,76573,1,0,0:0:0:0:
64,192,76709,1,0,0:0:0:60:LR_HiHat Click.wav
320,192,76845,128,0,77118:0:0:0:0:
192,192,76982,1,8,0:0:0:0:
64,192,77254,128,0,77527:0:0:0:60:LR_HiHat Click.wav
320,192,77527,128,2,77800:0:0:0:0:
192,192,77800,128,0,78073:0:0:0:60:LR_HiHat Click.wav
320,192,78073,1,8,0:0:0:0:
448,192,78073,128,0,78345:0:0:0:0:
64,192,78345,128,0,78618:0:0:0:60:LR_HiHat Click.wav
320,192,78618,128,2,78891:0:0:0:0:
192,192,78891,128,0,79164:0:0:0:40:LR_Drum Hit Drop High.wav
64,192,79164,128,8,79436:0:0:0:0:
448,192,79164,1,0,0:0:0:60:Tom 2.wav
320,192,79436,1,2,0:0:0:0:
64,192,79709,1,2,0:0:0:0:
448,192,79709,1,4,0:0:0:0:
192,192,79982,1,0,0:0:0:60:LR_HiHat Click.wav
320,192,80118,1,0,0:0:0:0:
64,192,80254,1,8,0:0:0:0:
448,192,80254,1,0,0:0:0:0:
64,192,80527,1,0,0:0:0:60:LR_HiHat Click.wav
320,192,80800,1,2,0:0:0:0:
448,192,81073,1,0,0:0:0:60:LR_HiHat Click.wav
64,192,81345,1,8,0:0:0:0:
448,192,81345,128,0,81618:0:0:0:0:
192,192,81891,1,2,0:0:0:0:
64,192,82164,1,0,0:0:0:60:LR_HiHat Click.wav
448,192,82300,1,0,0:0:0:0:
192,192,82436,1,8,0:0:0:0:
320,192,82436,1,0,0:0:0:0:
448,192,82709,1,0,0:0:0:60:LR_HiHat Click.wav
64,192,82982,1,2,0:0:0:0:
320,192,83254,1,2,0:0:0:0:
192,192,83527,128,8,83800:0:0:0:0:
320,192,83527,1,0,0:0:0:0:
64,192,83800,1,2,0:0:0:0:
320,192,84073,1,2,0:0:0:0:
448,192,84209,1,0,0:0:0:0:
64,192,84345,1,0,0:0:0:60:LR_HiHat Click.wav
192,192,84482,1,0,0:0:0:0:
320,192,84618,1,8,0:0:0:0:
448,192,84618,1,0,0:0:0:0:
64,192,84891,1,0,0:0:0:60:LR_HiHat Click.wav
320,192,85164,1,2,0:0:0:0:
192,192,85436,1,0,0:0:0:60:LR_HiHat Click.wav
64,192,85709,1,8,0:0:0:0:
448,192,85709,128,0,85982:0:0:0:0:
320,192,85982,1,0,0:0:0:60:LR_HiHat Click.wav
192,192,86254,1,0,0:0:0:0:
320,192,86527,1,0,0:0:0:0:
64,192,86800,1,0,0:0:0:0:
192,192,87073,1,0,0:0:0:0:
448,192,87345,128,0,87891:0:0:0:0:
