osu file format v14

[General]
AudioFilename: audio.mp3
AudioLeadIn: 0
PreviewTime: 61982
Countdown: 0
SampleSet: Soft
StackLeniency: 0.7
Mode: 3
LetterboxInBreaks: 0
SpecialStyle: 0
WidescreenStoryboard: 1

[Editor]
DistanceSpacing: 1.3
BeatDivisor: 4
GridSize: 32
TimelineZoom: 1.4

[Metadata]
Title:Kyorikan (TV Size)
TitleUnicode:キョリ感 (TV Size)
Artist:HaKoniwalily
ArtistUnicode:ハコニワリリィ
Creator:DenYi
Version:Easy
Source:阿波連さんははかれない
Tags:nicknem_ pop jpop j-pop aharen-san aharen san wa hakarenai Aharen Is Indecipherable hanon kotoha honeyworks ハニーワークス ハニワ japanese anime ed ending
BeatmapID:3686887
BeatmapSetID:1798553

[Difficulty]
HPDrainRate:7
CircleSize:4
OverallDifficulty:7
ApproachRate:5
SliderMultiplier:1.4
SliderTickRate:1

[Events]
//Background and Video events
0,0,"easy.jpg",0,0
Video,0,"video.mp4"
//Break Periods
//Storyboard Layer 0 (Background)
//Storyboard Layer 1 (Fail)
//Storyboard Layer 2 (Pass)
//Storyboard Layer 3 (Foreground)
//Storyboard Layer 4 (Overlay)
//Storyboard Sound Samples
Sample,45891,0,"Tom 1.wav",60
Sample,52982,0,"Tom 2.wav",60

[TimingPoints]
1164,545.454545454546,4,2,1,50,1,0
20800,-100,4,2,1,50,0,1
29527,-100,4,2,1,50,0,0
62254,-100,4,2,1,50,0,1
79709,-100,4,2,1,50,0,0

[HitObjects]
192,192,1164,128,0,1709:0:0:0:0:
320,192,1164,1,0,0:0:0:0:
448,192,1709,1,0,0:0:0:0:
64,192,2254,1,0,0:0:0:0:
320,192,2254,128,0,2800:0:0:0:0:
192,192,2800,1,0,0:0:0:0:
64,192,3345,128,0,3891:0:0:0:0:
448,192,3345,1,0,0:0:0:0:
192,192,3891,1,0,0:0:0:0:
320,192,4436,1,0,0:0:0:0:
448,192,4436,128,0,4982:0:0:0:0:
64,192,4982,1,0,0:0:0:0:
192,192,5527,128,0,6073:0:0:0:0:
320,192,5527,1,0,0:0:0:0:
448,192,6073,1,0,0:0:0:0:
64,192,6618,1,0,0:0:0:0:
320,192,6618,128,0,7164:0:0:0:0:
192,192,7164,1,0,0:0:0:0:
64,192,7709,128,0,8254:0:0:0:0:
448,192,7709,1,0,0:0:0:0:
320,192,8254,1,0,0:0:0:0:
192,192,8800,1,0,0:0:0:0:
448,192,8800,128,0,9345:0:0:0:0:
64,192,9345,128,0,9891:0:0:0:0:
192,192,9891,128,0,10436:0:0:0:0:
448,192,9891,1,0,0:0:0:0:
320,192,10436,128,0,10982:0:0:0:0:
64,192,10982,128,0,12073:0:0:0:0:
448,192,10982,1,0,0:0:0:0:
320,192,11527,1,0,0:0:0:0:
192,192,12073,1,0,0:0:0:0:
448,192,12073,128,0,13164:0:0:0:0:
320,192,12618,1,0,0:0:0:0:
64,192,13164,128,0,13709:0:0:0:0:
192,192,13164,1,0,0:0:0:0:
320,192,13709,128,0,14254:0:0:0:0:
448,192,13709,1,0,0:0:0:0:
64,192,14254,1,0,0:0:0:0:
192,192,14254,128,0,15345:0:0:0:0:
320,192,14800,1,0,0:0:0:0:
64,192,15345,1,0,0:0:0:0:
448,192,15345,128,0,15891:0:0:0:0:
64,192,15891,128,0,16436:0:0:0:0:
192,192,15891,1,0,0:0:0:0:
320,192,16436,128,0,16982:0:0:0:0:
448,192,16436,1,0,0:0:0:0:
192,192,16982,128,0,17527:0:0:0:0:
64,192,17527,128,0,18073:0:0:0:0:
448,192,17527,1,0,0:0:0:0:
320,192,18073,1,0,0:0:0:0:
448,192,18073,128,0,18618:0:0:0:0:
64,192,18618,1,4,0:0:0:0:
192,192,18618,1,0,0:0:0:0:
64,192,19709,1,2,0:0:0:0:
448,192,19709,1,0,0:0:0:0:
320,192,19982,1,0,0:0:0:40:LR_Drum Hit Drop High.wav
192,192,20254,1,0,0:0:0:40:LR_Drum Hit Drop High.wav
320,192,20254,1,0,0:0:0:0:
64,192,20800,128,4,21345:0:0:0:0:
448,192,20800,1,2,0:0:0:0:
320,192,21345,1,8,0:0:0:0:
448,192,21891,128,2,22436:0:0:0:0:
64,192,22436,1,8,0:0:0:0:
320,192,22982,128,2,23527:0:0:0:0:
64,192,23527,128,8,24073:0:0:0:0:
448,192,24073,128,2,24618:0:0:0:0:
64,192,24618,1,8,0:0:0:0:
192,192,24618,1,0,0:0:0:0:
320,192,24891,1,2,0:0:0:0:
64,192,25164,128,2,25709:0:0:0:0:
448,192,25164,1,0,0:0:0:0:
320,192,25709,1,8,0:0:0:0:
192,192,25982,1,0,0:0:0:60:LR_HiHat Click.wav
448,192,26254,128,2,26800:0:0:0:0:
192,192,26800,1,8,0:0:0:0:
320,192,27073,1,0,0:0:0:60:LR_HiHat Click.wav
64,192,27345,128,2,27891:0:0:0:0:
448,192,27891,128,8,28436:0:0:0:0:
192,192,28436,1,2,0:0:0:0:
192,192,28709,1,2,0:0:0:0:
320,192,28982,1,8,0:0:0:0:
448,192,28982,1,0,0:0:0:0:
64,192,29527,1,2,0:0:0:0:
192,192,29527,1,4,0:0:0:0:
448,192,30073,1,8,0:0:0:0:
64,192,30618,1,2,0:0:0:0:
320,192,31164,1,8,0:0:0:0:
192,192,31709,1,2,0:0:0:0:
448,192,32254,1,8,0:0:0:0:
192,192,32800,1,2,0:0:0:0:
192,192,33073,1,2,0:0:0:0:
64,192,33345,1,8,0:0:0:0:
448,192,33345,1,0,0:0:0:0:
320,192,33618,1,2,0:0:0:0:
320,192,33891,1,2,0:0:0:0:
192,192,34436,1,8,0:0:0:0:
448,192,34982,1,2,0:0:0:0:
320,192,35527,1,8,0:0:0:0:
64,192,36073,128,2,36618:0:0:0:0:
448,192,36618,128,8,37164:0:0:0:0:
192,192,37164,1,2,0:0:0:0:
192,192,37436,1,2,0:0:0:0:
320,192,37709,1,8,0:0:0:0:
448,192,37709,1,0,0:0:0:0:
64,192,38254,1,2,0:0:0:0:
192,192,38254,1,4,0:0:0:0:
320,192,38800,1,8,0:0:0:0:
64,192,39345,1,2,0:0:0:0:
448,192,39891,1,8,0:0:0:0:
192,192,40436,1,2,0:0:0:0:
320,192,40982,1,8,0:0:0:0:
64,192,41527,1,2,0:0:0:0:
64,192,41800,1,2,0:0:0:0:
192,192,42073,1,8,0:0:0:0:
320,192,42073,1,0,0:0:0:0:
448,192,42345,1,2,0:0:0:0:
448,192,42618,1,2,0:0:0:0:
192,192,43164,1,8,0:0:0:0:
64,192,43709,1,2,0:0:0:0:
448,192,44254,1,8,0:0:0:0:
320,192,44800,128,2,45345:0:0:0:0:
192,192,45345,128,8,45891:0:0:0:0:
320,192,45891,1,2,0:0:0:0:
64,192,46436,1,8,0:0:0:0:
448,192,46436,1,0,0:0:0:0:
192,192,46709,1,2,0:0:0:0:
320,192,46982,128,2,47527:0:0:0:0:
448,192,46982,1,4,0:0:0:0:
64,192,47527,1,0,0:0:0:50:clap_finger.wav
448,192,47800,1,2,0:0:0:0:
192,192,48073,128,8,48618:0:0:0:0:
448,192,48618,1,0,0:0:0:50:clap_finger.wav
320,192,48891,1,2,0:0:0:0:
64,192,49164,128,2,49709:0:0:0:0:
448,192,49709,1,0,0:0:0:50:clap_finger.wav
192,192,49982,1,0,0:0:0:60:LR_HiHat Click.wav
320,192,50254,128,2,50800:0:0:0:0:
64,192,50800,1,8,0:0:0:0:
192,192,51345,128,2,51891:0:0:0:0:
320,192,51891,1,0,0:0:0:50:clap_finger.wav
64,192,52164,1,2,0:0:0:0:
448,192,52436,128,8,52982:0:0:0:0:
320,192,52982,1,0,0:0:0:50:clap_finger.wav
192,192,53254,1,6,0:0:0:0:
192,192,53527,1,2,0:0:0:0:
448,192,53527,1,4,0:0:0:0:
64,192,54073,1,8,0:0:0:0:
448,192,54618,1,2,0:0:0:0:
192,192,55164,1,8,0:0:0:0:
320,192,55709,1,2,0:0:0:0:
64,192,56254,1,8,0:0:0:0:
448,192,56800,1,2,0:0:0:0:
320,192,57345,1,8,0:0:0:0:
64,192,57891,128,4,58982:0:0:0:0:
192,192,57891,1,8,0:0:0:0:
320,192,58436,1,8,0:0:0:0:
448,192,58982,128,8,60073:0:0:0:0:
192,192,59527,1,8,0:0:0:0:
320,192,60073,128,8,61164:0:0:0:0:
64,192,60618,1,8,0:0:0:0:
192,192,61164,128,2,61709:0:0:0:0:
320,192,61709,1,8,0:0:0:0:
64,192,61982,1,0,0:0:0:60:Tom 2.wav
64,192,62254,128,4,62800:0:0:0:0:
448,192,62254,1,2,0:0:0:0:
320,192,62800,1,8,0:0:0:0:
448,192,62800,1,0,0:0:0:0:
192,192,63073,1,0,0:0:0:60:LR_HiHat Click.wav
192,192,63345,128,2,63891:0:0:0:0:
64,192,63891,1,8,0:0:0:0:
448,192,63891,1,0,0:0:0:0:
320,192,64164,1,0,0:0:0:60:LR_HiHat Click.wav
64,192,64436,1,2,0:0:0:0:
448,192,64709,1,0,0:0:0:60:LR_HiHat Click.wav
64,192,64982,1,8,0:0:0:0:
192,192,64982,1,0,0:0:0:0:
320,192,65254,1,0,0:0:0:60:LR_HiHat Click.wav
320,192,65527,128,2,66073:0:0:0:0:
64,192,66073,1,8,0:0:0:0:
192,192,66073,128,0,66618:0:0:0:0:
448,192,66618,128,2,67027:0:0:0:0:
64,192,67027,128,0,67436:0:0:0:0:
320,192,67436,1,0,0:0:0:60:LR_HiHat Click.wav
320,192,67709,128,2,68118:0:0:0:0:
192,192,68118,128,0,68527:0:0:0:0:
448,192,68527,1,0,0:0:0:60:LR_HiHat Click.wav
448,192,68800,128,2,69345:0:0:0:0:
64,192,69345,128,8,69891:0:0:0:0:
320,192,69345,1,0,0:0:0:0:
192,192,69891,1,2,0:0:0:0:
192,192,70164,1,2,0:0:0:0:
64,192,70436,1,8,0:0:0:0:
448,192,70436,1,0,0:0:0:0:
320,192,70709,1,2,0:0:0:0:
192,192,70982,1,2,0:0:0:0:
320,192,70982,128,4,71527:0:0:0:0:
64,192,71527,1,8,0:0:0:0:
448,192,71527,1,0,0:0:0:0:
192,192,71800,1,0,0:0:0:60:LR_HiHat Click.wav
192,192,72073,128,2,72618:0:0:0:0:
320,192,72618,1,8,0:0:0:0:
448,192,72618,1,0,0:0:0:0:
64,192,72891,1,0,0:0:0:60:LR_HiHat Click.wav
320,192,73164,1,2,0:0:0:0:
192,192,73436,1,0,0:0:0:60:LR_HiHat Click.wav
64,192,73709,1,8,0:0:0:0:
448,192,73709,1,0,0:0:0:0:
320,192,73982,1,0,0:0:0:60:LR_HiHat Click.wav
192,192,74254,128,2,74800:0:0:0:0:
64,192,74800,1,8,0:0:0:0:
320,192,74800,128,0,75345:0:0:0:0:
64,192,75345,128,2,75754:0:0:0:0:
448,192,75754,128,0,76164:0:0:0:0:
192,192,76164,1,0,0:0:0:60:LR_HiHat Click.wav
192,192,76436,128,2,76845:0:0:0:0:
320,192,76845,128,0,77254:0:0:0:0:
64,192,77254,1,0,0:0:0:60:LR_HiHat Click.wav
64,192,77527,128,2,78073:0:0:0:0:
320,192,78073,1,8,0:0:0:0:
448,192,78073,128,0,78618:0:0:0:0:
192,192,78618,1,2,0:0:0:0:
320,192,78891,1,0,0:0:0:40:LR_Drum Hit Drop High.wav
448,192,78891,1,0,0:0:0:0:
64,192,79164,1,8,0:0:0:0:
192,192,79164,1,0,0:0:0:60:Tom 2.wav
320,192,79709,1,2,0:0:0:0:
448,192,79709,128,4,80254:0:0:0:0:
64,192,80254,1,8,0:0:0:0:
192,192,80254,1,0,0:0:0:0:
320,192,80527,1,0,0:0:0:60:LR_HiHat Click.wav
448,192,80800,1,2,0:0:0:0:
192,192,81073,1,0,0:0:0:60:LR_HiHat Click.wav
192,192,81345,1,8,0:0:0:0:
320,192,81345,128,0,81891:0:0:0:0:
64,192,81891,128,2,82436:0:0:0:0:
448,192,81891,1,0,0:0:0:0:
320,192,82436,1,8,0:0:0:0:
448,192,82436,1,0,0:0:0:0:
192,192,82709,1,0,0:0:0:60:LR_HiHat Click.wav
64,192,82982,1,2,0:0:0:0:
320,192,83254,1,2,0:0:0:0:
192,192,83527,128,8,84073:0:0:0:0:
320,192,83527,1,0,0:0:0:0:
448,192,84073,128,2,84618:0:0:0:0:
64,192,84618,128,8,85164:0:0:0:0:
192,192,84618,1,0,0:0:0:0:
448,192,85164,1,2,0:0:0:0:
320,192,85436,1,0,0:0:0:60:LR_HiHat Click.wav
64,192,85709,1,8,0:0:0:0:
192,192,85709,1,0,0:0:0:0:
448,192,85982,1,0,0:0:0:60:LR_HiHat Click.wav
320,192,86254,1,0,0:0:0:0:
64,192,86527,1,0,0:0:0:0:
448,192,86800,1,0,0:0:0:0:
192,192,87073,1,0,0:0:0:0:
320,192,87345,128,0,87891:0:0:0:0:
