osu file format v14

[General]
AudioFilename: audio.mp3
AudioLeadIn: 0
PreviewTime: 61981
Countdown: 0
SampleSet: Soft
StackLeniency: 0.6
Mode: 0
LetterboxInBreaks: 0
WidescreenStoryboard: 0

[Editor]
DistanceSpacing: 0.2
BeatDivisor: 6
GridSize: 16
TimelineZoom: 1.45

[Metadata]
Title:Kyorikan (TV Size)
TitleUnicode:キョリ感 (TV Size)
Artist:HaKoniwalily
ArtistUnicode:ハコニワリリィ
Creator:Ayucchi
Version:Insane
Source:阿波連さんははかれない
Tags:hanon kotoha honeyworks ハニーワークス ハニワ mocaotic japanese pop jpop j-pop anime ed ending lolis aharen-san aharen san wa hakarenai Aharen Is Indecipherable
BeatmapID:3543352
BeatmapSetID:1733601

[Difficulty]
HPDrainRate:5
CircleSize:4
OverallDifficulty:8
ApproachRate:9
SliderMultiplier:1.8
SliderTickRate:1

[Events]
//Background and Video events
0,0,"aharen1.jpg",0,0
//Break Periods
//Storyboard Layer 0 (Background)
//Storyboard Layer 1 (Fail)
//Storyboard Layer 2 (Pass)
//Storyboard Layer 3 (Foreground)
//Storyboard Layer 4 (Overlay)
//Storyboard Sound Samples

[TimingPoints]
1164,545.454545454546,4,2,1,40,1,0
1164,-100,4,2,1,40,0,0
9891,-100,4,2,1,45,0,0
19709,-83.3333333333333,4,2,1,55,0,0
20800,545.454545454546,4,2,1,40,1,0
20800,-66.6666666666667,4,2,1,65,0,0
28436,-47.6190476190476,4,2,1,50,0,0
29527,-83.3333333333333,4,2,1,50,0,0
37163,-62.5,4,2,1,50,0,0
38254,-83.3333333333333,4,2,1,50,0,0
44800,-62.5,4,2,1,50,0,0
46981,-100,4,2,1,40,0,0
53527,545.454545454546,4,2,1,40,1,0
53527,-83.3333333333333,4,2,1,50,0,0
57799,-62.5,4,2,1,65,0,0
62254,-52.6315789473684,4,2,1,75,0,1
79708,-62.5,4,2,1,55,0,0
86254,545.454545454546,4,2,1,30,1,0
86254,-62.5,4,2,1,40,0,0
87345,-333.333333333333,4,2,1,40,0,0
87708,-333.333333333333,4,2,1,5,0,0

[Colours]
Combo1 : 164,220,251
Combo2 : 154,248,175
Combo3 : 216,187,255

[HitObjects]
108,121,1164,5,2,0:2:0:0:
188,151,1436,1,0,0:2:0:0:
255,98,1709,1,0,0:2:0:0:
255,98,2254,5,2,0:2:0:0:
322,151,2527,1,0,0:2:0:0:
402,121,2799,1,0,0:2:0:0:
402,121,3345,5,2,0:2:0:0:
374,199,3618,1,0,0:2:0:0:
502,305,3891,5,0,0:2:0:0:
466,187,4164,1,0,0:2:0:0:
340,273,4436,5,2,0:2:0:0:
260,247,4709,1,0,0:2:0:0:
236,134,4982,5,0,0:2:0:0:
156,160,5255,1,0,0:2:0:0:
74,293,5527,5,2,0:2:0:0:
162,317,5800,1,0,0:2:0:0:
84,199,6073,5,0,0:2:0:0:
69,206,6345,1,0,0:2:0:0:
228,44,6618,5,2,0:2:0:0:
187,183,6891,1,0,0:2:0:0:
86,19,7164,5,0,0:2:0:0:
104,96,7436,1,0,0:2:0:0:
266,133,7709,5,2,0:2:0:0:
392,87,7982,1,0,0:2:0:0:
228,44,8254,5,0,0:2:0:0:
454,156,8527,1,0,0:2:0:0:
367,12,8800,5,2,0:2:0:0:
252,209,9073,1,2,0:2:0:0:
469,334,9345,1,2,0:2:0:0:
428,233,9618,1,0,0:2:0:0:
342,270,9800,5,2,0:2:0:0:
333,266,9891,2,0,B|290:271|303:304|250:309,2,90,6|0|0,0:2|0:2|0:2,0:2:0:0:
324,104,10709,1,0,0:2:0:0:
160,168,10982,6,0,P|173:215|180:262,2,90,2|0|2,0:2|0:2|0:2,0:2:0:0:
44,57,11800,1,0,0:2:0:0:
208,77,12073,5,2,0:2:0:0:
85,213,12345,1,0,0:2:0:0:
125,18,12618,5,0,0:2:0:0:
179,255,12891,1,0,0:2:0:0:
351,143,13164,5,2,0:2:0:0:
127,320,13437,1,0,0:2:0:0:
44,57,13709,1,2,0:2:0:0:
202,17,13982,1,0,0:2:0:0:
323,76,14254,6,0,P|391:61|419:59,1,90,2|0,0:2|0:2,0:2:0:0:
468,189,14709,1,0,0:2:0:0:
476,193,14800,2,0,P|495:148|478:106,1,90,0|0,0:2|0:2,0:2:0:0:
317,166,15345,5,2,0:2:0:0:
196,226,15527,1,0,0:2:0:0:
191,218,15618,1,0,0:2:0:0:
67,180,15800,1,0,0:2:0:0:
62,188,15891,2,0,P|72:229|84:295,1,90,2|0,0:2|0:2,0:2:0:0:
199,110,16436,5,2,0:2:0:0:
317,166,16709,1,0,0:2:0:0:
263,303,16982,5,0,0:2:0:0:
492,209,17254,1,0,0:2:0:0:
359,333,17527,5,2,0:2:0:0:
365,99,17800,1,0,0:2:0:0:
136,47,18073,1,2,0:2:0:0:
92,148,18345,1,0,0:2:0:0:
256,192,18618,5,6,0:2:0:0:
256,192,18709,12,0,19618,1:2:0:0:
256,192,19709,5,0,3:2:0:0:
162,82,19891,5,2,0:2:0:0:
152,78,19982,2,0,L|142:29,1,35.9999989013672,0|0,1:2|0:2,0:2:0:0:
103,173,20164,5,2,3:2:0:0:
92,174,20255,2,0,L|62:133,1,35.9999989013672,0|0,1:2|0:2,0:2:0:0:
265,106,20436,5,2,0:2:0:0:
258,99,20527,2,0,L|270:51,1,35.9999989013672,4|0,3:2|0:2,0:2:0:0:
190,253,20709,5,2,0:2:0:0:
253,302,20800,2,0,P|300:291|359:281,1,90.0000034332277,6|0,3:2|0:2,0:2:0:0:
425,178,21072,2,0,P|378:167|319:157,1,90.0000034332277,0|0,0:2|0:2,0:2:0:0:
423,318,21345,1,0,1:2:0:0:
258,99,21618,6,0,L|189:117,1,45.0000017166138,2|0,0:2|0:2,0:2:0:0:
167,170,21800,5,0,3:2:0:0:
158,176,21890,2,0,P|127:144|135:93,1,90.0000034332277,2|0,3:2|0:2,0:2:0:0:
276,16,22163,2,0,P|269:61|265:105,1,90.0000034332277,0|0,0:2|0:2,0:2:0:0:
79,42,22436,1,0,1:2:0:0:
10,248,22709,6,0,P|54:237|113:226,1,90.0000034332277,2|0,0:2|0:2,0:2:0:0:
220,355,22981,6,0,P|252:323|235:257,1,90.0000034332277,2|0,3:2|0:2,0:2:0:0:
185,193,23254,2,0,P|173:257|171:300,1,90.0000034332277,0|0,0:2|0:2,0:2:0:0:
319,375,23527,6,0,P|383:355|418:349,1,90.0000034332277,2|0,1:2|0:2,0:2:0:0:
328,251,23800,2,0,P|311:229|308:204,2,45.0000017166138,2|2|2,0:2|0:2|3:2,0:2:0:0:
487,355,24072,6,0,P|494:304|504:258,1,90.0000034332277,2|0,3:2|0:2,0:2:0:0:
400,101,24345,2,0,P|393:152|383:198,1,90.0000034332277,0|0,3:2|0:2,0:2:0:0:
468,193,24618,6,0,P|490:186|520:181,2,45.0000017166138,2|0|0,1:2|0:2|0:2,0:2:0:0:
342,35,24890,2,0,P|287:51|232:63,1,90.0000034332277,0|0,3:2|0:2,0:2:0:0:
56,144,25163,6,0,P|24:105|32:55,1,90.0000034332277,2|0,3:2|0:2,0:2:0:0:
89,22,25436,1,0,0:2:0:0:
195,155,25618,5,2,0:2:0:0:
206,162,25709,2,0,P|261:146|316:134,1,90.0000034332277,0|0,1:2|0:2,0:2:0:0:
173,77,25981,1,2,0:2:0:0:
110,209,26163,5,0,3:2:0:0:
184,244,26254,2,0,P|166:306|159:358,1,90.0000034332277,2|0,3:2|0:2,0:2:0:0:
246,329,26527,1,2,0:2:0:0:
93,377,26709,5,2,0:2:0:0:
78,384,26800,2,0,P|57:336|84:279,1,90.0000034332277,0|0,1:2|0:2,0:2:0:0:
191,237,27072,2,0,P|248:245|307:251,1,90.0000034332277,2|0,0:2|0:2,0:2:0:0:
480,354,27345,6,0,P|500:302|474:254,1,90.0000034332277,2|0,3:2|0:2,0:2:0:0:
324,318,27618,2,0,P|381:310|440:304,1,90.0000034332277,0|0,0:2|0:2,0:2:0:0:
334,94,27890,6,0,P|314:146|340:194,1,90.0000034332277,2|0,1:2|0:2,0:2:0:0:
490,130,28163,2,0,P|433:138|374:144,1,90.0000034332277,0|0,0:2|3:2,0:2:0:0:
144,166,28436,6,0,B|149:105|98:125|105:52,1,125.999996154785,2|0,3:1|0:2,0:2:0:0:
238,173,28709,6,0,B|242:234|191:214|198:286,1,125.999996154785,2|0,3:1|0:2,0:2:0:0:
252,52,28981,6,0,P|217:58|179:64,1,62.9999980773926,2|0,1:1|0:2,0:2:0:0:
1,117,29163,1,0,1:2:0:0:
29,189,29254,2,0,P|97:175|177:166,1,125.999996154785,0|0,3:2|0:2,0:2:0:0:
175,366,29527,6,0,P|129:342|117:283,2,107.999996704102,6|0|0,3:2|0:2|1:2,0:2:0:0:
372,360,30345,1,0,0:2:0:0:
289,269,30527,5,0,3:2:0:0:
278,275,30618,2,0,P|288:334|293:365,1,71.9999978027344,2|0,3:2|0:2,0:2:0:0:
380,362,30890,2,0,P|401:341|391:282,1,71.9999978027344,0|0,0:2|0:2,0:2:0:0:
360,235,31163,1,0,1:2:0:0:
442,74,31436,2,0,P|482:82|542:94,1,71.9999978027344,2|0,0:2|0:2,0:2:0:0:
383,17,31709,6,0,P|360:43|368:97,1,71.9999978027344,2|0,3:2|0:2,0:2:0:0:
407,149,31981,2,0,P|367:157|307:169,1,71.9999978027344,0|0,0:2|0:2,0:2:0:0:
206,81,32254,2,0,P|243:75|306:61,1,71.9999978027344,2|0,1:2|0:2,0:2:0:0:
139,35,32527,1,0,0:2:0:0:
259,152,32709,5,0,3:2:0:0:
252,160,32800,2,0,P|269:218|279:258,1,71.9999978027344,2|0,3:2|0:2,0:2:0:0:
112,110,33072,2,0,P|129:52|139:12,1,71.9999978027344,0|0,3:2|0:2,0:2:0:0:
276,68,33345,5,0,1:2:0:0:
172,178,33618,1,0,3:2:0:0:
43,152,33800,5,2,0:2:0:0:
35,159,33890,2,0,P|14:102|41:59,2,107.999996704102,0|0|0,3:2|0:2|1:2,0:2:0:0:
271,229,34709,1,2,0:2:0:0:
124,240,34890,5,2,3:2:0:0:
119,248,34981,2,0,B|124:315|168:285|166:371,2,107.999996704102,0|0|0,3:2|0:2|1:2,0:2:0:0:
276,68,35800,1,0,0:2:0:0:
170,148,35981,5,2,0:2:0:0:
178,157,36072,2,0,P|237:147|277:144,1,71.9999978027344,0|0,3:2|0:2,0:2:0:0:
282,64,36345,2,0,P|341:74|381:77,1,71.9999978027344,0|0,0:2|0:2,0:2:0:0:
444,163,36618,2,0,P|474:130|469:91,1,71.9999978027344,2|0,1:2|0:2,0:2:0:0:
426,43,36890,1,0,0:2:0:0:
363,151,37072,5,0,3:2:0:0:
311,211,37163,2,0,P|320:258|331:324,1,96,2|0,3:2|0:2,0:2:0:0:
461,376,37436,2,0,P|469:328|478:281,1,96,2|0,3:2|0:2,0:2:0:0:
367,157,37709,6,0,P|314:194|246:159,1,144,2|0,1:2|3:2,0:2:0:0:
47,358,38254,5,6,3:2:0:0:
115,274,38436,5,2,0:2:0:0:
109,261,38527,1,2,0:2:0:0:
32,181,38709,5,2,0:2:0:0:
38,168,38800,1,0,1:2:0:0:
181,131,38981,5,2,0:2:0:0:
175,118,39072,1,2,0:2:0:0:
12,40,39254,5,0,3:2:0:0:
18,27,39345,2,0,B|82:25|57:70|134:64,2,107.999996704102,2|0|0,3:2|0:2|1:2,0:2:0:0:
184,219,40163,2,0,P|216:196|254:194,1,71.9999978027344,2|0,0:2|0:2,0:2:0:0:
347,345,40436,6,0,P|302:334|256:329,1,71.9999978027344,2|0,3:2|0:2,0:2:0:0:
342,181,40709,2,0,P|330:231|324:264,1,71.9999978027344,0|0,0:2|0:2,0:2:0:0:
412,379,40981,2,0,P|446:358|447:305,1,71.9999978027344,2|0,1:2|0:2,0:2:0:0:
403,270,41254,1,0,0:2:0:0:
276,330,41436,5,0,3:2:0:0:
264,336,41527,2,0,P|243:296|251:252,1,71.9999978027344,2|0,3:2|0:2,0:2:0:0:
337,176,41800,2,0,P|389:188|419:195,1,71.9999978027344,2|0,3:2|0:2,0:2:0:0:
284,117,42072,5,0,1:2:0:0:
478,230,42345,1,0,3:2:0:0:
475,70,42527,5,2,0:2:0:0:
465,64,42618,2,0,P|407:83|356:97,2,107.999996704102,0|0|0,3:2|0:2|1:2,0:2:0:0:
326,251,43436,1,2,0:2:0:0:
206,113,43618,5,0,3:2:0:0:
197,119,43709,2,0,P|193:179|240:220,2,107.999996704102,2|0|0,3:2|0:2|1:2,0:2:0:0:
383,177,44527,1,0,0:2:0:0:
373,332,44709,5,2,0:2:0:0:
365,324,44800,2,0,P|309:338|245:353,1,96,2|0,3:2|0:2,0:2:0:0:
137,241,45072,2,0,P|193:227|257:212,1,96,2|0,0:2|0:2,0:2:0:0:
88,364,45345,5,2,1:2:0:0:
16,214,45527,1,2,0:2:0:0:
10,206,45618,2,0,L|26:145,1,48,2|0,0:2|0:2,0:2:0:0:
107,154,45800,5,0,3:2:0:0:
103,164,45890,2,0,L|149:149,2,48,2|2|2,3:2|0:2|0:2,0:2:0:0:
115,27,46163,2,0,L|69:42,2,48,2|2|2,0:2|0:2|0:2,0:2:0:0:
186,74,46436,5,0,1:2:0:0:
83,239,46618,1,0,1:2:0:0:
10,206,46709,2,0,P|26:135|38:83,1,96,0|0,3:2|0:2,0:2:0:0:
231,199,46981,6,0,B|283:185|264:159|325:151,2,90,6|0|0,3:2|0:2|0:2,0:2:0:0:
309,41,47800,1,0,3:2:0:0:
439,117,47981,5,0,3:2:0:0:
444,125,48072,2,0,P|428:179|423:227,2,90,2|0|0,1:2|0:2|0:2,0:2:0:0:
334,231,48890,1,0,3:2:0:0:
475,329,49163,6,0,P|445:299|378:304,1,90,2|0,3:2|0:2,0:2:0:0:
250,229,49709,2,0,P|220:259|153:254,1,90,0|0,0:2|0:2,0:2:0:0:
304,338,50163,5,0,3:2:0:0:
314,328,50254,2,0,P|321:286|332:238,2,90,2|0|0,3:2|0:2|1:2,0:2:0:0:
211,349,50981,5,0,3:2:0:0:
199,341,51072,1,2,3:2:0:0:
98,230,51254,5,0,3:2:0:0:
86,238,51345,2,0,P|75:284|122:325,2,90,2|0|0,3:2|0:2|0:2,0:2:0:0:
224,170,52163,1,0,3:2:0:0:
129,116,52345,5,0,3:2:0:0:
123,125,52436,2,0,P|82:138|18:150,1,90,2|0,1:2|0:2,0:2:0:0:
86,22,52890,5,0,3:2:0:0:
100,28,52981,1,0,1:2:0:0:
232,88,53163,5,0,3:2:0:0:
246,82,53254,2,0,L|262:18,1,60,2|0,3:2|0:2,0:2:0:0:
336,5,53527,6,0,P|369:32|373:72,1,71.9999978027344,6|0,3:2|0:2,0:2:0:0:
314,212,53799,2,0,P|309:170|301:141,1,71.9999978027344,0|0,0:2|0:2,0:2:0:0:
463,143,54072,2,0,P|407:137|375:132,1,71.9999978027344,2|0,1:2|0:2,0:2:0:0:
248,229,54345,2,0,P|283:224|319:220,1,71.9999978027344,0|0,0:2|0:2,0:2:0:0:
453,322,54617,6,0,P|482:282|440:214,2,107.999996704102,2|0|0,3:2|0:2|1:2,0:2:0:0:
301,141,55436,1,2,0:2:0:0:
295,131,55708,6,0,P|302:82|310:35,1,71.9999978027344,2|0,3:2|0:2,0:2:0:0:
151,95,55981,2,0,P|179:123|221:119,1,71.9999978027344,0|0,0:2|0:2,0:2:0:0:
355,210,56254,2,0,P|319:218|281:226,1,71.9999978027344,2|0,1:2|0:2,0:2:0:0:
136,249,56527,2,0,P|128:213|120:178,1,71.9999978027344,0|0,0:2|0:2,0:2:0:0:
244,301,56799,1,2,3:2:0:0:
256,294,57072,6,0,P|267:330|256:365,1,71.9999978027344,2|0,0:2|0:2,0:2:0:0:
131,255,57345,2,0,L|81:249,1,35.9999989013672,2|0,1:2|0:2,0:2:0:0:
0,126,57527,5,0,3:2:0:0:
7,114,57617,2,0,P|53:125|89:99,1,71.9999978027344,2|0,3:2|0:2,0:2:0:0:
161,25,57890,6,0,P|154:77|152:133,1,96,2|0,1:2|0:2,0:2:0:0:
283,219,58163,2,0,P|239:188|184:204,1,96,2|0,3:2|0:2,0:2:0:0:
241,64,58436,6,0,P|287:60|358:50,1,96,0|0,1:2|0:2,0:2:0:0:
401,166,58708,2,0,P|412:115|428:67,1,96,2|0,3:2|0:2,0:2:0:0:
367,241,58981,6,0,P|408:286|457:273,1,96,2|0,1:2|0:2,0:2:0:0:
502,145,59254,2,0,P|452:158|405:172,1,96,2|0,3:2|0:2,0:2:0:0:
304,338,59527,6,0,P|263:293|214:306,1,96,2|0,1:2|0:2,0:2:0:0:
108,378,59799,2,0,P|95:314|80:267,1,96,2|0,3:2|0:2,0:2:0:0:
204,124,60072,6,0,P|232:176|215:218,1,96,2|0,1:2|0:2,0:2:0:0:
98,210,60345,2,0,P|121:217|151:225,1,48,2|0,0:2|0:2,0:2:0:0:
162,55,60527,5,0,3:2:0:0:
108,113,60617,2,0,P|53:128|-9:139,1,96,2|0,1:2|0:2,0:2:0:0:
218,215,60890,2,0,P|265:224|311:237,1,96,10|0,2:3|0:2,0:2:0:0:
276,33,61163,6,0,L|287:90,1,48,2|0,3:2|0:2,0:2:0:0:
395,249,61345,1,10,0:3:0:0:
403,240,61436,2,0,P|415:177|430:130,1,96,2|0,3:2|0:2,0:2:0:0:
493,25,61708,6,0,L|440:34,1,48,2|0,1:2|0:2,0:2:0:0:
357,99,61890,5,2,3:2:0:0:
419,153,61981,2,0,P|466:165|513:182,1,96,2|0,3:2|0:2,0:2:0:0:
392,333,62254,6,0,B|398:238|328:285|340:166,2,170.999995433807,6|0|0,3:2|0:2|1:2,0:2:0:0:
264,147,63072,1,0,0:2:0:0:
386,247,63254,5,0,3:2:0:0:
311,316,63345,2,0,P|270:301|193:282,1,113.999996955872,2|0,3:2|0:2,0:2:0:0:
183,134,63617,2,0,P|142:149|65:168,1,113.999996955872,0|0,0:2|0:2,0:2:0:0:
127,316,63890,1,0,1:2:0:0:
264,147,64163,6,0,P|287:93|242:36,1,113.999996955872,2|0,0:2|0:2,0:2:0:0:
67,176,64436,6,0,P|122:189|176:208,1,113.999996955872,0|0,3:2|0:2,0:2:0:0:
152,9,64708,2,0,P|104:52|115:98,1,113.999996955872,0|0,0:2|0:2,0:2:0:0:
276,262,64981,6,0,P|266:186|255:142,1,113.999996955872,2|0,1:2|0:2,0:2:0:0:
207,59,65254,2,0,L|278:43,1,56.9999984779358,2|0,0:2|0:2,0:2:0:0:
435,81,65436,5,0,3:2:0:0:
437,159,65527,2,0,B|374:163|400:118|306:122,1,113.999996955872,2|0,3:2|0:2,0:2:0:0:
320,330,65799,2,0,P|374:354|422:314,1,113.999996955872,2|0,3:2|0:2,0:2:0:0:
257,149,66072,6,0,P|189:162|132:174,1,113.999996955872,0|0,1:2|0:2,0:2:0:0:
230,348,66345,2,0,P|238:279|250:218,1,113.999996955872,0|0,3:2|0:2,0:2:0:0:
78,128,66617,6,0,P|41:197|75:242,1,113.999996955872,2|0,3:2|0:2,0:2:0:0:
148,344,66890,2,0,L|157:285,1,56.9999984779358,0|0,0:2|0:2,0:2:0:0:
246,138,67072,5,2,0:2:0:0:
257,149,67163,2,0,P|324:135|369:127,1,113.999996955872,0|0,1:2|0:2,0:2:0:0:
180,94,67436,1,0,0:2:0:0:
331,24,67617,5,2,3:2:0:0:
387,78,67708,2,0,P|378:114|372:146,1,56.9999984779358,2|0,3:2|0:2,0:2:0:0:
418,290,67890,5,2,0:2:0:0:
474,236,67981,2,0,P|465:200|459:168,1,56.9999984779358,2|0,0:2|0:2,0:2:0:0:
315,290,68163,5,2,0:2:0:0:
366,352,68254,2,0,P|422:375|488:332,1,113.999996955872,2|0,1:2|0:2,0:2:0:0:
309,297,68527,2,0,B|245:294|271:254|202:254,1,113.999996955872,0|0,0:2|0:2,0:2:0:0:
59,353,68799,6,0,P|49:286|32:211,1,113.999996955872,2|0,3:2|0:2,0:2:0:0:
192,84,69072,2,0,P|231:122|199:186,1,113.999996955872,0|0,0:2|0:2,0:2:0:0:
21,154,69345,6,0,P|80:164|138:170,1,113.999996955872,2|0,1:2|0:2,0:2:0:0:
147,357,69617,2,0,P|143:324|134:279,1,56.9999984779358,0|0,0:2|0:2,0:2:0:0:
113,84,69799,5,0,3:2:0:0:
217,183,69890,2,0,P|259:139|324:149,1,113.999996955872,2|0,3:2|0:2,0:2:0:0:
469,89,70163,2,0,P|427:45|362:55,1,113.999996955872,2|0,3:2|0:2,0:2:0:0:
377,238,70436,6,0,P|386:170|398:120,1,113.999996955872,2|0,1:2|0:2,0:2:0:0:
291,1,70708,2,0,P|296:41|298:85,1,56.9999984779358,0|0,3:2|0:2,0:2:0:0:
296,230,70890,5,2,0:2:0:0:
450,271,70981,2,0,P|384:269|328:357,2,170.999995433807,6|0|0,3:2|0:2|1:2,0:2:0:0:
240,296,71799,1,0,0:2:0:0:
367,183,71981,5,0,3:2:0:0:
305,236,72072,2,0,P|321:299|328:361,1,113.999996955872,2|0,3:2|0:2,0:2:0:0:
163,265,72345,2,0,P|179:202|186:140,1,113.999996955872,0|0,0:2|0:2,0:2:0:0:
324,117,72617,1,0,1:2:0:0:
155,11,72890,6,0,P|112:62|129:114,1,113.999996955872,2|0,0:2|0:2,0:2:0:0:
59,280,73163,6,0,P|116:265|213:251,1,113.999996955872,0|0,3:2|0:2,0:2:0:0:
327,347,73436,2,0,P|350:293|319:242,1,113.999996955872,0|0,0:2|0:2,0:2:0:0:
196,78,73708,6,0,P|253:93|350:107,1,113.999996955872,2|0,1:2|0:2,0:2:0:0:
469,22,73981,2,0,P|489:44|491:80,1,56.9999984779358,2|0,0:2|0:2,0:2:0:0:
412,226,74163,5,0,3:2:0:0:
375,160,74254,2,0,B|365:103|413:118|395:42,1,113.999996955872,2|0,3:2|0:2,0:2:0:0:
225,165,74527,2,0,B|215:222|263:207|245:283,1,113.999996955872,2|0,3:2|0:2,0:2:0:0:
436,318,74799,6,0,P|366:333|305:356,1,113.999996955872,0|0,1:2|0:2,0:2:0:0:
137,244,75072,2,0,P|191:261|247:273,1,113.999996955872,0|0,3:2|0:2,0:2:0:0:
55,368,75345,6,0,P|18:320|37:260,1,113.999996955872,2|0,3:2|0:2,0:2:0:0:
95,175,75617,2,0,P|126:166|167:151,1,56.9999984779358,0|0,0:2|0:2,0:2:0:0:
13,18,75799,5,2,0:2:0:0:
0,30,75890,2,0,P|18:94|27:150,1,113.999996955872,2|0,1:2|0:2,0:2:0:0:
140,15,76163,1,0,0:2:0:0:
234,174,76345,5,2,3:2:0:0:
262,103,76436,2,0,L|196:78,1,56.9999984779358,2|0,3:2|0:2,0:2:0:0:
393,216,76617,5,2,0:2:0:0:
372,143,76708,2,0,L|318:163,1,56.9999984779358,2|0,0:2|0:2,0:2:0:0:
368,33,76890,5,2,0:2:0:0:
438,0,76981,2,0,P|471:45|463:99,1,113.999996955872,2|0,1:2|0:2,0:2:0:0:
399,222,77254,2,0,P|463:196|527:179,1,113.999996955872,0|0,0:2|0:2,0:2:0:0:
345,359,77527,6,0,P|343:295|282:255,1,113.999996955872,2|0,3:2|0:2,0:2:0:0:
180,101,77799,2,0,P|178:165|117:205,1,113.999996955872,0|0,0:2|0:2,0:2:0:0:
27,354,78072,6,0,P|92:328|173:319,1,113.999996955872,2|0,1:2|0:2,0:2:0:0:
239,213,78345,2,0,L|225:277,1,56.9999984779358,0|0,0:2|0:2,0:2:0:0:
74,227,78527,5,0,3:2:0:0:
144,197,78617,2,0,P|88:186|36:163,1,113.999996955872,2|0,3:2|0:2,0:2:0:0:
204,359,78890,2,0,P|231:349|272:340,1,56.9999984779358,2|0,3:2|0:2,0:2:0:0:
203,139,79072,5,0,3:2:0:0:
330,230,79163,2,0,P|327:258|309:278,2,56.9999984779358,2|0|0,1:2|0:2|0:2,0:2:0:0:
289,143,79436,2,0,P|276:67|256:16,1,113.999996955872,0|0,3:2|0:2,0:2:0:0:
446,8,79708,6,0,P|470:51|449:103,1,96,6|0,3:2|0:2,0:2:0:0:
390,129,79981,1,0,0:2:0:0:
506,253,80163,5,2,0:2:0:0:
497,244,80254,2,0,P|442:258|395:264,1,96,0|0,1:2|0:2,0:2:0:0:
453,340,80527,1,0,0:2:0:0:
241,251,80708,5,0,3:2:0:0:
233,243,80799,2,0,P|270:186|354:193,2,144,2|0|0,3:2|0:2|1:2,0:2:0:0:
208,83,81617,1,0,0:2:0:0:
163,339,81890,6,0,P|151:278|127:226,1,96,2|0,3:2|0:2,0:2:0:0:
62,230,82163,1,0,0:2:0:0:
45,60,82345,5,2,0:2:0:0:
52,50,82436,2,0,P|104:63|114:119,1,96,0|0,1:2|0:2,0:2:0:0:
59,146,82708,1,0,0:2:0:0:
266,164,82890,5,0,3:2:0:0:
259,156,82981,2,0,B|247:68|313:106|288:-11,2,144,2|0|0,3:2|3:2|1:2,0:2:0:0:
261,346,83799,2,0,P|331:324|382:319,1,96,0|0,3:2|0:2,0:2:0:0:
491,278,84072,6,0,P|497:248|487:221,1,48,2|0,3:2|0:2,0:2:0:0:
371,236,84254,5,2,0:2:0:0:
377,230,84345,2,0,P|362:203|337:188,1,48,2|0,0:2|0:2,0:2:0:0:
457,144,84527,5,2,0:2:0:0:
450,134,84617,2,0,P|466:72|521:37,1,96,2|0,1:2|0:2,0:2:0:0:
410,9,84890,1,0,0:2:0:0:
327,105,85072,5,0,3:2:0:0:
323,116,85163,2,0,P|274:132|196:152,1,96,2|0,3:2|0:2,0:2:0:0:
225,242,85436,2,0,P|176:226|98:206,1,96,0|0,0:2|0:2,0:2:0:0:
123,45,85708,6,0,P|156:87|149:128,1,96,0|0,1:2|0:2,0:2:0:0:
81,283,85981,2,0,P|48:241|55:200,1,96,0|0,0:2|0:2,0:2:0:0:
264,313,86254,5,2,0:2:0:0:
320,247,86436,1,2,0:2:0:0:
316,236,86527,1,2,0:2:0:0:
231,143,86799,5,2,0:2:0:0:
297,89,86981,1,2,0:2:0:0:
301,78,87072,1,2,0:2:0:0:
381,299,87345,6,0,L|386:339,1,35.9999989013672,2|0,0:2|0:2,0:2:0:0:
