osu file format v14

[General]
AudioFilename: audio.mp3
AudioLeadIn: 0
PreviewTime: 46000
Countdown: 1
SampleSet: Soft
StackLeniency: 0.7
Mode: 0
LetterboxInBreaks: 0
WidescreenStoryboard: 1

[Editor]
Bookmarks: 10350,20213,33363,46514,59665,72815,85966,99117,112267,125418,138569,151719,166514,181308,194458,207609
DistanceSpacing: 1
BeatDivisor: 4
GridSize: 4
TimelineZoom: 1

[Metadata]
Title:Bubble Pop!
TitleUnicode:Bubble Pop!
Artist:HYUNA
ArtistUnicode:HYUNA
Creator:ezek
Version:Easy
Source:
Tags:kpop k-pop just dance 2018 Kim Hyun-a 4minute Lilyanna 현아
BeatmapID:1360782
BeatmapSetID:641784

[Difficulty]
HPDrainRate:3
CircleSize:3
OverallDifficulty:3
ApproachRate:3
SliderMultiplier:1
SliderTickRate:1

[Events]
//Background and Video events
Video,-257,"POOP.mp4"
0,0,"Lilyanna is sexier than this.jpg",0,0
//Break Periods
2,168158,179665
//Storyboard Layer 0 (Background)
//Storyboard Layer 1 (Fail)
//Storyboard Layer 2 (Pass)
//Storyboard Layer 3 (Foreground)
//Storyboard Sound Samples

[TimingPoints]
487,410.958904109589,4,2,1,80,1,0
46514,-100,4,2,1,80,0,1
59562,-100,4,2,1,80,0,0
59665,-100,4,2,1,80,0,1
72815,-100,4,2,1,80,0,0
112267,-100,4,2,1,80,0,1
125315,-100,4,2,1,80,0,0
125418,-100,4,2,1,80,0,1
138569,-100,4,2,1,80,0,0
148740,-100,4,2,1,5,0,0
148945,-100,4,2,1,80,0,0
181308,-100,4,2,1,80,0,1
194479,410.958904109589,4,2,1,80,1,0
194479,-100,4,2,1,80,0,0
207629,-100,4,2,1,10,0,0
210095,-100,4,2,1,80,0,0

[Colours]
Combo1 : 191,182,98
Combo2 : 4,192,198
Combo3 : 206,147,206
Combo4 : 176,176,176

[HitObjects]
44,88,487,6,0,P|120:64|188:156,2,200,2|2|2,0:0|0:0|0:0,0:0:0:0:
48,288,2952,2,0,P|88:332|136:336,1,100,2|8,0:0|0:0,0:0:0:0:
312,268,4185,6,0,B|376:288|376:288|420:328|420:328|492:348,2,200,0|0|0,1:0|1:0|1:0,0:0:0:0:
220,228,6240,2,0,P|252:184|300:172,1,100,2|0,0:0|1:0,0:0:0:0:
388,140,7062,6,0,L|400:36,1,100,2|0,3:0|1:0,0:0:0:0:
204,76,8295,2,0,P|172:52|20:84,2,200,0|0|0,1:0|1:0|1:0,0:0:0:0:
244,168,10350,6,0,L|228:272,1,100,2|0,3:0|1:0,0:0:0:0:
416,336,11582,2,0,B|472:256|472:256|480:152,2,200,0|0|0,1:0|1:0|1:0,0:0:0:0:
332,280,13637,6,0,P|280:272|232:292,1,100,2|0,3:0|1:0,0:0:0:0:
52,360,14870,2,0,L|28:152,2,200,0|0|0,1:0|1:0|1:0,0:0:0:0:
148,332,16925,6,0,L|136:228,2,100,2|0|2,3:0|1:0|0:0,0:0:0:0:
244,368,18158,1,0,1:0:0:0:
324,312,18569,2,0,P|396:300|464:364,2,150,2|0|0,3:0|0:0|1:0,0:0:0:0:
244,368,20213,6,0,B|216:300|216:300|228:252|228:252|200:176,1,200,4|2,0:0|0:0,0:0:0:0:
168,84,21445,1,8,0:0:0:0:
256,36,21856,2,0,B|316:12|316:12|452:20,1,200,2|2,3:0|0:0,0:0:0:0:
488,112,23089,1,8,0:0:0:0:
388,124,23500,6,0,P|348:160|376:292,1,200,2|2,3:0|0:0,0:0:0:0:
460,336,24733,1,8,0:0:0:0:
368,376,25144,2,0,L|264:360,1,100,2|8,3:0|0:0,0:0:0:0:
168,368,25966,2,0,L|64:352,1,100,2|8,0:0|0:0,0:0:0:0:
16,268,26788,6,0,P|8:168|80:96,1,200,2|2,3:0|0:0,0:0:0:0:
172,116,28021,1,8,0:0:0:0:
236,196,28432,2,0,P|288:184|328:148,1,100,2|8,3:0|0:0,0:0:0:0:
364,64,29254,2,0,P|402:33|451:22,1,100,2|8,0:0|0:0,0:0:0:0:
504,108,30076,6,0,L|492:308,1,200,2|2,3:0|0:0,0:0:0:0:
408,360,31308,1,8,0:0:0:0:
320,316,31719,2,0,L|328:160,2,150,2|2|8,3:0|0:0|0:0,0:0:0:0:
228,356,33363,6,0,P|132:364|76:276,1,200,4|2,0:0|0:0,0:0:0:0:
144,212,34596,1,8,0:0:0:0:
92,124,35007,2,0,P|148:46|243:54,1,200,2|2,3:0|0:0,0:0:0:0:
304,136,36240,1,8,0:0:0:0:
384,76,36651,6,0,B|396:140|396:140|452:172|452:172|468:240,1,200,2|2,3:0|0:0,0:0:0:0:
484,340,37884,1,8,0:0:0:0:
388,308,38295,2,0,L|184:292,1,200,2|2,3:0|0:0,0:0:0:0:
104,344,39528,1,8,0:0:0:0:
36,272,39939,6,0,P|20:160|80:112,1,200,2|2,3:0|0:0,0:0:0:0:
164,168,41171,1,8,0:0:0:0:
252,124,41582,2,0,P|244:68|268:12,1,100,2|8,3:0|0:0,0:0:0:0:
340,84,42404,2,0,P|348:140|324:196,1,100,2|8,0:0|0:0,0:0:0:0:
250,234,43226,6,0,P|322:214|409:302,1,200,2|2,3:0|0:0,0:0:0:0:
310,316,44459,1,8,0:0:0:0:
213,341,44870,1,2,3:0:0:0:
12,104,46514,6,0,P|88:64|192:104,1,200,4|2,0:0|0:0,0:0:0:0:
264,168,47747,1,8,0:0:0:0:
176,216,48158,2,0,L|156:384,2,150,2|2|8,3:0|3:0|0:0,0:0:0:0:
264,168,49802,6,0,B|350:125|298:58|386:20,1,200,2|2,3:0|0:0,0:0:0:0:
422,113,51034,1,8,0:0:0:0:
464,204,51445,2,0,B|472:256|472:256|456:300|456:300|464:352,2,150,2|2|8,3:0|3:0|0:0,0:0:0:0:
422,113,53089,6,0,B|364:144|364:208|364:208|280:220,1,200,2|2,3:0|0:0,0:0:0:0:
228,304,54322,1,8,0:0:0:0:
160,232,54733,2,0,B|152:180|152:180|168:136|168:136|160:84,2,150,2|2|8,3:0|3:0|0:0,0:0:0:0:
260,224,56377,6,0,L|328:216,2,50,2|0|8,3:0|0:0|0:0,0:0:0:0:
228,320,57199,2,0,P|180:340|120:332,1,100,2|8,0:0|0:0,0:0:0:0:
36,316,58021,2,0,L|8:364,2,50,2|4|8,3:0|3:0|0:0,0:0:0:0:
88,230,58843,1,8,0:0:0:0:
77,130,59254,1,8,0:0:0:0:
3,62,59665,6,0,P|98:31|169:92,1,200,4|2,0:0|0:0,0:0:0:0:
230,167,60897,1,8,0:0:0:0:
293,91,61308,2,0,B|352:44|352:44|432:44,2,150,2|2|8,3:0|3:0|0:0,0:0:0:0:
227,166,62952,6,0,P|227:238|315:322,1,200,2|2,3:0|0:0,0:0:0:0:
415,314,64185,1,8,0:0:0:0:
439,218,64596,2,0,P|419:146|359:106,2,150,2|2|8,3:0|3:0|0:0,0:0:0:0:
415,314,66240,6,0,B|347:334|347:334|291:302|291:302|223:318,1,200,2|2,3:0|0:0,0:0:0:0:
136,276,67473,1,8,0:0:0:0:
48,228,67884,2,0,P|36:280|88:364,2,150,2|2|8,3:0|3:0|0:0,0:0:0:0:
79,132,69528,6,0,L|63:76,2,50,2|0|8,3:0|0:0|0:0,0:0:0:0:
169,175,70350,2,0,B|221:175|221:175|265:147,1,100,2|8,0:0|0:0,0:0:0:0:
291,53,71171,2,0,L|275:-3,2,50,2|0|8,3:0|0:0|0:0,0:0:0:0:
369,115,71993,1,8,0:0:0:0:
465,138,72404,1,8,0:0:0:0:
500,232,72815,6,0,P|504:284|488:332,1,100,2|0,3:0|1:0,0:0:0:0:
300,264,74048,2,0,P|236:252|144:348,2,200,0|0|0,1:0|1:0|1:0,0:0:0:0:
400,276,76103,6,0,P|444:256|476:208,1,100,2|0,3:0|1:0,0:0:0:0:
359,50,77336,2,0,L|159:38,2,200,0|0|0,1:0|1:0|1:0,0:0:0:0:
451,86,79391,6,0,P|422:126|377:147,1,100,2|0,3:0|1:0,0:0:0:0:
174,146,80623,2,0,B|154:214|154:214|162:274|162:274|138:342,2,200,0|0|0,1:0|1:0|1:0,0:0:0:0:
241,72,82678,6,0,P|197:48|143:51,2,100,2|0|2,3:0|1:0|0:0,0:0:0:0:
292,160,83911,1,0,1:0:0:0:
336,248,84322,2,0,B|352:296|352:296|340:348,1,100,2|2,0:0|0:0,0:0:0:0:
436,376,85144,2,0,B|448:324|448:324|488:288,1,100,0|0,1:0|1:0,0:0:0:0:
496,192,85966,6,0,P|480:136|444:100,2,100,4|8|0,0:0|0:0|0:0,0:0:0:0:
396,188,87199,1,8,0:0:0:0:
296,184,87610,2,0,P|312:240|348:276,2,100,2|8|2,3:0|0:0|0:0,0:0:0:0:
308,84,88843,1,8,0:0:0:0:
216,48,89254,6,0,B|116:64|116:64|56:152,1,200,2|2,3:0|0:0,0:0:0:0:
8,232,90487,1,8,0:0:0:0:
72,308,90897,2,0,P|116:304|180:328,1,100,2|8,3:0|0:0,0:0:0:0:
264,356,91719,2,0,P|311:371|360:368,1,100,2|8,0:0|0:0,0:0:0:0:
452,324,92541,6,0,B|430:256|430:256|392:214|392:214|374:144,1,200,2|0,3:0|0:0,0:0:0:0:
440,72,93774,1,8,0:0:0:0:
348,36,94185,2,0,L|240:28,1,100,2|8,3:0|0:0,0:0:0:0:
152,56,95007,2,0,L|96:52,2,50,2|2|8,0:0|3:0|0:0,0:0:0:0:
224,124,95829,5,2,3:0:0:0:
140,180,96240,1,8,0:0:0:0:
388,348,97473,2,0,P|448:320|456:244,2,150,2|2|8,3:0|0:0|0:0,0:0:0:0:
316,280,99117,6,0,B|256:268|256:268|128:320,1,200,4|2,0:0|0:0,0:0:0:0:
32,348,100350,1,8,0:0:0:0:
12,252,100760,2,0,P|4:156|80:96,1,200,2|2,3:0|0:0,0:0:0:0:
176,128,101993,1,8,0:0:0:0:
236,48,102404,6,0,B|304:40|304:40|368:60|368:60|436:52,1,200,2|2,3:0|0:0,0:0:0:0:
508,116,103637,1,8,0:0:0:0:
416,156,104048,2,0,P|364:180|344:224,1,100,2|8,3:0|0:0,0:0:0:0:
324,316,104870,2,0,P|298:358|253:376,1,100,2|8,0:0|0:0,0:0:0:0:
156,352,105692,6,0,B|96:271|203:254|139:157,1,200,2|2,3:0|0:0,0:0:0:0:
64,100,106925,1,8,0:0:0:0:
148,48,107336,2,0,B|200:32|200:32|252:44,1,100,2|8,3:0|0:0,0:0:0:0:
316,112,108158,2,0,B|360:122|360:122|412:106,1,100,2|8,0:0|0:0,0:0:0:0:
470,24,108980,6,0,P|512:115|464:193,1,200,2|0,3:0|0:0,0:0:0:0:
369,226,110213,1,8,0:0:0:0:
331,318,110623,1,2,3:0:0:0:
184,48,112267,6,0,P|91:17|16:80,1,200,4|2,0:0|0:0,0:0:0:0:
110,115,113500,1,8,0:0:0:0:
168,196,113911,2,0,B|200:236|200:236|244:248|244:248|284:300,2,150,2|2|8,3:0|3:0|0:0,0:0:0:0:
212,104,115555,6,0,P|292:48|392:72,1,200,2|2,3:0|0:0,0:0:0:0:
456,140,116788,1,8,0:0:0:0:
392,220,117199,2,0,L|440:376,2,150,2|2|8,3:0|3:0|0:0,0:0:0:0:
312,160,118843,6,0,B|272:212|304:272|304:272|232:312,1,200,2|2,3:0|0:0,0:0:0:0:
136,324,120076,1,8,0:0:0:0:
94,233,120486,2,0,B|94:182|94:182|117:139|117:139|120:81,2,150,2|2|8,3:0|3:0|0:0,0:0:0:0:
136,324,122130,6,0,L|128:380,2,50,2|0|8,3:0|0:0|0:0,0:0:0:0:
200,244,122952,2,0,P|232:205|241:149,1,100,2|8,0:0|0:0,0:0:0:0:
194,69,123774,2,0,L|182:20,2,50,2|2|8,3:0|3:0|0:0,0:0:0:0:
293,79,124596,1,8,0:0:0:0:
330,171,125007,1,8,0:0:0:0:
270,251,125418,6,0,P|283:328|394:367,1,200,4|2,0:0|0:0,0:0:0:0:
488,360,126651,1,8,0:0:0:0:
508,264,127062,2,0,B|528:184|480:200|512:112,2,150,2|2|8,3:0|3:0|0:0,0:0:0:0:
488,360,128706,6,0,B|416:348|416:348|368:376|368:376|296:364,1,200,2|2,3:0|0:0,0:0:0:0:
200,338,129939,1,8,0:0:0:0:
215,240,130350,2,0,P|137:262|102:323,2,150,2|2|8,3:0|3:0|0:0,0:0:0:0:
282,166,131993,6,0,L|80:132,1,200,2|2,3:0|0:0,0:0:0:0:
12,63,133226,1,8,0:0:0:0:
108,36,133637,2,0,B|176:20|176:20|260:32,2,150,2|2|8,3:0|3:0|0:0,0:0:0:0:
16,72,135281,6,0,L|-4:24,2,50,2|0|8,3:0|0:0|0:0,0:0:0:0:
68,156,136103,2,0,P|80:196|72:260,1,100,2|8,0:0|0:0,0:0:0:0:
36,348,136925,2,0,L|-20:364,2,50,2|4|8,3:0|3:0|0:0,0:0:0:0:
133,323,137747,1,8,0:0:0:0:
232,328,138158,1,8,0:0:0:0:
331,337,138569,5,2,0:0:0:0:
474,197,139391,1,0,0:0:0:0:
367,30,140213,1,0,0:0:0:0:
96,60,141856,6,0,B|80:112|80:112|104:144|104:144|76:192|72:244,1,200,4|8,3:0|0:0,0:0:0:0:
52,344,143089,1,2,3:0:0:0:
148,316,143500,2,0,P|248:296|336:336,1,200,2|8,0:0|0:0,0:0:0:0:
492,212,145144,6,0,B|448:216|412:184|416:144|416:144|372:156|332:136,1,200,2|8,0:0|0:0,0:0:0:0:
384,48,146377,1,6,3:0:0:0:
286,26,146788,2,0,P|241:61|216:109,2,100,2|4|8,0:0|3:0|0:0,0:0:0:0:
230,218,148432,6,0,P|210:282|85:344,1,200,6|8,3:0|0:0,0:0:0:0:
20,284,149665,1,2,3:0:0:0:
84,208,150076,2,0,L|88:92,1,100,4|4,3:0|3:0,0:0:0:0:
380,44,151719,6,0,P|324:72|320:208,1,200,2|8,3:0|0:0,0:0:0:0:
396,248,152952,1,2,3:0:0:0:
396,144,153363,2,0,B|344:108|344:108|280:108|280:108|220:64,1,200,2|8,0:0|0:0,0:0:0:0:
24,104,155007,6,0,L|52:312,1,200,4|8,3:0|0:0,0:0:0:0:
128,364,156240,1,2,3:0:0:0:
188,284,156651,2,0,B|288:272|288:272|384:320,1,200,2|8,0:0|0:0,0:0:0:0:
464,364,157884,1,0,0:0:0:0:
456,264,158295,6,0,B|448:220|448:220|468:192|468:192|480:124|420:88,1,200,2|8,0:0|0:0,0:0:0:0:
324,108,159528,1,2,3:0:0:0:
228,132,159939,2,0,P|180:136|132:112,2,100,0|4|8,0:0|3:0|0:0,0:0:0:0:
68,12,161582,6,0,P|24:64|48:196,1,200,2|8,3:0|0:0,0:0:0:0:
116,256,162815,1,4,3:0:0:0:
200,312,163226,2,0,B|336:300|336:300|400:328,1,200,2|8,0:0|0:0,0:0:0:0:
256,192,164870,12,14,166514,3:0:0:0:
444,224,181308,6,0,P|436:308|336:332,1,200,4|2,0:0|0:0,0:0:0:0:
244,292,182541,1,8,0:0:0:0:
152,332,182952,2,0,B|76:332|76:332|16:288,2,150,2|2|8,3:0|3:0|0:0,0:0:0:0:
244,292,184596,6,0,B|280:208|200:180|244:96,1,200,2|2,3:0|0:0,0:0:0:0:
328,148,185829,1,8,0:0:0:0:
392,72,186240,2,0,P|468:80|512:136,2,150,2|2|8,3:0|3:0|0:0,0:0:0:0:
328,148,187884,6,0,L|128:132,1,200,2|2,3:0|0:0,0:0:0:0:
28,120,189117,1,8,0:0:0:0:
64,212,189528,2,0,P|68:272|24:352,2,150,2|2|8,3:0|3:0|0:0,0:0:0:0:
28,120,191171,6,0,L|8:68,2,50,2|0|8,3:0|0:0|0:0,0:0:0:0:
125,144,191993,2,0,L|165:240,1,100,2|8,0:0|0:0,0:0:0:0:
204,327,192815,2,0,L|264:315,2,50,2|0|8,3:0|0:0|0:0,0:0:0:0:
106,348,193637,1,8,0:0:0:0:
12,312,194048,1,8,0:0:0:0:
35,210,194479,6,0,P|87:202|143:222,1,100,2|0,3:0|1:0,0:0:0:0:
308,308,195711,2,0,P|340:332|492:300,2,200,0|0|0,1:0|1:0|1:0,0:0:0:0:
268,216,197766,6,0,L|284:112,1,100,2|0,3:0|1:0,0:0:0:0:
96,48,198999,2,0,B|40:128|40:128|32:232,2,200,0|0|0,1:0|1:0|1:0,0:0:0:0:
180,104,201054,6,0,P|232:112|280:92,1,100,2|0,3:0|1:0,0:0:0:0:
460,24,202287,2,0,L|484:232,2,200,0|0|0,1:0|1:0|1:0,0:0:0:0:
364,52,204341,6,0,L|376:156,2,100,2|0|2,3:0|1:0|0:0,0:0:0:0:
268,16,205574,1,0,1:0:0:0:
188,72,205985,2,0,P|116:84|48:20,2,150,6|2|0,3:0|3:0|1:0,0:0:0:0:
256,192,207629,12,2,210095,0:0:0:0:
