osu file format v14

[General]
AudioFilename: audio.mp3
AudioLeadIn: 0
PreviewTime: -1
Countdown: 0
SampleSet: None
StackLeniency: 0.4
Mode: 3
LetterboxInBreaks: 0
SpecialStyle: 0
WidescreenStoryboard: 0

[Editor]
DistanceSpacing: 1
BeatDivisor: 5
GridSize: 32
TimelineZoom: 1

[Metadata]
Title:Hysteria
TitleUnicode:Hysteria
Artist:HYSTERIA
ArtistUnicode:HYSTERIA
Creator:Rip_MAN
Version:Imposible
Source:
Tags:
BeatmapID:4576814
BeatmapSetID:2168964

[Difficulty]
HPDrainRate:10
CircleSize:4
OverallDifficulty:10
ApproachRate:5
SliderMultiplier:1.4
SliderTickRate:1

[Events]
//Background and Video events
Video,0,"y2mate.com - HYSTERIA _v240P.mp4"
0,0,"th.jpg",0,0
//Break Periods
//Storyboard Layer 0 (Background)
//Storyboard Layer 1 (Fail)
//Storyboard Layer 2 (Pass)
//Storyboard Layer 3 (Foreground)
//Storyboard Layer 4 (Overlay)
//Storyboard Sound Samples

[TimingPoints]
0,500,4,1,1,0,1,0

[Colours]
Combo1 : 255,192,0
Combo2 : 128,128,255
Combo3 : 18,124,255
Combo4 : 242,24,57

[HitObjects]
64,192,125,5,0,0:0:0:0:
192,192,250,1,0,0:0:0:0:
64,192,250,1,0,0:0:0:0:
320,192,375,1,0,0:0:0:0:
192,192,375,1,0,0:0:0:0:
448,192,375,1,0,0:0:0:0:
64,192,375,1,0,0:0:0:0:
448,192,500,1,0,0:0:0:0:
64,192,500,1,0,0:0:0:0:
192,192,500,1,0,0:0:0:0:
320,192,500,1,0,0:0:0:0:
448,192,600,1,0,0:0:0:0:
320,192,625,1,0,0:0:0:0:
192,192,625,1,0,0:0:0:0:
64,192,625,1,0,0:0:0:0:
192,192,750,1,0,0:0:0:0:
64,192,750,1,0,0:0:0:0:
320,192,750,1,0,0:0:0:0:
448,192,750,1,0,0:0:0:0:
64,192,875,1,0,0:0:0:0:
448,192,875,1,0,0:0:0:0:
192,192,875,1,0,0:0:0:0:
320,192,875,1,0,0:0:0:0:
192,192,1000,1,0,0:0:0:0:
320,192,1000,1,0,0:0:0:0:
448,192,1000,1,0,0:0:0:0:
64,192,1000,1,0,0:0:0:0:
320,192,1125,1,0,0:0:0:0:
192,192,1125,1,0,0:0:0:0:
448,192,1125,1,0,0:0:0:0:
448,192,1250,1,0,0:0:0:0:
64,192,1250,1,0,0:0:0:0:
320,192,1250,1,0,0:0:0:0:
192,192,1250,1,0,0:0:0:0:
64,192,1300,1,0,0:0:0:0:
320,192,1375,1,0,0:0:0:0:
192,192,1375,1,0,0:0:0:0:
64,192,1400,1,0,0:0:0:0:
448,192,1400,1,0,0:0:0:0:
64,192,1500,1,0,0:0:0:0:
448,192,1500,1,0,0:0:0:0:
320,192,1500,1,0,0:0:0:0:
192,192,1500,1,0,0:0:0:0:
448,192,1600,1,0,0:0:0:0:
192,192,1600,1,0,0:0:0:0:
320,192,1625,1,0,0:0:0:0:
192,192,1700,1,0,0:0:0:0:
64,192,1750,1,0,0:0:0:0:
448,192,1750,1,0,0:0:0:0:
192,192,1800,1,0,0:0:0:0:
448,192,1800,1,0,0:0:0:0:
320,192,1800,1,0,0:0:0:0:
320,192,1875,1,0,0:0:0:0:
192,192,1900,1,0,0:0:0:0:
448,192,1900,1,0,0:0:0:0:
64,192,2000,1,0,0:0:0:0:
448,192,2000,1,0,0:0:0:0:
64,192,2000,1,0,0:0:0:0:
192,192,2000,1,0,0:0:0:0:
320,192,2000,1,0,0:0:0:0:
192,192,2100,1,0,0:0:0:0:
320,192,2100,1,0,0:0:0:0:
64,192,2125,1,0,0:0:0:0:
448,192,2200,1,0,0:0:0:0:
192,192,2200,1,0,0:0:0:0:
192,192,2200,1,0,0:0:0:0:
320,192,2200,1,0,0:0:0:0:
448,192,2250,1,0,0:0:0:0:
448,192,2300,1,0,0:0:0:0:
320,192,2300,1,0,0:0:0:0:
192,192,2300,1,0,0:0:0:0:
64,192,2375,1,0,0:0:0:0:
448,192,2400,1,0,0:0:0:0:
64,192,2400,1,0,0:0:0:0:
192,192,2400,1,0,0:0:0:0:
320,192,2400,1,0,0:0:0:0:
64,192,2500,1,0,0:0:0:0:
192,192,2500,1,0,0:0:0:0:
192,192,2500,1,0,0:0:0:0:
320,192,2500,1,0,0:0:0:0:
64,192,2600,1,0,0:0:0:0:
320,192,2600,1,0,0:0:0:0:
448,192,2600,1,0,0:0:0:0:
192,192,2600,1,0,0:0:0:0:
64,192,2625,1,0,0:0:0:0:
192,192,2700,1,0,0:0:0:0:
64,192,2700,1,0,0:0:0:0:
448,192,2700,1,0,0:0:0:0:
320,192,2700,1,0,0:0:0:0:
320,192,2700,1,0,0:0:0:0:
192,192,2800,1,0,0:0:0:0:
64,192,2800,1,0,0:0:0:0:
448,192,2800,1,0,0:0:0:0:
320,192,2800,1,0,0:0:0:0:
448,192,2875,1,0,0:0:0:0:
192,192,2875,1,0,0:0:0:0:
64,192,2900,1,0,0:0:0:0:
320,192,2900,1,0,0:0:0:0:
192,192,3000,1,0,0:0:0:0:
64,192,3000,1,0,0:0:0:0:
320,192,3000,1,0,0:0:0:0:
448,192,3000,1,0,0:0:0:0:
448,192,3100,1,0,0:0:0:0:
320,192,3100,1,0,0:0:0:0:
64,192,3125,1,0,0:0:0:0:
192,192,3125,1,0,0:0:0:0:
448,192,3125,1,0,0:0:0:0:
320,192,3200,1,0,0:0:0:0:
64,192,3200,1,0,0:0:0:0:
448,192,3200,1,0,0:0:0:0:
320,192,3200,1,0,0:0:0:0:
192,192,3300,1,0,0:0:0:0:
320,192,3300,1,0,0:0:0:0:
64,192,3375,1,0,0:0:0:0:
192,192,3375,1,0,0:0:0:0:
320,192,3375,1,0,0:0:0:0:
448,192,3375,1,0,0:0:0:0:
320,192,3400,1,0,0:0:0:0:
64,192,3500,1,0,0:0:0:0:
192,192,3500,1,0,0:0:0:0:
320,192,3500,1,0,0:0:0:0:
320,192,3600,1,0,0:0:0:0:
192,192,3600,1,0,0:0:0:0:
64,192,3600,1,0,0:0:0:0:
448,192,3625,1,0,0:0:0:0:
192,192,3700,1,0,0:0:0:0:
320,192,3700,1,0,0:0:0:0:
64,192,3700,1,0,0:0:0:0:
320,192,3750,1,0,0:0:0:0:
64,192,3750,1,0,0:0:0:0:
64,192,3800,1,0,0:0:0:0:
192,192,3800,1,0,0:0:0:0:
448,192,3875,1,0,0:0:0:0:
320,192,3900,1,0,0:0:0:0:
192,192,3900,1,0,0:0:0:0:
64,192,3900,1,0,0:0:0:0:
448,192,4000,1,0,0:0:0:0:
192,192,4000,1,0,0:0:0:0:
64,192,4000,1,0,0:0:0:0:
320,192,4000,1,0,0:0:0:0:
448,192,4100,1,0,0:0:0:0:
64,192,4100,1,0,0:0:0:0:
320,192,4100,1,0,0:0:0:0:
192,192,4100,1,0,0:0:0:0:
64,192,4125,1,0,0:0:0:0:
448,192,4200,1,0,0:0:0:0:
320,192,4200,1,0,0:0:0:0:
192,192,4200,1,0,0:0:0:0:
64,192,4200,1,0,0:0:0:0:
192,192,4300,1,0,0:0:0:0:
320,192,4300,1,0,0:0:0:0:
64,192,4300,1,0,0:0:0:0:
64,192,4375,1,0,0:0:0:0:
448,192,4400,1,0,0:0:0:0:
192,192,4400,1,0,0:0:0:0:
192,192,4500,1,0,0:0:0:0:
64,192,4500,1,0,0:0:0:0:
320,192,4500,1,0,0:0:0:0:
448,192,4500,1,0,0:0:0:0:
192,192,4600,1,0,0:0:0:0:
320,192,4600,1,0,0:0:0:0:
448,192,4600,1,0,0:0:0:0:
448,192,4625,1,0,0:0:0:0:
192,192,4700,1,0,0:0:0:0:
320,192,4700,1,0,0:0:0:0:
64,192,4700,1,0,0:0:0:0:
448,192,4700,1,0,0:0:0:0:
320,192,4750,1,0,0:0:0:0:
192,192,4750,1,0,0:0:0:0:
64,192,4800,1,0,0:0:0:0:
320,192,4800,1,0,0:0:0:0:
448,192,4800,1,0,0:0:0:0:
192,192,4800,1,0,0:0:0:0:
64,192,4875,1,0,0:0:0:0:
448,192,4875,1,0,0:0:0:0:
320,192,4900,1,0,0:0:0:0:
448,192,4900,1,0,0:0:0:0:
192,192,4900,1,0,0:0:0:0:
448,192,5000,1,0,0:0:0:0:
64,192,5000,1,0,0:0:0:0:
320,192,5000,1,0,0:0:0:0:
192,192,5000,1,0,0:0:0:0:
64,192,5100,1,0,0:0:0:0:
192,192,5100,1,0,0:0:0:0:
320,192,5125,1,0,0:0:0:0:
64,192,5125,1,0,0:0:0:0:
192,192,5200,1,0,0:0:0:0:
320,192,5200,1,0,0:0:0:0:
448,192,5250,1,0,0:0:0:0:
192,192,5250,1,0,0:0:0:0:
64,192,5300,1,0,0:0:0:0:
448,192,5300,1,0,0:0:0:0:
192,192,5300,1,0,0:0:0:0:
320,192,5300,1,0,0:0:0:0:
320,192,5375,1,0,0:0:0:0:
64,192,5375,1,0,0:0:0:0:
448,192,5400,1,0,0:0:0:0:
192,192,5400,1,0,0:0:0:0:
320,192,5400,1,0,0:0:0:0:
448,192,5500,1,0,0:0:0:0:
192,192,5500,1,0,0:0:0:0:
320,192,5500,1,0,0:0:0:0:
320,192,5600,1,0,0:0:0:0:
192,192,5600,1,0,0:0:0:0:
64,192,5625,1,0,0:0:0:0:
320,192,5625,1,0,0:0:0:0:
64,192,5700,1,0,0:0:0:0:
320,192,5700,1,0,0:0:0:0:
192,192,5700,1,0,0:0:0:0:
192,192,5750,1,0,0:0:0:0:
320,192,5750,1,0,0:0:0:0:
448,192,5750,1,0,0:0:0:0:
64,192,5800,1,0,0:0:0:0:
320,192,5800,1,0,0:0:0:0:
192,192,5800,1,0,0:0:0:0:
448,192,5875,1,0,0:0:0:0:
64,192,5875,1,0,0:0:0:0:
64,192,5900,1,0,0:0:0:0:
320,192,5900,1,0,0:0:0:0:
192,192,5900,1,0,0:0:0:0:
448,192,6000,1,0,0:0:0:0:
320,192,6000,1,0,0:0:0:0:
64,192,6000,1,0,0:0:0:0:
64,192,6100,1,0,0:0:0:0:
320,192,6100,1,0,0:0:0:0:
448,192,6125,1,0,0:0:0:0:
192,192,6125,1,0,0:0:0:0:
448,192,6200,1,0,0:0:0:0:
320,192,6200,1,0,0:0:0:0:
64,192,6200,1,0,0:0:0:0:
320,192,6250,1,0,0:0:0:0:
64,192,6250,1,0,0:0:0:0:
320,192,6300,1,0,0:0:0:0:
448,192,6300,1,0,0:0:0:0:
64,192,6300,1,0,0:0:0:0:
192,192,6300,1,0,0:0:0:0:
192,192,6375,1,0,0:0:0:0:
448,192,6375,1,0,0:0:0:0:
320,192,6400,1,0,0:0:0:0:
64,192,6400,1,0,0:0:0:0:
192,192,6400,1,0,0:0:0:0:
448,192,6500,1,0,0:0:0:0:
320,192,6500,1,0,0:0:0:0:
64,192,6500,1,0,0:0:0:0:
192,192,6500,1,0,0:0:0:0:
448,192,6600,1,0,0:0:0:0:
64,192,6600,1,0,0:0:0:0:
192,192,6600,1,0,0:0:0:0:
320,192,6625,1,0,0:0:0:0:
192,192,6625,1,0,0:0:0:0:
64,192,6700,1,0,0:0:0:0:
192,192,6700,1,0,0:0:0:0:
64,192,6750,1,0,0:0:0:0:
448,192,6750,1,0,0:0:0:0:
448,192,6800,1,0,0:0:0:0:
320,192,6800,1,0,0:0:0:0:
192,192,6800,1,0,0:0:0:0:
64,192,6875,1,0,0:0:0:0:
320,192,6875,1,0,0:0:0:0:
320,192,6900,1,0,0:0:0:0:
192,192,6900,1,0,0:0:0:0:
448,192,7000,1,0,0:0:0:0:
320,192,7000,1,0,0:0:0:0:
64,192,7000,1,0,0:0:0:0:
192,192,7000,1,0,0:0:0:0:
320,192,7100,1,0,0:0:0:0:
192,192,7100,1,0,0:0:0:0:
64,192,7100,1,0,0:0:0:0:
64,192,7125,1,0,0:0:0:0:
320,192,7125,1,0,0:0:0:0:
448,192,7125,1,0,0:0:0:0:
448,192,7200,1,0,0:0:0:0:
320,192,7200,1,0,0:0:0:0:
192,192,7200,1,0,0:0:0:0:
64,192,7200,1,0,0:0:0:0:
448,192,7250,1,0,0:0:0:0:
192,192,7250,1,0,0:0:0:0:
320,192,7300,1,0,0:0:0:0:
192,192,7300,1,0,0:0:0:0:
64,192,7300,1,0,0:0:0:0:
64,192,7375,1,0,0:0:0:0:
320,192,7375,1,0,0:0:0:0:
448,192,7400,1,0,0:0:0:0:
320,192,7400,1,0,0:0:0:0:
192,192,7400,1,0,0:0:0:0:
64,192,7400,1,0,0:0:0:0:
448,192,7500,1,0,0:0:0:0:
320,192,7500,1,0,0:0:0:0:
192,192,7500,1,0,0:0:0:0:
64,192,7500,1,0,0:0:0:0:
448,192,7600,1,0,0:0:0:0:
320,192,7600,1,0,0:0:0:0:
192,192,7600,1,0,0:0:0:0:
64,192,7600,1,0,0:0:0:0:
448,192,7625,1,0,0:0:0:0:
320,192,7625,1,0,0:0:0:0:
64,192,7625,1,0,0:0:0:0:
64,192,7700,1,0,0:0:0:0:
448,192,7700,1,0,0:0:0:0:
320,192,7700,1,0,0:0:0:0:
192,192,7700,1,0,0:0:0:0:
64,192,7750,1,0,0:0:0:0:
192,192,7750,1,0,0:0:0:0:
448,192,7800,1,0,0:0:0:0:
320,192,7800,1,0,0:0:0:0:
64,192,7800,1,0,0:0:0:0:
64,192,7875,1,0,0:0:0:0:
448,192,7875,1,0,0:0:0:0:
320,192,7875,1,0,0:0:0:0:
192,192,7900,1,0,0:0:0:0:
448,192,7900,1,0,0:0:0:0:
320,192,7900,1,0,0:0:0:0:
448,192,8000,1,0,0:0:0:0:
320,192,8000,1,0,0:0:0:0:
192,192,8000,1,0,0:0:0:0:
64,192,8000,1,0,0:0:0:0:
448,192,8100,1,0,0:0:0:0:
320,192,8100,1,0,0:0:0:0:
64,192,8100,1,0,0:0:0:0:
192,192,8125,1,0,0:0:0:0:
64,192,8125,1,0,0:0:0:0:
448,192,8125,1,0,0:0:0:0:
448,192,8200,1,0,0:0:0:0:
192,192,8200,1,0,0:0:0:0:
192,192,8250,1,0,0:0:0:0:
64,192,8250,1,0,0:0:0:0:
448,192,8250,1,0,0:0:0:0:
320,192,8250,1,0,0:0:0:0:
64,192,8300,1,0,0:0:0:0:
448,192,8300,1,0,0:0:0:0:
192,192,8300,1,0,0:0:0:0:
320,192,8375,1,0,0:0:0:0:
448,192,8400,1,0,0:0:0:0:
192,192,8400,1,0,0:0:0:0:
320,192,8400,1,0,0:0:0:0:
64,192,8500,1,0,0:0:0:0:
448,192,8500,1,0,0:0:0:0:
192,192,8500,1,0,0:0:0:0:
320,192,8500,1,0,0:0:0:0:
320,192,8600,1,0,0:0:0:0:
192,192,8600,1,0,0:0:0:0:
448,192,8600,1,0,0:0:0:0:
64,192,8600,1,0,0:0:0:0:
64,192,8625,1,0,0:0:0:0:
192,192,8625,1,0,0:0:0:0:
320,192,8625,1,0,0:0:0:0:
320,192,8700,1,0,0:0:0:0:
192,192,8700,1,0,0:0:0:0:
448,192,8700,1,0,0:0:0:0:
64,192,8700,1,0,0:0:0:0:
448,192,8750,1,0,0:0:0:0:
320,192,8750,1,0,0:0:0:0:
64,192,8750,1,0,0:0:0:0:
320,192,8800,1,0,0:0:0:0:
192,192,8800,1,0,0:0:0:0:
448,192,8800,1,0,0:0:0:0:
64,192,8800,1,0,0:0:0:0:
192,192,8875,1,0,0:0:0:0:
64,192,8875,1,0,0:0:0:0:
320,192,8875,1,0,0:0:0:0:
448,192,8875,1,0,0:0:0:0:
320,192,8900,1,0,0:0:0:0:
192,192,8900,1,0,0:0:0:0:
448,192,8900,1,0,0:0:0:0:
64,192,8900,1,0,0:0:0:0:
320,192,9000,1,0,0:0:0:0:
192,192,9000,1,0,0:0:0:0:
448,192,9000,1,0,0:0:0:0:
64,192,9000,1,0,0:0:0:0:
448,192,9100,1,0,0:0:0:0:
320,192,9100,1,0,0:0:0:0:
192,192,9100,1,0,0:0:0:0:
64,192,9100,1,0,0:0:0:0:
64,192,9125,1,0,0:0:0:0:
192,192,9125,1,0,0:0:0:0:
320,192,9125,1,0,0:0:0:0:
448,192,9125,1,0,0:0:0:0:
448,192,9200,1,0,0:0:0:0:
192,192,9200,1,0,0:0:0:0:
320,192,9200,1,0,0:0:0:0:
64,192,9200,1,0,0:0:0:0:
448,192,9250,1,0,0:0:0:0:
320,192,9250,1,0,0:0:0:0:
192,192,9250,1,0,0:0:0:0:
64,192,9250,1,0,0:0:0:0:
448,192,9300,1,0,0:0:0:0:
192,192,9300,1,0,0:0:0:0:
320,192,9300,1,0,0:0:0:0:
64,192,9300,1,0,0:0:0:0:
64,192,9375,1,0,0:0:0:0:
192,192,9375,1,0,0:0:0:0:
320,192,9375,1,0,0:0:0:0:
448,192,9375,1,0,0:0:0:0:
64,192,9400,1,0,0:0:0:0:
448,192,9400,1,0,0:0:0:0:
192,192,9400,1,0,0:0:0:0:
320,192,9400,1,0,0:0:0:0:
448,192,9500,1,0,0:0:0:0:
192,192,9500,1,0,0:0:0:0:
320,192,9500,1,0,0:0:0:0:
64,192,9500,1,0,0:0:0:0:
448,192,9600,1,0,0:0:0:0:
320,192,9600,1,0,0:0:0:0:
192,192,9600,1,0,0:0:0:0:
64,192,9600,1,0,0:0:0:0:
192,192,9625,1,0,0:0:0:0:
448,192,9625,1,0,0:0:0:0:
320,192,9625,1,0,0:0:0:0:
64,192,9625,1,0,0:0:0:0:
448,192,9700,1,0,0:0:0:0:
320,192,9700,1,0,0:0:0:0:
192,192,9700,1,0,0:0:0:0:
64,192,9700,1,0,0:0:0:0:
320,192,9750,1,0,0:0:0:0:
448,192,9750,1,0,0:0:0:0:
192,192,9750,1,0,0:0:0:0:
64,192,9750,1,0,0:0:0:0:
448,192,9800,1,0,0:0:0:0:
320,192,9800,1,0,0:0:0:0:
192,192,9800,1,0,0:0:0:0:
64,192,9800,1,0,0:0:0:0:
320,192,9875,1,0,0:0:0:0:
64,192,9875,1,0,0:0:0:0:
192,192,9875,1,0,0:0:0:0:
64,192,9900,1,0,0:0:0:0:
192,192,9900,1,0,0:0:0:0:
320,192,9900,1,0,0:0:0:0:
448,192,9900,1,0,0:0:0:0:
64,192,10000,1,0,0:0:0:0:
192,192,10000,1,0,0:0:0:0:
320,192,10000,1,0,0:0:0:0:
448,192,10000,1,0,0:0:0:0:
192,192,10100,1,0,0:0:0:0:
448,192,10100,1,0,0:0:0:0:
320,192,10100,1,0,0:0:0:0:
192,192,10125,1,0,0:0:0:0:
320,192,10125,1,0,0:0:0:0:
448,192,10125,1,0,0:0:0:0:
64,192,10125,1,0,0:0:0:0:
64,192,10200,1,0,0:0:0:0:
448,192,10200,1,0,0:0:0:0:
320,192,10200,1,0,0:0:0:0:
192,192,10200,1,0,0:0:0:0:
64,192,10250,1,0,0:0:0:0:
320,192,10250,1,0,0:0:0:0:
192,192,10250,1,0,0:0:0:0:
64,192,10300,1,0,0:0:0:0:
448,192,10300,1,0,0:0:0:0:
320,192,10300,1,0,0:0:0:0:
192,192,10300,1,0,0:0:0:0:
192,192,10375,1,0,0:0:0:0:
448,192,10375,1,0,0:0:0:0:
64,192,10375,1,0,0:0:0:0:
320,192,10400,1,0,0:0:0:0:
192,192,10400,1,0,0:0:0:0:
64,192,10400,1,0,0:0:0:0:
448,192,10400,1,0,0:0:0:0:
320,192,10500,1,0,0:0:0:0:
192,192,10500,1,0,0:0:0:0:
448,192,10500,1,0,0:0:0:0:
64,192,10500,1,0,0:0:0:0:
320,192,10600,1,0,0:0:0:0:
448,192,10600,1,0,0:0:0:0:
192,192,10600,1,0,0:0:0:0:
64,192,10600,1,0,0:0:0:0:
64,192,10625,1,0,0:0:0:0:
192,192,10625,1,0,0:0:0:0:
320,192,10625,1,0,0:0:0:0:
448,192,10625,1,0,0:0:0:0:
64,192,10700,1,0,0:0:0:0:
320,192,10700,1,0,0:0:0:0:
448,192,10700,1,0,0:0:0:0:
192,192,10700,1,0,0:0:0:0:
320,192,10750,1,0,0:0:0:0:
192,192,10750,1,0,0:0:0:0:
64,192,10750,1,0,0:0:0:0:
448,192,10750,1,0,0:0:0:0:
320,192,10800,1,0,0:0:0:0:
448,192,10800,1,0,0:0:0:0:
192,192,10800,1,0,0:0:0:0:
64,192,10800,1,0,0:0:0:0:
320,192,10875,1,0,0:0:0:0:
448,192,10875,1,0,0:0:0:0:
192,192,10875,1,0,0:0:0:0:
64,192,10875,1,0,0:0:0:0:
320,192,10900,1,0,0:0:0:0:
64,192,10900,1,0,0:0:0:0:
448,192,10900,1,0,0:0:0:0:
192,192,10900,1,0,0:0:0:0:
320,192,11000,1,0,0:0:0:0:
448,192,11000,1,0,0:0:0:0:
192,192,11000,1,0,0:0:0:0:
64,192,11000,1,0,0:0:0:0:
64,192,11100,1,0,0:0:0:0:
192,192,11100,1,0,0:0:0:0:
448,192,11100,1,0,0:0:0:0:
64,192,11125,1,0,0:0:0:0:
192,192,11125,1,0,0:0:0:0:
320,192,11125,1,0,0:0:0:0:
448,192,11200,1,0,0:0:0:0:
320,192,11200,1,0,0:0:0:0:
192,192,11200,1,0,0:0:0:0:
64,192,11200,1,0,0:0:0:0:
320,192,11250,1,0,0:0:0:0:
192,192,11250,1,0,0:0:0:0:
448,192,11250,1,0,0:0:0:0:
192,192,11300,1,0,0:0:0:0:
64,192,11300,1,0,0:0:0:0:
320,192,11300,1,0,0:0:0:0:
448,192,11300,1,0,0:0:0:0:
64,192,11375,1,0,0:0:0:0:
192,192,11400,1,0,0:0:0:0:
64,192,11400,1,0,0:0:0:0:
320,192,11400,1,0,0:0:0:0:
448,192,11400,1,0,0:0:0:0:
192,192,11500,1,0,0:0:0:0:
64,192,11500,1,0,0:0:0:0:
320,192,11500,1,0,0:0:0:0:
448,192,11500,1,0,0:0:0:0:
192,192,11600,1,0,0:0:0:0:
64,192,11600,1,0,0:0:0:0:
320,192,11600,1,0,0:0:0:0:
448,192,11600,1,0,0:0:0:0:
192,192,11625,1,0,0:0:0:0:
64,192,11625,1,0,0:0:0:0:
448,192,11625,1,0,0:0:0:0:
64,192,11700,1,0,0:0:0:0:
192,192,11700,1,0,0:0:0:0:
320,192,11700,1,0,0:0:0:0:
448,192,11700,1,0,0:0:0:0:
64,192,11750,1,0,0:0:0:0:
320,192,11750,1,0,0:0:0:0:
64,192,11800,1,0,0:0:0:0:
320,192,11800,1,0,0:0:0:0:
192,192,11800,1,0,0:0:0:0:
448,192,11800,1,0,0:0:0:0:
448,192,11875,1,0,0:0:0:0:
192,192,11875,1,0,0:0:0:0:
64,192,11900,1,0,0:0:0:0:
192,192,11900,1,0,0:0:0:0:
320,192,11900,1,0,0:0:0:0:
448,192,11900,1,0,0:0:0:0:
64,192,12000,1,0,0:0:0:0:
192,192,12000,1,0,0:0:0:0:
448,192,12000,1,0,0:0:0:0:
320,192,12000,1,0,0:0:0:0:
192,192,12100,1,0,0:0:0:0:
64,192,12100,1,0,0:0:0:0:
448,192,12100,1,0,0:0:0:0:
320,192,12100,1,0,0:0:0:0:
192,192,12125,1,0,0:0:0:0:
64,192,12200,1,0,0:0:0:0:
448,192,12200,1,0,0:0:0:0:
320,192,12200,1,0,0:0:0:0:
192,192,12200,1,0,0:0:0:0:
64,192,12250,1,0,0:0:0:0:
320,192,12250,1,0,0:0:0:0:
448,192,12250,1,0,0:0:0:0:
448,192,12300,1,0,0:0:0:0:
64,192,12300,1,0,0:0:0:0:
320,192,12300,1,0,0:0:0:0:
192,192,12300,1,0,0:0:0:0:
192,192,12375,1,0,0:0:0:0:
448,192,12375,1,0,0:0:0:0:
448,192,12400,1,0,0:0:0:0:
64,192,12400,1,0,0:0:0:0:
320,192,12400,1,0,0:0:0:0:
192,192,12400,1,0,0:0:0:0:
448,192,12500,1,0,0:0:0:0:
64,192,12500,1,0,0:0:0:0:
320,192,12500,1,0,0:0:0:0:
192,192,12500,1,0,0:0:0:0:
320,192,12600,1,0,0:0:0:0:
192,192,12600,1,0,0:0:0:0:
64,192,12600,1,0,0:0:0:0:
448,192,12600,1,0,0:0:0:0:
448,192,12625,1,0,0:0:0:0:
192,192,12625,1,0,0:0:0:0:
192,192,12700,1,0,0:0:0:0:
64,192,12700,1,0,0:0:0:0:
448,192,12700,1,0,0:0:0:0:
320,192,12700,1,0,0:0:0:0:
320,192,12750,1,0,0:0:0:0:
192,192,12750,1,0,0:0:0:0:
64,192,12750,1,0,0:0:0:0:
320,192,12800,1,0,0:0:0:0:
64,192,12800,1,0,0:0:0:0:
448,192,12800,1,0,0:0:0:0:
192,192,12800,1,0,0:0:0:0:
448,192,12875,1,0,0:0:0:0:
192,192,12875,1,0,0:0:0:0:
448,192,12900,1,0,0:0:0:0:
64,192,12900,1,0,0:0:0:0:
320,192,12900,1,0,0:0:0:0:
192,192,12900,1,0,0:0:0:0:
448,192,13000,1,0,0:0:0:0:
320,192,13000,1,0,0:0:0:0:
64,192,13000,1,0,0:0:0:0:
192,192,13000,1,0,0:0:0:0:
448,192,13100,1,0,0:0:0:0:
320,192,13100,1,0,0:0:0:0:
64,192,13100,1,0,0:0:0:0:
192,192,13100,1,0,0:0:0:0:
320,192,13125,1,0,0:0:0:0:
192,192,13125,1,0,0:0:0:0:
448,192,13200,1,0,0:0:0:0:
192,192,13200,1,0,0:0:0:0:
64,192,13200,1,0,0:0:0:0:
320,192,13200,1,0,0:0:0:0:
460,192,13250,1,0,0:0:0:0:
192,192,13250,1,0,0:0:0:0:
64,192,13250,1,0,0:0:0:0:
320,192,13250,1,0,0:0:0:0:
448,192,13300,1,0,0:0:0:0:
192,192,13300,1,0,0:0:0:0:
64,192,13300,1,0,0:0:0:0:
320,192,13300,1,0,0:0:0:0:
51,192,13375,1,0,0:0:0:0:
460,192,13375,1,0,0:0:0:0:
192,192,13375,1,0,0:0:0:0:
448,192,13400,1,0,0:0:0:0:
192,192,13400,1,0,0:0:0:0:
64,192,13400,1,0,0:0:0:0:
320,192,13400,1,0,0:0:0:0:
448,192,13500,1,0,0:0:0:0:
192,192,13500,1,0,0:0:0:0:
64,192,13500,1,0,0:0:0:0:
320,192,13500,1,0,0:0:0:0:
192,192,13600,1,0,0:0:0:0:
64,192,13600,1,0,0:0:0:0:
320,192,13600,1,0,0:0:0:0:
153,192,13625,1,0,0:0:0:0:
448,192,13625,1,0,0:0:0:0:
64,192,13700,1,0,0:0:0:0:
448,192,13700,1,0,0:0:0:0:
320,192,13700,1,0,0:0:0:0:
358,192,13750,1,0,0:0:0:0:
320,192,13750,1,0,0:0:0:0:
64,192,13750,1,0,0:0:0:0:
192,192,13750,1,0,0:0:0:0:
448,192,13800,1,0,0:0:0:0:
320,192,13800,1,0,0:0:0:0:
64,192,13800,1,0,0:0:0:0:
192,192,13800,1,0,0:0:0:0:
448,192,13875,1,0,0:0:0:0:
192,192,13875,1,0,0:0:0:0:
64,192,13875,1,0,0:0:0:0:
448,192,13900,1,0,0:0:0:0:
64,192,13900,1,0,0:0:0:0:
192,192,13900,1,0,0:0:0:0:
320,192,13900,1,0,0:0:0:0:
460,192,14000,1,0,0:0:0:0:
448,192,14000,1,0,0:0:0:0:
64,192,14000,1,0,0:0:0:0:
192,192,14000,1,0,0:0:0:0:
320,192,14000,1,0,0:0:0:0:
192,192,14100,1,0,0:0:0:0:
64,192,14100,1,0,0:0:0:0:
320,192,14100,1,0,0:0:0:0:
51,192,14125,1,0,0:0:0:0:
448,192,14125,1,0,0:0:0:0:
192,192,14200,1,0,0:0:0:0:
64,192,14200,1,0,0:0:0:0:
320,192,14200,1,0,0:0:0:0:
358,192,14250,1,0,0:0:0:0:
192,192,14250,1,0,0:0:0:0:
448,192,14250,1,0,0:0:0:0:
64,192,14250,1,0,0:0:0:0:
320,192,14300,1,0,0:0:0:0:
64,192,14300,1,0,0:0:0:0:
256,192,14375,1,0,0:0:0:0:
64,192,14375,1,0,0:0:0:0:
192,192,14375,1,0,0:0:0:0:
448,192,14400,1,0,0:0:0:0:
64,192,14400,1,0,0:0:0:0:
192,192,14400,1,0,0:0:0:0:
320,192,14400,1,0,0:0:0:0:
51,192,14500,1,0,0:0:0:0:
448,192,14500,1,0,0:0:0:0:
64,192,14500,1,0,0:0:0:0:
192,192,14500,1,0,0:0:0:0:
320,192,14500,1,0,0:0:0:0:
192,192,14600,1,0,0:0:0:0:
64,192,14600,1,0,0:0:0:0:
448,192,14600,1,0,0:0:0:0:
320,192,14600,1,0,0:0:0:0:
460,192,14625,1,0,0:0:0:0:
320,192,14625,1,0,0:0:0:0:
192,192,14700,1,0,0:0:0:0:
64,192,14700,1,0,0:0:0:0:
448,192,14700,1,0,0:0:0:0:
320,192,14700,1,0,0:0:0:0:
51,192,14750,1,0,0:0:0:0:
192,192,14750,1,0,0:0:0:0:
448,192,14800,1,0,0:0:0:0:
320,192,14800,1,0,0:0:0:0:
64,192,14800,1,0,0:0:0:0:
192,192,14800,1,0,0:0:0:0:
358,192,14875,1,0,0:0:0:0:
153,192,14875,1,0,0:0:0:0:
448,192,14875,1,0,0:0:0:0:
448,192,14900,1,0,0:0:0:0:
320,192,14900,1,0,0:0:0:0:
64,192,14900,1,0,0:0:0:0:
192,192,14900,1,0,0:0:0:0:
448,192,15000,1,0,0:0:0:0:
64,192,15000,1,0,0:0:0:0:
192,192,15000,1,0,0:0:0:0:
320,192,15000,1,0,0:0:0:0:
320,192,15100,1,0,0:0:0:0:
192,192,15100,1,0,0:0:0:0:
448,192,15100,1,0,0:0:0:0:
358,192,15125,1,0,0:0:0:0:
192,192,15125,1,0,0:0:0:0:
64,192,15125,1,0,0:0:0:0:
64,192,15200,1,0,0:0:0:0:
192,192,15200,1,0,0:0:0:0:
320,192,15200,1,0,0:0:0:0:
448,192,15200,1,0,0:0:0:0:
51,192,15250,1,0,0:0:0:0:
320,192,15250,1,0,0:0:0:0:
448,192,15250,1,0,0:0:0:0:
64,192,15300,1,0,0:0:0:0:
192,192,15300,1,0,0:0:0:0:
320,192,15300,1,0,0:0:0:0:
448,192,15300,1,0,0:0:0:0:
153,192,15375,1,0,0:0:0:0:
192,192,15400,1,0,0:0:0:0:
64,192,15400,1,0,0:0:0:0:
320,192,15400,1,0,0:0:0:0:
448,192,15400,1,0,0:0:0:0:
320,192,15500,1,0,0:0:0:0:
192,192,15500,1,0,0:0:0:0:
64,192,15500,1,0,0:0:0:0:
448,192,15500,1,0,0:0:0:0:
448,192,15600,1,0,0:0:0:0:
64,192,15625,1,0,0:0:0:0:
320,192,15625,1,0,0:0:0:0:
192,192,15625,1,0,0:0:0:0:
448,192,15700,1,0,0:0:0:0:
460,192,15750,1,0,0:0:0:0:
51,192,15750,1,0,0:0:0:0:
153,192,15750,1,0,0:0:0:0:
448,192,15800,1,0,0:0:0:0:
64,192,15800,1,0,0:0:0:0:
320,192,15800,1,0,0:0:0:0:
192,192,15800,1,0,0:0:0:0:
448,192,15875,1,0,0:0:0:0:
192,192,15875,1,0,0:0:0:0:
64,192,15875,1,0,0:0:0:0:
320,192,15875,1,0,0:0:0:0:
448,192,15900,1,0,0:0:0:0:
64,192,15900,1,0,0:0:0:0:
192,192,15900,1,0,0:0:0:0:
320,192,15900,1,0,0:0:0:0:
448,192,16000,1,0,0:0:0:0:
192,192,16000,1,0,0:0:0:0:
64,192,16000,1,0,0:0:0:0:
320,192,16000,1,0,0:0:0:0:
448,192,16100,1,0,0:0:0:0:
320,192,16100,1,0,0:0:0:0:
192,192,16100,1,0,0:0:0:0:
64,192,16100,1,0,0:0:0:0:
448,192,16200,1,0,0:0:0:0:
320,192,16200,1,0,0:0:0:0:
192,192,16200,1,0,0:0:0:0:
64,192,16200,1,0,0:0:0:0:
192,192,16250,1,0,0:0:0:0:
320,192,16250,1,0,0:0:0:0:
64,192,16250,1,0,0:0:0:0:
320,192,16300,1,0,0:0:0:0:
448,192,16300,1,0,0:0:0:0:
192,192,16300,1,0,0:0:0:0:
64,192,16300,1,0,0:0:0:0:
192,192,16375,1,0,0:0:0:0:
320,192,16375,1,0,0:0:0:0:
64,192,16400,1,0,0:0:0:0:
320,192,16400,1,0,0:0:0:0:
448,192,16400,1,0,0:0:0:0:
192,192,16400,1,0,0:0:0:0:
64,192,16500,1,0,0:0:0:0:
192,192,16500,1,0,0:0:0:0:
448,192,16500,1,0,0:0:0:0:
320,192,16500,1,0,0:0:0:0:
192,192,16600,1,0,0:0:0:0:
320,192,16600,1,0,0:0:0:0:
448,192,16600,1,0,0:0:0:0:
448,192,16625,1,0,0:0:0:0:
64,192,16625,1,0,0:0:0:0:
192,192,16625,1,0,0:0:0:0:
320,192,16625,1,0,0:0:0:0:
460,192,16750,128,0,17125:0:0:0:0:
192,192,16750,1,0,0:0:0:0:
51,192,16875,128,0,17125:0:0:0:0:
192,192,17000,1,0,0:0:0:0:
192,192,17125,1,0,0:0:0:0:
320,192,17125,1,0,0:0:0:0:
358,192,17250,128,0,17625:0:0:0:0:
153,192,17250,128,0,17875:0:0:0:0:
448,192,17250,1,0,0:0:0:0:
64,192,17375,1,0,0:0:0:0:
51,192,17500,128,0,18000:0:0:0:0:
448,192,17625,1,0,0:0:0:0:
460,192,17875,128,0,18250:0:0:0:0:
320,192,18000,1,0,0:0:0:0:
192,192,18125,1,0,0:0:0:0:
64,192,18250,1,0,0:0:0:0:
320,192,18250,1,0,0:0:0:0:
192,192,18375,128,0,19000:0:0:0:0:
51,192,18375,128,0,19000:0:0:0:0:
320,192,18400,128,0,19000:0:0:0:0:
448,192,18400,128,0,19000:0:0:0:0:
448,192,19125,1,0,0:0:0:0:
192,192,19125,1,0,0:0:0:0:
64,192,19125,1,0,0:0:0:0:
320,192,19125,1,0,0:0:0:0:
320,192,19200,1,0,0:0:0:0:
64,192,19200,1,0,0:0:0:0:
192,192,19200,1,0,0:0:0:0:
448,192,19200,1,0,0:0:0:0:
64,192,19300,1,0,0:0:0:0:
192,192,19300,1,0,0:0:0:0:
320,192,19300,1,0,0:0:0:0:
448,192,19300,1,0,0:0:0:0:
320,192,19400,1,0,0:0:0:0:
192,192,19400,1,0,0:0:0:0:
64,192,19400,1,0,0:0:0:0:
448,192,19400,1,0,0:0:0:0:
64,192,19500,1,0,0:0:0:0:
448,192,19500,1,0,0:0:0:0:
320,192,19500,1,0,0:0:0:0:
192,192,19500,1,0,0:0:0:0:
320,192,19600,1,0,0:0:0:0:
64,192,19600,1,0,0:0:0:0:
448,192,19600,1,0,0:0:0:0:
192,192,19600,1,0,0:0:0:0:
320,192,19700,1,0,0:0:0:0:
448,192,19700,1,0,0:0:0:0:
64,192,19700,1,0,0:0:0:0:
192,192,19700,1,0,0:0:0:0:
192,192,19800,1,0,0:0:0:0:
64,192,19800,1,0,0:0:0:0:
448,192,19800,1,0,0:0:0:0:
320,192,19800,1,0,0:0:0:0:
64,192,19900,1,0,0:0:0:0:
192,192,19900,1,0,0:0:0:0:
448,192,19900,1,0,0:0:0:0:
320,192,19900,1,0,0:0:0:0:
64,192,20000,1,0,0:0:0:0:
192,192,20000,1,0,0:0:0:0:
448,192,20000,1,0,0:0:0:0:
320,192,20000,1,0,0:0:0:0:
64,192,20100,1,0,0:0:0:0:
192,192,20100,1,0,0:0:0:0:
448,192,20100,1,0,0:0:0:0:
320,192,20100,1,0,0:0:0:0:
64,192,20200,1,0,0:0:0:0:
192,192,20200,1,0,0:0:0:0:
448,192,20200,1,0,0:0:0:0:
320,192,20200,1,0,0:0:0:0:
64,192,20300,1,0,0:0:0:0:
192,192,20300,1,0,0:0:0:0:
448,192,20300,1,0,0:0:0:0:
320,192,20300,1,0,0:0:0:0:
64,192,20400,1,0,0:0:0:0:
192,192,20400,1,0,0:0:0:0:
448,192,20400,1,0,0:0:0:0:
320,192,20400,1,0,0:0:0:0:
64,192,20500,1,0,0:0:0:0:
192,192,20500,1,0,0:0:0:0:
448,192,20500,1,0,0:0:0:0:
320,192,20500,1,0,0:0:0:0:
64,192,20600,1,0,0:0:0:0:
192,192,20600,1,0,0:0:0:0:
320,192,20600,1,0,0:0:0:0:
448,192,20600,1,0,0:0:0:0:
64,192,20700,1,0,0:0:0:0:
320,192,20700,1,0,0:0:0:0:
192,192,20700,1,0,0:0:0:0:
448,192,20700,1,0,0:0:0:0:
192,192,20800,1,0,0:0:0:0:
64,192,20800,1,0,0:0:0:0:
320,192,20800,1,0,0:0:0:0:
448,192,20800,1,0,0:0:0:0:
64,192,20900,1,0,0:0:0:0:
192,192,20900,1,0,0:0:0:0:
320,192,20900,1,0,0:0:0:0:
448,192,20900,1,0,0:0:0:0:
64,192,21000,1,0,0:0:0:0:
192,192,21000,1,0,0:0:0:0:
320,192,21000,1,0,0:0:0:0:
448,192,21000,1,0,0:0:0:0:
64,192,21100,1,0,0:0:0:0:
192,192,21100,1,0,0:0:0:0:
320,192,21100,1,0,0:0:0:0:
448,192,21100,1,0,0:0:0:0:
64,192,21200,1,0,0:0:0:0:
192,192,21200,1,0,0:0:0:0:
320,192,21200,1,0,0:0:0:0:
448,192,21200,1,0,0:0:0:0:
64,192,21300,1,0,0:0:0:0:
192,192,21300,1,0,0:0:0:0:
320,192,21300,1,0,0:0:0:0:
448,192,21300,1,0,0:0:0:0:
64,192,21400,1,0,0:0:0:0:
192,192,21400,1,0,0:0:0:0:
320,192,21400,1,0,0:0:0:0:
448,192,21400,1,0,0:0:0:0:
320,192,21500,1,0,0:0:0:0:
192,192,21500,1,0,0:0:0:0:
64,192,21500,1,0,0:0:0:0:
448,192,21500,1,0,0:0:0:0:
320,192,21600,1,0,0:0:0:0:
64,192,21600,1,0,0:0:0:0:
192,192,21600,1,0,0:0:0:0:
448,192,21600,1,0,0:0:0:0:
64,192,21700,1,0,0:0:0:0:
320,192,21700,1,0,0:0:0:0:
192,192,21700,1,0,0:0:0:0:
448,192,21700,1,0,0:0:0:0:
192,192,21800,1,0,0:0:0:0:
64,192,21800,1,0,0:0:0:0:
320,192,21800,1,0,0:0:0:0:
448,192,21800,1,0,0:0:0:0:
64,192,21900,1,0,0:0:0:0:
320,192,21900,1,0,0:0:0:0:
448,192,21900,1,0,0:0:0:0:
192,192,21900,1,0,0:0:0:0:
64,192,22000,1,0,0:0:0:0:
448,192,22000,1,0,0:0:0:0:
320,192,22000,1,0,0:0:0:0:
192,192,22000,1,0,0:0:0:0:
192,192,22100,1,0,0:0:0:0:
64,192,22100,1,0,0:0:0:0:
448,192,22100,1,0,0:0:0:0:
320,192,22100,1,0,0:0:0:0:
64,192,22200,1,0,0:0:0:0:
192,192,22200,1,0,0:0:0:0:
448,192,22200,1,0,0:0:0:0:
153,192,22250,1,0,0:0:0:0:
460,192,22250,1,0,0:0:0:0:
64,192,22300,1,0,0:0:0:0:
448,192,22300,1,0,0:0:0:0:
448,192,22375,1,0,0:0:0:0:
192,192,22375,1,0,0:0:0:0:
64,192,22375,1,0,0:0:0:0:
320,192,22375,1,0,0:0:0:0:
64,192,22400,1,0,0:0:0:0:
153,192,22500,1,0,0:0:0:0:
358,192,22500,1,0,0:0:0:0:
64,192,22500,1,0,0:0:0:0:
448,192,22500,1,0,0:0:0:0:
320,192,22600,1,0,0:0:0:0:
192,192,22600,1,0,0:0:0:0:
64,192,22600,1,0,0:0:0:0:
460,192,22625,1,0,0:0:0:0:
51,192,22625,1,0,0:0:0:0:
192,192,22700,1,0,0:0:0:0:
64,192,22700,1,0,0:0:0:0:
256,192,22750,1,0,0:0:0:0:
448,192,22750,1,0,0:0:0:0:
320,192,22800,1,0,0:0:0:0:
192,192,22800,1,0,0:0:0:0:
64,192,22800,1,0,0:0:0:0:
51,192,22875,1,0,0:0:0:0:
192,192,22875,1,0,0:0:0:0:
448,192,22875,1,0,0:0:0:0:
320,192,22900,1,0,0:0:0:0:
192,192,22900,1,0,0:0:0:0:
64,192,22900,1,0,0:0:0:0:
460,192,23000,1,0,0:0:0:0:
320,192,23000,1,0,0:0:0:0:
64,192,23000,1,0,0:0:0:0:
192,192,23000,1,0,0:0:0:0:
192,192,23100,1,0,0:0:0:0:
320,192,23100,1,0,0:0:0:0:
51,192,23125,1,0,0:0:0:0:
192,192,23125,1,0,0:0:0:0:
320,192,23125,1,0,0:0:0:0:
448,192,23200,1,0,0:0:0:0:
192,192,23200,1,0,0:0:0:0:
320,192,23200,1,0,0:0:0:0:
64,192,23200,1,0,0:0:0:0:
448,192,23300,1,0,0:0:0:0:
192,192,23300,1,0,0:0:0:0:
320,192,23300,1,0,0:0:0:0:
64,192,23300,1,0,0:0:0:0:
448,192,23400,1,0,0:0:0:0:
320,192,23400,1,0,0:0:0:0:
192,192,23400,1,0,0:0:0:0:
64,192,23400,1,0,0:0:0:0:
448,192,23500,1,0,0:0:0:0:
64,192,23500,1,0,0:0:0:0:
320,192,23500,1,0,0:0:0:0:
192,192,23500,1,0,0:0:0:0:
448,192,23600,1,0,0:0:0:0:
192,192,23600,1,0,0:0:0:0:
64,192,23600,1,0,0:0:0:0:
320,192,23600,1,0,0:0:0:0:
448,192,23700,1,0,0:0:0:0:
64,192,23700,1,0,0:0:0:0:
192,192,23700,1,0,0:0:0:0:
320,192,23700,1,0,0:0:0:0:
320,192,23750,1,0,0:0:0:0:
448,192,23800,1,0,0:0:0:0:
320,192,23800,1,0,0:0:0:0:
192,192,23800,1,0,0:0:0:0:
448,192,23875,1,0,0:0:0:0:
192,192,23875,1,0,0:0:0:0:
448,192,23900,1,0,0:0:0:0:
64,192,23900,1,0,0:0:0:0:
192,192,23900,1,0,0:0:0:0:
320,192,23900,1,0,0:0:0:0:
64,192,24000,1,0,0:0:0:0:
192,192,24000,1,0,0:0:0:0:
448,192,24000,1,0,0:0:0:0:
320,192,24000,1,0,0:0:0:0:
448,192,24100,1,0,0:0:0:0:
320,192,24100,1,0,0:0:0:0:
192,192,24100,1,0,0:0:0:0:
320,192,24125,1,0,0:0:0:0:
64,192,24125,1,0,0:0:0:0:
448,192,24200,1,0,0:0:0:0:
320,192,24200,1,0,0:0:0:0:
64,192,24250,1,0,0:0:0:0:
192,192,24250,1,0,0:0:0:0:
320,192,24250,1,0,0:0:0:0:
192,192,24300,1,0,0:0:0:0:
448,192,24300,1,0,0:0:0:0:
320,192,24300,1,0,0:0:0:0:
192,192,24375,1,0,0:0:0:0:
64,192,24375,1,0,0:0:0:0:
320,192,24375,1,0,0:0:0:0:
448,192,24375,1,0,0:0:0:0:
192,192,24400,1,0,0:0:0:0:
448,192,24400,1,0,0:0:0:0:
320,192,24400,1,0,0:0:0:0:
64,192,24500,1,0,0:0:0:0:
448,192,24500,1,0,0:0:0:0:
192,192,24500,1,0,0:0:0:0:
320,192,24500,1,0,0:0:0:0:
448,192,24600,1,0,0:0:0:0:
192,192,24600,1,0,0:0:0:0:
320,192,24600,1,0,0:0:0:0:
192,192,24625,1,0,0:0:0:0:
64,192,24625,1,0,0:0:0:0:
448,192,24700,1,0,0:0:0:0:
192,192,24700,1,0,0:0:0:0:
320,192,24700,1,0,0:0:0:0:
192,192,24750,1,0,0:0:0:0:
64,192,24750,1,0,0:0:0:0:
448,192,24750,1,0,0:0:0:0:
448,192,24800,1,0,0:0:0:0:
192,192,24800,1,0,0:0:0:0:
320,192,24800,1,0,0:0:0:0:
320,192,24875,1,0,0:0:0:0:
192,192,24875,1,0,0:0:0:0:
64,192,24875,1,0,0:0:0:0:
448,192,24875,1,0,0:0:0:0:
192,192,24900,1,0,0:0:0:0:
320,192,24900,1,0,0:0:0:0:
64,192,25000,1,0,0:0:0:0:
448,192,25000,1,0,0:0:0:0:
192,192,25000,1,0,0:0:0:0:
320,192,25000,1,0,0:0:0:0:
192,192,25100,1,0,0:0:0:0:
320,192,25100,1,0,0:0:0:0:
320,192,25125,1,0,0:0:0:0:
192,192,25125,1,0,0:0:0:0:
448,192,25125,1,0,0:0:0:0:
64,192,25200,1,0,0:0:0:0:
320,192,25200,1,0,0:0:0:0:
320,192,25250,1,0,0:0:0:0:
192,192,25250,1,0,0:0:0:0:
64,192,25250,1,0,0:0:0:0:
448,192,25250,1,0,0:0:0:0:
320,192,25300,1,0,0:0:0:0:
64,192,25300,1,0,0:0:0:0:
320,192,25375,1,0,0:0:0:0:
192,192,25375,1,0,0:0:0:0:
64,192,25375,1,0,0:0:0:0:
448,192,25375,1,0,0:0:0:0:
448,192,25400,1,0,0:0:0:0:
320,192,25400,1,0,0:0:0:0:
192,192,25400,1,0,0:0:0:0:
64,192,25500,1,0,0:0:0:0:
192,192,25500,1,0,0:0:0:0:
448,192,25500,1,0,0:0:0:0:
320,192,25500,1,0,0:0:0:0:
448,192,25600,1,0,0:0:0:0:
320,192,25600,1,0,0:0:0:0:
192,192,25600,1,0,0:0:0:0:
320,192,25625,1,0,0:0:0:0:
192,192,25625,1,0,0:0:0:0:
64,192,25625,1,0,0:0:0:0:
448,192,25700,1,0,0:0:0:0:
320,192,25700,1,0,0:0:0:0:
64,192,25700,1,0,0:0:0:0:
192,192,25700,1,0,0:0:0:0:
64,192,25750,1,0,0:0:0:0:
192,192,25750,1,0,0:0:0:0:
320,192,25800,1,0,0:0:0:0:
448,192,25800,1,0,0:0:0:0:
192,192,25800,1,0,0:0:0:0:
320,192,25875,1,0,0:0:0:0:
192,192,25875,1,0,0:0:0:0:
320,192,25900,1,0,0:0:0:0:
448,192,25900,1,0,0:0:0:0:
192,192,25900,1,0,0:0:0:0:
448,192,26000,1,0,0:0:0:0:
320,192,26000,1,0,0:0:0:0:
192,192,26000,1,0,0:0:0:0:
64,192,26000,1,0,0:0:0:0:
448,192,26100,1,0,0:0:0:0:
320,192,26100,1,0,0:0:0:0:
64,192,26100,1,0,0:0:0:0:
51,192,26125,1,0,0:0:0:0:
460,192,26125,1,0,0:0:0:0:
256,192,26125,1,0,0:0:0:0:
320,192,26125,1,0,0:0:0:0:
64,192,26125,1,0,0:0:0:0:
192,192,26250,1,0,0:0:0:0:
448,192,26250,1,0,0:0:0:0:
153,192,26375,1,0,0:0:0:0:
358,192,26375,1,0,0:0:0:0:
448,192,26375,1,0,0:0:0:0:
64,192,26375,1,0,0:0:0:0:
64,192,26400,1,0,0:0:0:0:
192,192,26400,1,0,0:0:0:0:
320,192,26400,1,0,0:0:0:0:
448,192,26400,1,0,0:0:0:0:
320,192,26500,1,0,0:0:0:0:
64,192,26500,1,0,0:0:0:0:
192,192,26500,1,0,0:0:0:0:
448,192,26500,1,0,0:0:0:0:
192,192,26600,1,0,0:0:0:0:
64,192,26600,1,0,0:0:0:0:
320,192,26600,1,0,0:0:0:0:
448,192,26600,1,0,0:0:0:0:
64,192,26700,1,0,0:0:0:0:
192,192,26700,1,0,0:0:0:0:
320,192,26700,1,0,0:0:0:0:
448,192,26700,1,0,0:0:0:0:
320,192,26800,1,0,0:0:0:0:
64,192,26800,1,0,0:0:0:0:
192,192,26800,1,0,0:0:0:0:
448,192,26800,1,0,0:0:0:0:
64,192,26900,1,0,0:0:0:0:
192,192,26900,1,0,0:0:0:0:
448,192,26900,1,0,0:0:0:0:
320,192,26900,1,0,0:0:0:0:
64,192,27000,1,0,0:0:0:0:
448,192,27000,1,0,0:0:0:0:
192,192,27000,1,0,0:0:0:0:
320,192,27000,1,0,0:0:0:0:
64,192,27100,1,0,0:0:0:0:
448,192,27100,1,0,0:0:0:0:
192,192,27100,1,0,0:0:0:0:
320,192,27100,1,0,0:0:0:0:
192,192,27200,1,0,0:0:0:0:
320,192,27200,1,0,0:0:0:0:
448,192,27200,1,0,0:0:0:0:
64,192,27200,1,0,0:0:0:0:
448,192,27300,1,0,0:0:0:0:
192,192,27300,1,0,0:0:0:0:
64,192,27300,1,0,0:0:0:0:
320,192,27300,1,0,0:0:0:0:
448,192,27400,1,0,0:0:0:0:
64,192,27400,1,0,0:0:0:0:
192,192,27400,1,0,0:0:0:0:
320,192,27400,1,0,0:0:0:0:
64,192,27500,1,0,0:0:0:0:
192,192,27500,1,0,0:0:0:0:
448,192,27500,1,0,0:0:0:0:
320,192,27500,1,0,0:0:0:0:
64,192,27600,1,0,0:0:0:0:
448,192,27600,1,0,0:0:0:0:
320,192,27600,1,0,0:0:0:0:
192,192,27600,1,0,0:0:0:0:
64,192,27700,1,0,0:0:0:0:
448,192,27700,1,0,0:0:0:0:
320,192,27700,1,0,0:0:0:0:
192,192,27700,1,0,0:0:0:0:
64,192,27800,1,0,0:0:0:0:
448,192,27800,1,0,0:0:0:0:
320,192,27800,1,0,0:0:0:0:
192,192,27800,1,0,0:0:0:0:
64,192,27900,1,0,0:0:0:0:
448,192,27900,1,0,0:0:0:0:
320,192,27900,1,0,0:0:0:0:
192,192,27900,1,0,0:0:0:0:
64,192,28000,1,0,0:0:0:0:
448,192,28000,1,0,0:0:0:0:
320,192,28000,1,0,0:0:0:0:
192,192,28000,1,0,0:0:0:0:
64,192,28100,1,0,0:0:0:0:
448,192,28100,1,0,0:0:0:0:
320,192,28100,1,0,0:0:0:0:
192,192,28100,1,0,0:0:0:0:
448,192,28200,1,0,0:0:0:0:
64,192,28200,1,0,0:0:0:0:
320,192,28200,1,0,0:0:0:0:
192,192,28200,1,0,0:0:0:0:
448,192,28300,1,0,0:0:0:0:
64,192,28300,1,0,0:0:0:0:
192,192,28300,1,0,0:0:0:0:
320,192,28300,1,0,0:0:0:0:
448,192,28400,1,0,0:0:0:0:
64,192,28400,1,0,0:0:0:0:
320,192,28400,1,0,0:0:0:0:
192,192,28400,1,0,0:0:0:0:
448,192,28500,1,0,0:0:0:0:
64,192,28500,1,0,0:0:0:0:
320,192,28500,1,0,0:0:0:0:
192,192,28500,1,0,0:0:0:0:
448,192,28600,1,0,0:0:0:0:
64,192,28600,1,0,0:0:0:0:
192,192,28600,1,0,0:0:0:0:
320,192,28600,1,0,0:0:0:0:
64,192,28700,1,0,0:0:0:0:
448,192,28700,1,0,0:0:0:0:
192,192,28700,1,0,0:0:0:0:
320,192,28700,1,0,0:0:0:0:
448,192,28800,1,0,0:0:0:0:
320,192,28800,1,0,0:0:0:0:
192,192,28800,1,0,0:0:0:0:
64,192,28800,1,0,0:0:0:0:
153,192,28875,1,0,0:0:0:0:
448,192,28875,1,0,0:0:0:0:
320,192,28875,1,0,0:0:0:0:
64,192,28900,1,0,0:0:0:0:
51,192,29000,1,0,0:0:0:0:
358,192,29000,1,0,0:0:0:0:
448,192,29000,1,0,0:0:0:0:
51,192,29125,128,0,30000:0:0:0:0:
153,192,29125,128,0,30000:0:0:0:0:
256,192,29125,128,0,30000:0:0:0:0:
358,192,29125,128,0,30000:0:0:0:0:
460,192,29125,128,0,30625:0:0:0:0:
320,192,30125,1,0,0:0:0:0:
192,192,30125,1,0,0:0:0:0:
192,192,30250,1,0,0:0:0:0:
64,192,30250,1,0,0:0:0:0:
320,192,30250,1,0,0:0:0:0:
51,192,30375,128,0,31500:0:0:0:0:
320,192,30375,1,0,0:0:0:0:
192,192,30375,1,0,0:0:0:0:
192,192,30500,1,0,0:0:0:0:
256,192,30625,128,0,31750:0:0:0:0:
192,192,30625,1,0,0:0:0:0:
460,192,30750,128,0,31375:0:0:0:0:
192,192,30750,1,0,0:0:0:0:
192,192,30875,1,0,0:0:0:0:
192,192,31000,1,0,0:0:0:0:
192,192,31125,1,0,0:0:0:0:
192,192,31250,1,0,0:0:0:0:
192,192,31375,1,0,0:0:0:0:
192,192,31500,1,0,0:0:0:0:
448,192,31500,1,0,0:0:0:0:
192,192,31625,1,0,0:0:0:0:
448,192,31625,1,0,0:0:0:0:
460,192,31750,128,0,32375:0:0:0:0:
64,192,31750,1,0,0:0:0:0:
192,192,31750,1,0,0:0:0:0:
64,192,31875,1,0,0:0:0:0:
320,192,31875,1,0,0:0:0:0:
192,192,31875,1,0,0:0:0:0:
51,192,32000,128,0,32500:0:0:0:0:
192,192,32000,1,0,0:0:0:0:
320,192,32000,1,0,0:0:0:0:
256,192,32125,128,0,32375:0:0:0:0:
192,192,32125,1,0,0:0:0:0:
192,192,32375,1,0,0:0:0:0:
320,192,32500,1,0,0:0:0:0:
448,192,32500,1,0,0:0:0:0:
358,192,32625,128,0,33250:0:0:0:0:
192,192,32625,1,0,0:0:0:0:
64,192,32750,1,0,0:0:0:0:
448,192,32750,1,0,0:0:0:0:
51,192,32875,128,0,33500:0:0:0:0:
192,192,32875,1,0,0:0:0:0:
448,192,32875,1,0,0:0:0:0:
192,192,33000,1,0,0:0:0:0:
448,192,33125,1,0,0:0:0:0:
192,192,33125,1,0,0:0:0:0:
192,192,33250,1,0,0:0:0:0:
256,192,33375,128,0,33875:0:0:0:0:
448,192,33375,1,0,0:0:0:0:
192,192,33375,1,0,0:0:0:0:
460,192,33500,128,0,34000:0:0:0:0:
192,192,33750,1,0,0:0:0:0:
64,192,33750,1,0,0:0:0:0:
192,192,33875,1,0,0:0:0:0:
64,192,34000,1,0,0:0:0:0:
192,192,34000,1,0,0:0:0:0:
320,192,34000,1,0,0:0:0:0:
256,192,34125,128,0,34750:0:0:0:0:
64,192,34250,1,0,0:0:0:0:
51,192,34375,128,0,35375:0:0:0:0:
460,192,34375,128,0,35250:0:0:0:0:
192,192,34375,1,0,0:0:0:0:
64,192,34375,1,0,0:0:0:0:
448,192,34375,1,0,0:0:0:0:
192,192,34500,1,0,0:0:0:0:
192,192,34750,1,0,0:0:0:0:
320,192,34875,1,0,0:0:0:0:
192,192,34875,1,0,0:0:0:0:
192,192,35000,1,0,0:0:0:0:
320,192,35000,1,0,0:0:0:0:
256,192,35125,128,0,36000:0:0:0:0:
192,192,35125,1,0,0:0:0:0:
192,192,35250,1,0,0:0:0:0:
448,192,35375,1,0,0:0:0:0:
192,192,35375,1,0,0:0:0:0:
192,192,35500,1,0,0:0:0:0:
64,192,35500,1,0,0:0:0:0:
448,192,35500,1,0,0:0:0:0:
460,192,35625,128,0,36000:0:0:0:0:
192,192,35625,1,0,0:0:0:0:
64,192,35625,1,0,0:0:0:0:
51,192,35750,128,0,36000:0:0:0:0:
192,192,35750,1,0,0:0:0:0:
192,192,36000,1,0,0:0:0:0:
64,192,36000,1,0,0:0:0:0:
320,192,36125,1,0,0:0:0:0:
64,192,36125,1,0,0:0:0:0:
192,192,36125,1,0,0:0:0:0:
153,192,36250,128,0,36500:0:0:0:0:
64,192,36250,1,0,0:0:0:0:
448,192,36250,1,0,0:0:0:0:
358,192,36375,128,0,36875:0:0:0:0:
448,192,36375,1,0,0:0:0:0:
64,192,36500,1,0,0:0:0:0:
448,192,36625,1,0,0:0:0:0:
64,192,36625,1,0,0:0:0:0:
192,192,36625,1,0,0:0:0:0:
192,192,36750,1,0,0:0:0:0:
64,192,36750,1,0,0:0:0:0:
64,192,36875,1,0,0:0:0:0:
192,192,36875,1,0,0:0:0:0:
448,192,36875,1,0,0:0:0:0:
51,192,37000,128,0,37375:0:0:0:0:
448,192,37000,1,0,0:0:0:0:
192,192,37000,1,0,0:0:0:0:
320,192,37000,1,0,0:0:0:0:
460,192,37125,128,0,37500:0:0:0:0:
192,192,37125,1,0,0:0:0:0:
320,192,37125,1,0,0:0:0:0:
192,192,37250,1,0,0:0:0:0:
320,192,37250,1,0,0:0:0:0:
320,192,37375,1,0,0:0:0:0:
192,192,37375,1,0,0:0:0:0:
358,192,37500,1,0,0:0:0:0:
64,192,37500,1,0,0:0:0:0:
192,192,37625,1,0,0:0:0:0:
64,192,37625,1,0,0:0:0:0:
448,192,37625,1,0,0:0:0:0:
153,192,37750,1,0,0:0:0:0:
358,192,37750,1,0,0:0:0:0:
64,192,37750,1,0,0:0:0:0:
256,192,37875,1,0,0:0:0:0:
448,192,37875,1,0,0:0:0:0:
460,192,38000,1,0,0:0:0:0:
64,192,38000,1,0,0:0:0:0:
192,192,38000,1,0,0:0:0:0:
51,192,38125,1,0,0:0:0:0:
153,192,38125,1,0,0:0:0:0:
320,192,38125,1,0,0:0:0:0:
448,192,38125,1,0,0:0:0:0:
358,192,38250,1,0,0:0:0:0:
192,192,38250,1,0,0:0:0:0:
51,192,38375,1,0,0:0:0:0:
448,192,38375,1,0,0:0:0:0:
320,192,38375,1,0,0:0:0:0:
192,192,38375,1,0,0:0:0:0:
256,192,38500,1,0,0:0:0:0:
460,192,38500,1,0,0:0:0:0:
192,192,38500,1,0,0:0:0:0:
192,192,38625,1,0,0:0:0:0:
64,192,38625,1,0,0:0:0:0:
448,192,38625,1,0,0:0:0:0:
358,192,38750,1,0,0:0:0:0:
448,192,38750,1,0,0:0:0:0:
320,192,38875,1,0,0:0:0:0:
64,192,38875,1,0,0:0:0:0:
448,192,38875,1,0,0:0:0:0:
192,192,38875,1,0,0:0:0:0:
51,192,39000,1,0,0:0:0:0:
358,192,39000,1,0,0:0:0:0:
192,192,39000,1,0,0:0:0:0:
256,192,39125,1,0,0:0:0:0:
448,192,39125,1,0,0:0:0:0:
192,192,39125,1,0,0:0:0:0:
64,192,39250,1,0,0:0:0:0:
448,192,39250,1,0,0:0:0:0:
192,192,39250,1,0,0:0:0:0:
448,192,39375,1,0,0:0:0:0:
320,192,39375,1,0,0:0:0:0:
64,192,39375,1,0,0:0:0:0:
192,192,39500,1,0,0:0:0:0:
448,192,39500,1,0,0:0:0:0:
448,192,39625,1,0,0:0:0:0:
64,192,39625,1,0,0:0:0:0:
320,192,39625,1,0,0:0:0:0:
192,192,39625,1,0,0:0:0:0:
64,192,39750,1,0,0:0:0:0:
320,192,39750,1,0,0:0:0:0:
192,192,39875,1,0,0:0:0:0:
448,192,39875,1,0,0:0:0:0:
64,192,39875,1,0,0:0:0:0:
320,192,39875,1,0,0:0:0:0:
320,192,40000,1,0,0:0:0:0:
64,192,40000,1,0,0:0:0:0:
192,192,40000,1,0,0:0:0:0:
448,192,40125,1,0,0:0:0:0:
64,192,40125,1,0,0:0:0:0:
192,192,40125,1,0,0:0:0:0:
64,192,40250,1,0,0:0:0:0:
320,192,40250,1,0,0:0:0:0:
448,192,40375,1,0,0:0:0:0:
192,192,40375,1,0,0:0:0:0:
320,192,40375,1,0,0:0:0:0:
64,192,40500,1,0,0:0:0:0:
192,192,40500,1,0,0:0:0:0:
64,192,40625,1,0,0:0:0:0:
320,192,40625,1,0,0:0:0:0:
448,192,40625,1,0,0:0:0:0:
320,192,40750,1,0,0:0:0:0:
448,192,40750,1,0,0:0:0:0:
64,192,40750,1,0,0:0:0:0:
192,192,40750,1,0,0:0:0:0:
192,192,40875,1,0,0:0:0:0:
448,192,41000,1,0,0:0:0:0:
192,192,41000,1,0,0:0:0:0:
320,192,41000,1,0,0:0:0:0:
192,192,41125,1,0,0:0:0:0:
64,192,41125,1,0,0:0:0:0:
320,192,41125,1,0,0:0:0:0:
64,192,41250,1,0,0:0:0:0:
448,192,41250,1,0,0:0:0:0:
320,192,41250,1,0,0:0:0:0:
192,192,41375,1,0,0:0:0:0:
448,192,41375,1,0,0:0:0:0:
320,192,41375,1,0,0:0:0:0:
320,192,41500,1,0,0:0:0:0:
192,192,41500,1,0,0:0:0:0:
64,192,41500,1,0,0:0:0:0:
192,192,41625,1,0,0:0:0:0:
448,192,41625,1,0,0:0:0:0:
64,192,41750,1,0,0:0:0:0:
448,192,41750,1,0,0:0:0:0:
320,192,41750,1,0,0:0:0:0:
192,192,41875,1,0,0:0:0:0:
320,192,41875,1,0,0:0:0:0:
192,192,42000,1,0,0:0:0:0:
448,192,42000,1,0,0:0:0:0:
64,192,42125,1,0,0:0:0:0:
448,192,42125,1,0,0:0:0:0:
320,192,42125,1,0,0:0:0:0:
64,192,42250,1,0,0:0:0:0:
320,192,42250,1,0,0:0:0:0:
192,192,42250,1,0,0:0:0:0:
448,192,42375,1,0,0:0:0:0:
320,192,42375,1,0,0:0:0:0:
192,192,42375,1,0,0:0:0:0:
192,192,42500,1,0,0:0:0:0:
64,192,42625,1,0,0:0:0:0:
448,192,42625,1,0,0:0:0:0:
320,192,42625,1,0,0:0:0:0:
320,192,42750,1,0,0:0:0:0:
192,192,42750,1,0,0:0:0:0:
448,192,42750,1,0,0:0:0:0:
192,192,42875,1,0,0:0:0:0:
64,192,42875,1,0,0:0:0:0:
320,192,42875,1,0,0:0:0:0:
448,192,42875,1,0,0:0:0:0:
64,192,43000,1,0,0:0:0:0:
448,192,43000,1,0,0:0:0:0:
320,192,43000,1,0,0:0:0:0:
192,192,43000,1,0,0:0:0:0:
64,192,43125,1,0,0:0:0:0:
320,192,43125,1,0,0:0:0:0:
448,192,43125,1,0,0:0:0:0:
448,192,43250,1,0,0:0:0:0:
192,192,43250,1,0,0:0:0:0:
64,192,43375,1,0,0:0:0:0:
320,192,43375,1,0,0:0:0:0:
448,192,43375,1,0,0:0:0:0:
192,192,43375,1,0,0:0:0:0:
192,192,43500,1,0,0:0:0:0:
320,192,43500,1,0,0:0:0:0:
448,192,43500,1,0,0:0:0:0:
320,192,43625,1,0,0:0:0:0:
64,192,43625,1,0,0:0:0:0:
448,192,43625,1,0,0:0:0:0:
192,192,43625,1,0,0:0:0:0:
64,192,43750,1,0,0:0:0:0:
448,192,43750,1,0,0:0:0:0:
192,192,43750,1,0,0:0:0:0:
320,192,43750,1,0,0:0:0:0:
192,192,43875,1,0,0:0:0:0:
448,192,43875,1,0,0:0:0:0:
64,192,43875,1,0,0:0:0:0:
320,192,44000,1,0,0:0:0:0:
192,192,44000,1,0,0:0:0:0:
64,192,44000,1,0,0:0:0:0:
64,192,44125,1,0,0:0:0:0:
320,192,44125,1,0,0:0:0:0:
448,192,44125,1,0,0:0:0:0:
192,192,44125,1,0,0:0:0:0:
320,192,44250,1,0,0:0:0:0:
448,192,44250,1,0,0:0:0:0:
192,192,44250,1,0,0:0:0:0:
64,192,44250,1,0,0:0:0:0:
64,192,44375,1,0,0:0:0:0:
192,192,44375,1,0,0:0:0:0:
448,192,44375,1,0,0:0:0:0:
192,192,44500,1,0,0:0:0:0:
448,192,44500,1,0,0:0:0:0:
320,192,44500,1,0,0:0:0:0:
64,192,44500,1,0,0:0:0:0:
320,192,44625,1,0,0:0:0:0:
192,192,44625,1,0,0:0:0:0:
64,192,44750,1,0,0:0:0:0:
448,192,44750,1,0,0:0:0:0:
320,192,44750,1,0,0:0:0:0:
192,192,44750,1,0,0:0:0:0:
192,192,44875,1,0,0:0:0:0:
448,192,44875,1,0,0:0:0:0:
320,192,44875,1,0,0:0:0:0:
64,192,44875,1,0,0:0:0:0:
192,192,45000,1,0,0:0:0:0:
320,192,45000,1,0,0:0:0:0:
64,192,45000,1,0,0:0:0:0:
448,192,45125,1,0,0:0:0:0:
320,192,45125,1,0,0:0:0:0:
64,192,45125,1,0,0:0:0:0:
192,192,45125,1,0,0:0:0:0:
64,192,45250,1,0,0:0:0:0:
192,192,45250,1,0,0:0:0:0:
320,192,45250,1,0,0:0:0:0:
448,192,45375,1,0,0:0:0:0:
320,192,45375,1,0,0:0:0:0:
64,192,45375,1,0,0:0:0:0:
192,192,45500,1,0,0:0:0:0:
448,192,45500,1,0,0:0:0:0:
64,192,45500,1,0,0:0:0:0:
192,192,45625,1,0,0:0:0:0:
320,192,45625,1,0,0:0:0:0:
64,192,45625,1,0,0:0:0:0:
448,192,45625,1,0,0:0:0:0:
320,192,45750,1,0,0:0:0:0:
448,192,45750,1,0,0:0:0:0:
192,192,45750,1,0,0:0:0:0:
64,192,45750,1,0,0:0:0:0:
64,192,45875,1,0,0:0:0:0:
448,192,45875,1,0,0:0:0:0:
192,192,45875,1,0,0:0:0:0:
320,192,45875,1,0,0:0:0:0:
320,192,46000,1,0,0:0:0:0:
192,192,46000,1,0,0:0:0:0:
64,192,46000,1,0,0:0:0:0:
192,192,46125,1,0,0:0:0:0:
320,192,46125,1,0,0:0:0:0:
448,192,46125,1,0,0:0:0:0:
320,192,46250,1,0,0:0:0:0:
64,192,46250,1,0,0:0:0:0:
192,192,46250,1,0,0:0:0:0:
64,192,46375,1,0,0:0:0:0:
192,192,46375,1,0,0:0:0:0:
320,192,46375,1,0,0:0:0:0:
448,192,46375,1,0,0:0:0:0:
448,192,46500,1,0,0:0:0:0:
192,192,46500,1,0,0:0:0:0:
64,192,46625,1,0,0:0:0:0:
192,192,46625,1,0,0:0:0:0:
320,192,46625,1,0,0:0:0:0:
64,192,46750,1,0,0:0:0:0:
320,192,46750,1,0,0:0:0:0:
448,192,46750,1,0,0:0:0:0:
448,192,46875,1,0,0:0:0:0:
192,192,46875,1,0,0:0:0:0:
64,192,47000,1,0,0:0:0:0:
320,192,47000,1,0,0:0:0:0:
448,192,47000,1,0,0:0:0:0:
448,192,47125,1,0,0:0:0:0:
320,192,47125,1,0,0:0:0:0:
192,192,47125,1,0,0:0:0:0:
320,192,47250,1,0,0:0:0:0:
64,192,47250,1,0,0:0:0:0:
192,192,47250,1,0,0:0:0:0:
448,192,47250,1,0,0:0:0:0:
320,192,47375,1,0,0:0:0:0:
192,192,47375,1,0,0:0:0:0:
64,192,47500,1,0,0:0:0:0:
448,192,47500,1,0,0:0:0:0:
320,192,47500,1,0,0:0:0:0:
192,192,47625,1,0,0:0:0:0:
64,192,47625,1,0,0:0:0:0:
448,192,47750,1,0,0:0:0:0:
320,192,47750,1,0,0:0:0:0:
192,192,47750,1,0,0:0:0:0:
64,192,47875,1,0,0:0:0:0:
320,192,47875,1,0,0:0:0:0:
192,192,48000,1,0,0:0:0:0:
448,192,48000,1,0,0:0:0:0:
320,192,48000,1,0,0:0:0:0:
320,192,48125,1,0,0:0:0:0:
64,192,48125,1,0,0:0:0:0:
448,192,48125,1,0,0:0:0:0:
192,192,48250,1,0,0:0:0:0:
320,192,48250,1,0,0:0:0:0:
64,192,48375,1,0,0:0:0:0:
448,192,48375,1,0,0:0:0:0:
320,192,48375,1,0,0:0:0:0:
320,192,48500,1,0,0:0:0:0:
448,192,48500,1,0,0:0:0:0:
192,192,48500,1,0,0:0:0:0:
192,192,48625,1,0,0:0:0:0:
64,192,48625,1,0,0:0:0:0:
448,192,48625,1,0,0:0:0:0:
192,192,48750,1,0,0:0:0:0:
448,192,48750,1,0,0:0:0:0:
320,192,48750,1,0,0:0:0:0:
320,192,48875,1,0,0:0:0:0:
192,192,48875,1,0,0:0:0:0:
64,192,48875,1,0,0:0:0:0:
448,192,49000,1,0,0:0:0:0:
64,192,49000,1,0,0:0:0:0:
192,192,49000,1,0,0:0:0:0:
64,192,49125,1,0,0:0:0:0:
192,192,49125,1,0,0:0:0:0:
448,192,49125,1,0,0:0:0:0:
320,192,49125,1,0,0:0:0:0:
192,192,49250,1,0,0:0:0:0:
64,192,49250,1,0,0:0:0:0:
320,192,49375,1,0,0:0:0:0:
448,192,49375,1,0,0:0:0:0:
64,192,49375,1,0,0:0:0:0:
448,192,49500,1,0,0:0:0:0:
192,192,49500,1,0,0:0:0:0:
64,192,49625,1,0,0:0:0:0:
192,192,49625,1,0,0:0:0:0:
320,192,49625,1,0,0:0:0:0:
448,192,49625,1,0,0:0:0:0:
192,192,49750,1,0,0:0:0:0:
320,192,49750,1,0,0:0:0:0:
64,192,49750,1,0,0:0:0:0:
448,192,49875,1,0,0:0:0:0:
192,192,49875,1,0,0:0:0:0:
64,192,49875,1,0,0:0:0:0:
320,192,49875,1,0,0:0:0:0:
320,192,50000,1,0,0:0:0:0:
64,192,50000,1,0,0:0:0:0:
192,192,50000,1,0,0:0:0:0:
448,192,50000,1,0,0:0:0:0:
320,192,50125,1,0,0:0:0:0:
64,192,50125,1,0,0:0:0:0:
448,192,50125,1,0,0:0:0:0:
192,192,50125,1,0,0:0:0:0:
192,192,50250,1,0,0:0:0:0:
320,192,50250,1,0,0:0:0:0:
448,192,50250,1,0,0:0:0:0:
64,192,50375,1,0,0:0:0:0:
448,192,50375,1,0,0:0:0:0:
320,192,50375,1,0,0:0:0:0:
192,192,50375,1,0,0:0:0:0:
320,192,50500,1,0,0:0:0:0:
192,192,50500,1,0,0:0:0:0:
64,192,50500,1,0,0:0:0:0:
64,192,50625,1,0,0:0:0:0:
192,192,50625,1,0,0:0:0:0:
320,192,50625,1,0,0:0:0:0:
448,192,50625,1,0,0:0:0:0:
192,192,50750,1,0,0:0:0:0:
64,192,50750,1,0,0:0:0:0:
320,192,50750,1,0,0:0:0:0:
448,192,50750,1,0,0:0:0:0:
192,192,50875,1,0,0:0:0:0:
64,192,50875,1,0,0:0:0:0:
448,192,50875,1,0,0:0:0:0:
320,192,50875,1,0,0:0:0:0:
64,192,51000,1,0,0:0:0:0:
192,192,51000,1,0,0:0:0:0:
320,192,51000,1,0,0:0:0:0:
448,192,51000,1,0,0:0:0:0:
64,192,51125,1,0,0:0:0:0:
192,192,51125,1,0,0:0:0:0:
320,192,51125,1,0,0:0:0:0:
448,192,51125,1,0,0:0:0:0:
64,192,51250,1,0,0:0:0:0:
320,192,51250,1,0,0:0:0:0:
448,192,51375,1,0,0:0:0:0:
192,192,51375,1,0,0:0:0:0:
64,192,51375,1,0,0:0:0:0:
192,192,51500,1,0,0:0:0:0:
448,192,51500,1,0,0:0:0:0:
64,192,51500,1,0,0:0:0:0:
320,192,51500,1,0,0:0:0:0:
192,192,51625,1,0,0:0:0:0:
320,192,51625,1,0,0:0:0:0:
64,192,51625,1,0,0:0:0:0:
320,192,51750,1,0,0:0:0:0:
448,192,51750,1,0,0:0:0:0:
192,192,51750,1,0,0:0:0:0:
64,192,51875,1,0,0:0:0:0:
448,192,51875,1,0,0:0:0:0:
192,192,51875,1,0,0:0:0:0:
320,192,51875,1,0,0:0:0:0:
192,192,52000,1,0,0:0:0:0:
448,192,52000,1,0,0:0:0:0:
320,192,52000,1,0,0:0:0:0:
64,192,52000,1,0,0:0:0:0:
320,192,52125,1,0,0:0:0:0:
192,192,52125,1,0,0:0:0:0:
64,192,52125,1,0,0:0:0:0:
64,192,52250,1,0,0:0:0:0:
448,192,52250,1,0,0:0:0:0:
192,192,52250,1,0,0:0:0:0:
320,192,52250,1,0,0:0:0:0:
320,192,52375,1,0,0:0:0:0:
448,192,52375,1,0,0:0:0:0:
192,192,52375,1,0,0:0:0:0:
64,192,52375,1,0,0:0:0:0:
192,192,52500,1,0,0:0:0:0:
320,192,52500,1,0,0:0:0:0:
64,192,52500,1,0,0:0:0:0:
64,192,52625,1,0,0:0:0:0:
448,192,52625,1,0,0:0:0:0:
320,192,52625,1,0,0:0:0:0:
192,192,52625,1,0,0:0:0:0:
320,192,52750,1,0,0:0:0:0:
448,192,52750,1,0,0:0:0:0:
64,192,52750,1,0,0:0:0:0:
192,192,52750,1,0,0:0:0:0:
320,192,52875,1,0,0:0:0:0:
64,192,52875,1,0,0:0:0:0:
192,192,52875,1,0,0:0:0:0:
64,192,53000,1,0,0:0:0:0:
448,192,53000,1,0,0:0:0:0:
192,192,53125,1,0,0:0:0:0:
320,192,53125,1,0,0:0:0:0:
448,192,53125,1,0,0:0:0:0:
64,192,53125,1,0,0:0:0:0:
192,192,53250,1,0,0:0:0:0:
448,192,53375,1,0,0:0:0:0:
192,192,53375,1,0,0:0:0:0:
320,192,53375,1,0,0:0:0:0:
64,192,53375,1,0,0:0:0:0:
64,192,53500,1,0,0:0:0:0:
320,192,53500,1,0,0:0:0:0:
192,192,53500,1,0,0:0:0:0:
448,192,53500,1,0,0:0:0:0:
192,192,53625,1,0,0:0:0:0:
64,192,53625,1,0,0:0:0:0:
448,192,53625,1,0,0:0:0:0:
320,192,53625,1,0,0:0:0:0:
320,192,53750,1,0,0:0:0:0:
64,192,53750,1,0,0:0:0:0:
448,192,53750,1,0,0:0:0:0:
192,192,53750,1,0,0:0:0:0:
192,192,53875,1,0,0:0:0:0:
448,192,53875,1,0,0:0:0:0:
320,192,53875,1,0,0:0:0:0:
448,192,54000,1,0,0:0:0:0:
64,192,54000,1,0,0:0:0:0:
320,192,54125,1,0,0:0:0:0:
192,192,54125,1,0,0:0:0:0:
64,192,54250,1,0,0:0:0:0:
192,192,54250,1,0,0:0:0:0:
320,192,54250,1,0,0:0:0:0:
448,192,54250,1,0,0:0:0:0:
448,192,54375,1,0,0:0:0:0:
192,192,54375,1,0,0:0:0:0:
64,192,54375,1,0,0:0:0:0:
320,192,54375,1,0,0:0:0:0:
320,192,54500,1,0,0:0:0:0:
192,192,54500,1,0,0:0:0:0:
64,192,54500,1,0,0:0:0:0:
64,192,54625,1,0,0:0:0:0:
448,192,54625,1,0,0:0:0:0:
320,192,54625,1,0,0:0:0:0:
192,192,54750,1,0,0:0:0:0:
64,192,54750,1,0,0:0:0:0:
448,192,54750,1,0,0:0:0:0:
448,192,54875,1,0,0:0:0:0:
320,192,54875,1,0,0:0:0:0:
192,192,54875,1,0,0:0:0:0:
192,192,55000,1,0,0:0:0:0:
64,192,55000,1,0,0:0:0:0:
448,192,55000,1,0,0:0:0:0:
320,192,55125,1,0,0:0:0:0:
192,192,55125,1,0,0:0:0:0:
448,192,55125,1,0,0:0:0:0:
64,192,55250,1,0,0:0:0:0:
320,192,55250,1,0,0:0:0:0:
448,192,55250,1,0,0:0:0:0:
192,192,55250,1,0,0:0:0:0:
448,192,55375,1,0,0:0:0:0:
192,192,55375,1,0,0:0:0:0:
64,192,55500,1,0,0:0:0:0:
320,192,55500,1,0,0:0:0:0:
448,192,55500,1,0,0:0:0:0:
192,192,55625,1,0,0:0:0:0:
448,192,55625,1,0,0:0:0:0:
320,192,55625,1,0,0:0:0:0:
64,192,55625,1,0,0:0:0:0:
192,192,55750,1,0,0:0:0:0:
448,192,55750,1,0,0:0:0:0:
64,192,55750,1,0,0:0:0:0:
320,192,55875,1,0,0:0:0:0:
192,192,55875,1,0,0:0:0:0:
64,192,55875,1,0,0:0:0:0:
64,192,56000,1,0,0:0:0:0:
448,192,56000,1,0,0:0:0:0:
320,192,56125,1,0,0:0:0:0:
192,192,56125,1,0,0:0:0:0:
64,192,56250,1,0,0:0:0:0:
192,192,56250,1,0,0:0:0:0:
320,192,56250,1,0,0:0:0:0:
320,192,56375,1,0,0:0:0:0:
448,192,56375,1,0,0:0:0:0:
192,192,56375,1,0,0:0:0:0:
64,192,56375,1,0,0:0:0:0:
448,192,56500,1,0,0:0:0:0:
192,192,56500,1,0,0:0:0:0:
64,192,56500,1,0,0:0:0:0:
320,192,56625,1,0,0:0:0:0:
448,192,56625,1,0,0:0:0:0:
64,192,56625,1,0,0:0:0:0:
448,192,56750,1,0,0:0:0:0:
192,192,56750,1,0,0:0:0:0:
64,192,56750,1,0,0:0:0:0:
320,192,56875,1,0,0:0:0:0:
64,192,56875,1,0,0:0:0:0:
448,192,57000,1,0,0:0:0:0:
192,192,57000,1,0,0:0:0:0:
64,192,57000,1,0,0:0:0:0:
64,192,57125,1,0,0:0:0:0:
320,192,57125,1,0,0:0:0:0:
192,192,57250,1,0,0:0:0:0:
448,192,57250,1,0,0:0:0:0:
320,192,57375,1,0,0:0:0:0:
192,192,57375,1,0,0:0:0:0:
64,192,57375,1,0,0:0:0:0:
320,192,57500,1,0,0:0:0:0:
64,192,57500,1,0,0:0:0:0:
448,192,57625,1,0,0:0:0:0:
192,192,57625,1,0,0:0:0:0:
64,192,57625,1,0,0:0:0:0:
64,192,57750,1,0,0:0:0:0:
320,192,57750,1,0,0:0:0:0:
192,192,57875,1,0,0:0:0:0:
448,192,57875,1,0,0:0:0:0:
320,192,58000,1,0,0:0:0:0:
64,192,58000,1,0,0:0:0:0:
448,192,58000,1,0,0:0:0:0:
320,192,58125,1,0,0:0:0:0:
64,192,58125,1,0,0:0:0:0:
448,192,58250,1,0,0:0:0:0:
320,192,58250,1,0,0:0:0:0:
192,192,58250,1,0,0:0:0:0:
64,192,58250,1,0,0:0:0:0:
448,192,58375,1,0,0:0:0:0:
64,192,58375,1,0,0:0:0:0:
320,192,58375,1,0,0:0:0:0:
64,192,58500,1,0,0:0:0:0:
320,192,58500,1,0,0:0:0:0:
448,192,58500,1,0,0:0:0:0:
192,192,58625,1,0,0:0:0:0:
448,192,58625,1,0,0:0:0:0:
320,192,58750,1,0,0:0:0:0:
448,192,58750,1,0,0:0:0:0:
64,192,58750,1,0,0:0:0:0:
64,192,58875,1,0,0:0:0:0:
448,192,58875,1,0,0:0:0:0:
192,192,58875,1,0,0:0:0:0:
320,192,58875,1,0,0:0:0:0:
448,192,59000,1,0,0:0:0:0:
192,192,59000,1,0,0:0:0:0:
320,192,59000,1,0,0:0:0:0:
64,192,59125,1,0,0:0:0:0:
320,192,59125,1,0,0:0:0:0:
448,192,59250,1,0,0:0:0:0:
192,192,59250,1,0,0:0:0:0:
64,192,59250,1,0,0:0:0:0:
320,192,59250,1,0,0:0:0:0:
64,192,59375,1,0,0:0:0:0:
192,192,59375,1,0,0:0:0:0:
320,192,59375,1,0,0:0:0:0:
448,192,59375,1,0,0:0:0:0:
320,192,59500,1,0,0:0:0:0:
192,192,59500,1,0,0:0:0:0:
448,192,59500,1,0,0:0:0:0:
64,192,59500,1,0,0:0:0:0:
192,192,59625,1,0,0:0:0:0:
448,192,59625,1,0,0:0:0:0:
64,192,59625,1,0,0:0:0:0:
320,192,59625,1,0,0:0:0:0:
64,192,59750,1,0,0:0:0:0:
448,192,59750,1,0,0:0:0:0:
320,192,59750,1,0,0:0:0:0:
192,192,59750,1,0,0:0:0:0:
64,192,59875,1,0,0:0:0:0:
320,192,59875,1,0,0:0:0:0:
192,192,59875,1,0,0:0:0:0:
448,192,59875,1,0,0:0:0:0:
192,192,60000,1,0,0:0:0:0:
448,192,60000,1,0,0:0:0:0:
320,192,60000,1,0,0:0:0:0:
64,192,60125,1,0,0:0:0:0:
192,192,60125,1,0,0:0:0:0:
320,192,60125,1,0,0:0:0:0:
448,192,60125,1,0,0:0:0:0:
192,192,60250,1,0,0:0:0:0:
448,192,60250,1,0,0:0:0:0:
320,192,60250,1,0,0:0:0:0:
320,192,60375,1,0,0:0:0:0:
448,192,60375,1,0,0:0:0:0:
192,192,60375,1,0,0:0:0:0:
64,192,60375,1,0,0:0:0:0:
64,192,60500,1,0,0:0:0:0:
448,192,60500,1,0,0:0:0:0:
320,192,60500,1,0,0:0:0:0:
192,192,60500,1,0,0:0:0:0:
192,192,60625,1,0,0:0:0:0:
64,192,60625,1,0,0:0:0:0:
320,192,60625,1,0,0:0:0:0:
448,192,60625,1,0,0:0:0:0:
192,192,60750,1,0,0:0:0:0:
320,192,60750,1,0,0:0:0:0:
64,192,60750,1,0,0:0:0:0:
64,192,60875,1,0,0:0:0:0:
448,192,60875,1,0,0:0:0:0:
320,192,60875,1,0,0:0:0:0:
192,192,60875,1,0,0:0:0:0:
320,192,61000,1,0,0:0:0:0:
64,192,61000,1,0,0:0:0:0:
192,192,61000,1,0,0:0:0:0:
448,192,61000,1,0,0:0:0:0:
192,192,61125,1,0,0:0:0:0:
320,192,61125,1,0,0:0:0:0:
448,192,61125,1,0,0:0:0:0:
64,192,61125,1,0,0:0:0:0:
448,192,61250,1,0,0:0:0:0:
192,192,61250,1,0,0:0:0:0:
64,192,61250,1,0,0:0:0:0:
320,192,61250,1,0,0:0:0:0:
64,192,61375,1,0,0:0:0:0:
448,192,61375,1,0,0:0:0:0:
192,192,61375,1,0,0:0:0:0:
320,192,61375,1,0,0:0:0:0:
192,192,61500,1,0,0:0:0:0:
320,192,61500,1,0,0:0:0:0:
64,192,61500,1,0,0:0:0:0:
448,192,61625,1,0,0:0:0:0:
320,192,61625,1,0,0:0:0:0:
192,192,61625,1,0,0:0:0:0:
64,192,61625,1,0,0:0:0:0:
64,192,61750,1,0,0:0:0:0:
448,192,61750,1,0,0:0:0:0:
320,192,61750,1,0,0:0:0:0:
320,192,61875,1,0,0:0:0:0:
192,192,61875,1,0,0:0:0:0:
448,192,61875,1,0,0:0:0:0:
64,192,61875,1,0,0:0:0:0:
192,192,62000,1,0,0:0:0:0:
448,192,62000,1,0,0:0:0:0:
64,192,62125,1,0,0:0:0:0:
448,192,62125,1,0,0:0:0:0:
192,192,62125,1,0,0:0:0:0:
320,192,62125,1,0,0:0:0:0:
192,192,62250,1,0,0:0:0:0:
320,192,62250,1,0,0:0:0:0:
192,192,62375,1,0,0:0:0:0:
448,192,62375,1,0,0:0:0:0:
64,192,62375,1,0,0:0:0:0:
320,192,62500,1,0,0:0:0:0:
192,192,62500,1,0,0:0:0:0:
448,192,62500,1,0,0:0:0:0:
64,192,62500,1,0,0:0:0:0:
64,192,62625,1,0,0:0:0:0:
448,192,62625,1,0,0:0:0:0:
320,192,62625,1,0,0:0:0:0:
192,192,62625,1,0,0:0:0:0:
448,192,62750,1,0,0:0:0:0:
192,192,62750,1,0,0:0:0:0:
320,192,62750,1,0,0:0:0:0:
64,192,62750,1,0,0:0:0:0:
320,192,62875,1,0,0:0:0:0:
64,192,62875,1,0,0:0:0:0:
192,192,62875,1,0,0:0:0:0:
64,192,63000,1,0,0:0:0:0:
448,192,63000,1,0,0:0:0:0:
320,192,63000,1,0,0:0:0:0:
192,192,63125,1,0,0:0:0:0:
448,192,63125,1,0,0:0:0:0:
320,192,63250,1,0,0:0:0:0:
192,192,63250,1,0,0:0:0:0:
64,192,63250,1,0,0:0:0:0:
448,192,63250,1,0,0:0:0:0:
64,192,63375,1,0,0:0:0:0:
448,192,63375,1,0,0:0:0:0:
320,192,63375,1,0,0:0:0:0:
192,192,63375,1,0,0:0:0:0:
192,192,63500,1,0,0:0:0:0:
448,192,63500,1,0,0:0:0:0:
320,192,63500,1,0,0:0:0:0:
64,192,63500,1,0,0:0:0:0:
320,192,63625,1,0,0:0:0:0:
192,192,63625,1,0,0:0:0:0:
64,192,63625,1,0,0:0:0:0:
448,192,63625,1,0,0:0:0:0:
192,192,63750,1,0,0:0:0:0:
320,192,63750,1,0,0:0:0:0:
448,192,63750,1,0,0:0:0:0:
64,192,63750,1,0,0:0:0:0:
64,192,63875,1,0,0:0:0:0:
448,192,63875,1,0,0:0:0:0:
320,192,63875,1,0,0:0:0:0:
448,192,64000,1,0,0:0:0:0:
320,192,64000,1,0,0:0:0:0:
192,192,64000,1,0,0:0:0:0:
64,192,64000,1,0,0:0:0:0:
192,192,64125,1,0,0:0:0:0:
64,192,64125,1,0,0:0:0:0:
448,192,64125,1,0,0:0:0:0:
64,192,64250,1,0,0:0:0:0:
448,192,64250,1,0,0:0:0:0:
320,192,64250,1,0,0:0:0:0:
192,192,64375,1,0,0:0:0:0:
320,192,64375,1,0,0:0:0:0:
448,192,64500,1,0,0:0:0:0:
192,192,64500,1,0,0:0:0:0:
320,192,64500,1,0,0:0:0:0:
64,192,64500,1,0,0:0:0:0:
64,192,64625,1,0,0:0:0:0:
192,192,64625,1,0,0:0:0:0:
320,192,64625,1,0,0:0:0:0:
448,192,64625,1,0,0:0:0:0:
64,192,64750,1,0,0:0:0:0:
192,192,64750,1,0,0:0:0:0:
448,192,64750,1,0,0:0:0:0:
320,192,64750,1,0,0:0:0:0:
64,192,64875,1,0,0:0:0:0:
192,192,64875,1,0,0:0:0:0:
320,192,64875,1,0,0:0:0:0:
448,192,64875,1,0,0:0:0:0:
448,192,65000,1,0,0:0:0:0:
320,192,65000,1,0,0:0:0:0:
192,192,65000,1,0,0:0:0:0:
64,192,65000,1,0,0:0:0:0:
64,192,65125,1,0,0:0:0:0:
448,192,65125,1,0,0:0:0:0:
320,192,65125,1,0,0:0:0:0:
192,192,65125,1,0,0:0:0:0:
448,192,65250,1,0,0:0:0:0:
192,192,65250,1,0,0:0:0:0:
320,192,65250,1,0,0:0:0:0:
64,192,65250,1,0,0:0:0:0:
64,192,65375,1,0,0:0:0:0:
448,192,65375,1,0,0:0:0:0:
192,192,65375,1,0,0:0:0:0:
320,192,65375,1,0,0:0:0:0:
192,192,65500,1,0,0:0:0:0:
320,192,65500,1,0,0:0:0:0:
448,192,65500,1,0,0:0:0:0:
64,192,65625,1,0,0:0:0:0:
448,192,65625,1,0,0:0:0:0:
320,192,65625,1,0,0:0:0:0:
192,192,65625,1,0,0:0:0:0:
320,192,65750,1,0,0:0:0:0:
192,192,65750,1,0,0:0:0:0:
64,192,65750,1,0,0:0:0:0:
448,192,65750,1,0,0:0:0:0:
320,192,65875,1,0,0:0:0:0:
64,192,65875,1,0,0:0:0:0:
192,192,65875,1,0,0:0:0:0:
448,192,65875,1,0,0:0:0:0:
64,192,66000,1,0,0:0:0:0:
192,192,66000,1,0,0:0:0:0:
448,192,66000,1,0,0:0:0:0:
320,192,66000,1,0,0:0:0:0:
448,192,66125,1,0,0:0:0:0:
192,192,66125,1,0,0:0:0:0:
320,192,66125,1,0,0:0:0:0:
64,192,66125,1,0,0:0:0:0:
448,192,66250,1,0,0:0:0:0:
320,192,66250,1,0,0:0:0:0:
192,192,66250,1,0,0:0:0:0:
64,192,66250,1,0,0:0:0:0:
320,192,66375,1,0,0:0:0:0:
448,192,66375,1,0,0:0:0:0:
64,192,66375,1,0,0:0:0:0:
192,192,66375,1,0,0:0:0:0:
64,192,66500,1,0,0:0:0:0:
448,192,66500,1,0,0:0:0:0:
192,192,66500,1,0,0:0:0:0:
320,192,66500,1,0,0:0:0:0:
448,192,66625,1,0,0:0:0:0:
64,192,66625,1,0,0:0:0:0:
192,192,66625,1,0,0:0:0:0:
320,192,66625,1,0,0:0:0:0:
64,192,66750,1,0,0:0:0:0:
448,192,66750,1,0,0:0:0:0:
320,192,66750,1,0,0:0:0:0:
448,192,66875,1,0,0:0:0:0:
64,192,66875,1,0,0:0:0:0:
192,192,66875,1,0,0:0:0:0:
320,192,66875,1,0,0:0:0:0:
64,192,67000,1,0,0:0:0:0:
448,192,67000,1,0,0:0:0:0:
192,192,67000,1,0,0:0:0:0:
448,192,67125,1,0,0:0:0:0:
64,192,67125,1,0,0:0:0:0:
320,192,67125,1,0,0:0:0:0:
192,192,67125,1,0,0:0:0:0:
192,192,67250,1,0,0:0:0:0:
320,192,67250,1,0,0:0:0:0:
448,192,67250,1,0,0:0:0:0:
64,192,67250,1,0,0:0:0:0:
192,192,67375,1,0,0:0:0:0:
320,192,67375,1,0,0:0:0:0:
448,192,67375,1,0,0:0:0:0:
64,192,67375,1,0,0:0:0:0:
192,192,67500,1,0,0:0:0:0:
320,192,67500,1,0,0:0:0:0:
448,192,67500,1,0,0:0:0:0:
64,192,67500,1,0,0:0:0:0:
320,192,67625,1,0,0:0:0:0:
192,192,67625,1,0,0:0:0:0:
448,192,67625,1,0,0:0:0:0:
64,192,67625,1,0,0:0:0:0:
192,192,67750,1,0,0:0:0:0:
320,192,67750,1,0,0:0:0:0:
448,192,67750,1,0,0:0:0:0:
64,192,67750,1,0,0:0:0:0:
320,192,67875,1,0,0:0:0:0:
192,192,67875,1,0,0:0:0:0:
448,192,67875,1,0,0:0:0:0:
64,192,67875,1,0,0:0:0:0:
192,192,68000,1,0,0:0:0:0:
320,192,68000,1,0,0:0:0:0:
448,192,68000,1,0,0:0:0:0:
64,192,68000,1,0,0:0:0:0:
192,192,68125,1,0,0:0:0:0:
320,192,68125,1,0,0:0:0:0:
448,192,68125,1,0,0:0:0:0:
64,192,68125,1,0,0:0:0:0:
64,192,68250,1,0,0:0:0:0:
448,192,68250,1,0,0:0:0:0:
320,192,68250,1,0,0:0:0:0:
192,192,68250,1,0,0:0:0:0:
192,192,68375,1,0,0:0:0:0:
320,192,68375,1,0,0:0:0:0:
448,192,68375,1,0,0:0:0:0:
64,192,68375,1,0,0:0:0:0:
448,192,68500,1,0,0:0:0:0:
320,192,68500,1,0,0:0:0:0:
192,192,68500,1,0,0:0:0:0:
64,192,68500,1,0,0:0:0:0:
64,192,68625,1,0,0:0:0:0:
320,192,68625,1,0,0:0:0:0:
192,192,68625,1,0,0:0:0:0:
448,192,68625,1,0,0:0:0:0:
192,192,68750,1,0,0:0:0:0:
448,192,68750,1,0,0:0:0:0:
320,192,68750,1,0,0:0:0:0:
64,192,68750,1,0,0:0:0:0:
448,192,68875,1,0,0:0:0:0:
320,192,68875,1,0,0:0:0:0:
192,192,68875,1,0,0:0:0:0:
64,192,68875,1,0,0:0:0:0:
64,192,69000,1,0,0:0:0:0:
448,192,69000,1,0,0:0:0:0:
320,192,69000,1,0,0:0:0:0:
192,192,69125,1,0,0:0:0:0:
320,192,69125,1,0,0:0:0:0:
448,192,69125,1,0,0:0:0:0:
192,192,69250,1,0,0:0:0:0:
448,192,69250,1,0,0:0:0:0:
64,192,69250,1,0,0:0:0:0:
64,192,69375,1,0,0:0:0:0:
320,192,69375,1,0,0:0:0:0:
448,192,69500,128,0,70500:0:0:0:0:
320,192,69500,128,0,70500:0:0:0:0:
192,192,69500,128,0,70500:0:0:0:0:
64,192,69500,128,0,70500:0:0:0:0:
192,192,70625,1,0,0:0:0:0:
320,192,70625,1,0,0:0:0:0:
64,192,70625,1,0,0:0:0:0:
448,192,70625,1,0,0:0:0:0:
448,192,70750,1,0,0:0:0:0:
320,192,70750,1,0,0:0:0:0:
64,192,70750,1,0,0:0:0:0:
192,192,70750,1,0,0:0:0:0:
64,192,70875,1,0,0:0:0:0:
320,192,70875,1,0,0:0:0:0:
448,192,70875,1,0,0:0:0:0:
192,192,70875,1,0,0:0:0:0:
448,192,71000,1,0,0:0:0:0:
192,192,71000,1,0,0:0:0:0:
64,192,71000,1,0,0:0:0:0:
192,192,71125,1,0,0:0:0:0:
64,192,71125,1,0,0:0:0:0:
448,192,71125,1,0,0:0:0:0:
320,192,71125,1,0,0:0:0:0:
64,192,71250,1,0,0:0:0:0:
320,192,71250,1,0,0:0:0:0:
448,192,71250,1,0,0:0:0:0:
192,192,71250,1,0,0:0:0:0:
64,192,71375,1,0,0:0:0:0:
448,192,71375,1,0,0:0:0:0:
320,192,71375,1,0,0:0:0:0:
192,192,71375,1,0,0:0:0:0:
64,192,71500,1,0,0:0:0:0:
192,192,71500,1,0,0:0:0:0:
320,192,71500,1,0,0:0:0:0:
448,192,71500,1,0,0:0:0:0:
192,192,71625,1,0,0:0:0:0:
448,192,71625,1,0,0:0:0:0:
64,192,71750,1,0,0:0:0:0:
320,192,71750,1,0,0:0:0:0:
448,192,71750,1,0,0:0:0:0:
192,192,71750,1,0,0:0:0:0:
320,192,71875,1,0,0:0:0:0:
448,192,71875,1,0,0:0:0:0:
192,192,71875,1,0,0:0:0:0:
64,192,71875,1,0,0:0:0:0:
64,192,72000,1,0,0:0:0:0:
448,192,72000,1,0,0:0:0:0:
192,192,72125,1,0,0:0:0:0:
320,192,72125,1,0,0:0:0:0:
448,192,72125,1,0,0:0:0:0:
64,192,72250,1,0,0:0:0:0:
448,192,72250,1,0,0:0:0:0:
192,192,72250,1,0,0:0:0:0:
192,192,72375,1,0,0:0:0:0:
320,192,72375,1,0,0:0:0:0:
448,192,72375,1,0,0:0:0:0:
320,192,72500,1,0,0:0:0:0:
64,192,72500,1,0,0:0:0:0:
192,192,72500,1,0,0:0:0:0:
64,192,72625,1,0,0:0:0:0:
448,192,72625,1,0,0:0:0:0:
192,192,72625,1,0,0:0:0:0:
320,192,72625,1,0,0:0:0:0:
448,192,72750,1,0,0:0:0:0:
192,192,72750,1,0,0:0:0:0:
320,192,72750,1,0,0:0:0:0:
64,192,72750,1,0,0:0:0:0:
320,192,72875,1,0,0:0:0:0:
64,192,72875,1,0,0:0:0:0:
192,192,72875,1,0,0:0:0:0:
448,192,73000,1,0,0:0:0:0:
64,192,73000,1,0,0:0:0:0:
192,192,73125,1,0,0:0:0:0:
64,192,73125,1,0,0:0:0:0:
320,192,73125,1,0,0:0:0:0:
448,192,73125,1,0,0:0:0:0:
64,192,73250,1,0,0:0:0:0:
320,192,73250,1,0,0:0:0:0:
448,192,73250,1,0,0:0:0:0:
192,192,73250,1,0,0:0:0:0:
448,192,73375,1,0,0:0:0:0:
192,192,73375,1,0,0:0:0:0:
320,192,73375,1,0,0:0:0:0:
64,192,73375,1,0,0:0:0:0:
320,192,73500,1,0,0:0:0:0:
448,192,73500,1,0,0:0:0:0:
64,192,73500,1,0,0:0:0:0:
64,192,73625,1,0,0:0:0:0:
448,192,73625,1,0,0:0:0:0:
192,192,73625,1,0,0:0:0:0:
192,192,73750,1,0,0:0:0:0:
448,192,73750,1,0,0:0:0:0:
64,192,73875,1,0,0:0:0:0:
320,192,73875,1,0,0:0:0:0:
448,192,73875,1,0,0:0:0:0:
192,192,73875,1,0,0:0:0:0:
448,192,74000,1,0,0:0:0:0:
192,192,74000,1,0,0:0:0:0:
320,192,74000,1,0,0:0:0:0:
64,192,74000,1,0,0:0:0:0:
64,192,74125,1,0,0:0:0:0:
320,192,74125,1,0,0:0:0:0:
448,192,74125,1,0,0:0:0:0:
192,192,74125,1,0,0:0:0:0:
64,192,74250,1,0,0:0:0:0:
192,192,74250,1,0,0:0:0:0:
320,192,74250,1,0,0:0:0:0:
448,192,74250,1,0,0:0:0:0:
320,192,74375,1,0,0:0:0:0:
448,192,74375,1,0,0:0:0:0:
192,192,74375,1,0,0:0:0:0:
64,192,74375,1,0,0:0:0:0:
64,192,74500,1,0,0:0:0:0:
192,192,74500,1,0,0:0:0:0:
320,192,74500,1,0,0:0:0:0:
448,192,74500,1,0,0:0:0:0:
320,192,74625,1,0,0:0:0:0:
192,192,74625,1,0,0:0:0:0:
64,192,74625,1,0,0:0:0:0:
448,192,74625,1,0,0:0:0:0:
448,192,74750,1,0,0:0:0:0:
192,192,74750,1,0,0:0:0:0:
320,192,74750,1,0,0:0:0:0:
64,192,74750,1,0,0:0:0:0:
64,192,74875,1,0,0:0:0:0:
320,192,74875,1,0,0:0:0:0:
448,192,74875,1,0,0:0:0:0:
192,192,74875,1,0,0:0:0:0:
192,192,75000,1,0,0:0:0:0:
64,192,75000,1,0,0:0:0:0:
320,192,75000,1,0,0:0:0:0:
448,192,75000,1,0,0:0:0:0:
448,192,75125,1,0,0:0:0:0:
64,192,75125,1,0,0:0:0:0:
320,192,75125,1,0,0:0:0:0:
192,192,75125,1,0,0:0:0:0:
64,192,75250,1,0,0:0:0:0:
192,192,75250,1,0,0:0:0:0:
320,192,75250,1,0,0:0:0:0:
448,192,75250,1,0,0:0:0:0:
448,192,75375,1,0,0:0:0:0:
320,192,75375,1,0,0:0:0:0:
192,192,75375,1,0,0:0:0:0:
64,192,75500,1,0,0:0:0:0:
448,192,75500,1,0,0:0:0:0:
320,192,75500,1,0,0:0:0:0:
192,192,75500,1,0,0:0:0:0:
192,192,75625,1,0,0:0:0:0:
320,192,75625,1,0,0:0:0:0:
64,192,75625,1,0,0:0:0:0:
448,192,75625,1,0,0:0:0:0:
64,192,75750,1,0,0:0:0:0:
320,192,75750,1,0,0:0:0:0:
448,192,75750,1,0,0:0:0:0:
192,192,75750,1,0,0:0:0:0:
192,192,75875,1,0,0:0:0:0:
448,192,75875,1,0,0:0:0:0:
320,192,75875,1,0,0:0:0:0:
64,192,75875,1,0,0:0:0:0:
192,192,76000,1,0,0:0:0:0:
320,192,76000,1,0,0:0:0:0:
448,192,76000,1,0,0:0:0:0:
64,192,76000,1,0,0:0:0:0:
64,192,76125,1,0,0:0:0:0:
448,192,76125,1,0,0:0:0:0:
320,192,76125,1,0,0:0:0:0:
192,192,76125,1,0,0:0:0:0:
320,192,76250,1,0,0:0:0:0:
64,192,76250,1,0,0:0:0:0:
192,192,76250,1,0,0:0:0:0:
448,192,76250,1,0,0:0:0:0:
64,192,76375,1,0,0:0:0:0:
448,192,76375,1,0,0:0:0:0:
192,192,76375,1,0,0:0:0:0:
320,192,76375,1,0,0:0:0:0:
320,192,76500,1,0,0:0:0:0:
192,192,76500,1,0,0:0:0:0:
448,192,76500,1,0,0:0:0:0:
64,192,76500,1,0,0:0:0:0:
64,192,76625,1,0,0:0:0:0:
448,192,76625,1,0,0:0:0:0:
320,192,76625,1,0,0:0:0:0:
192,192,76625,1,0,0:0:0:0:
192,192,76750,1,0,0:0:0:0:
448,192,76750,1,0,0:0:0:0:
64,192,76750,1,0,0:0:0:0:
320,192,76750,1,0,0:0:0:0:
192,192,76875,1,0,0:0:0:0:
64,192,76875,1,0,0:0:0:0:
320,192,76875,1,0,0:0:0:0:
448,192,76875,1,0,0:0:0:0:
192,192,77000,1,0,0:0:0:0:
320,192,77000,1,0,0:0:0:0:
448,192,77000,1,0,0:0:0:0:
64,192,77000,1,0,0:0:0:0:
448,192,77125,1,0,0:0:0:0:
320,192,77125,1,0,0:0:0:0:
192,192,77125,1,0,0:0:0:0:
64,192,77125,1,0,0:0:0:0:
64,192,77250,1,0,0:0:0:0:
192,192,77250,1,0,0:0:0:0:
320,192,77250,1,0,0:0:0:0:
448,192,77250,1,0,0:0:0:0:
448,192,77375,1,0,0:0:0:0:
320,192,77375,1,0,0:0:0:0:
192,192,77375,1,0,0:0:0:0:
64,192,77375,1,0,0:0:0:0:
448,192,77500,1,0,0:0:0:0:
64,192,77500,1,0,0:0:0:0:
320,192,77500,1,0,0:0:0:0:
192,192,77500,1,0,0:0:0:0:
320,192,77625,1,0,0:0:0:0:
192,192,77625,1,0,0:0:0:0:
64,192,77625,1,0,0:0:0:0:
448,192,77625,1,0,0:0:0:0:
64,192,77750,1,0,0:0:0:0:
448,192,77750,1,0,0:0:0:0:
320,192,77750,1,0,0:0:0:0:
192,192,77750,1,0,0:0:0:0:
192,192,77875,1,0,0:0:0:0:
448,192,77875,1,0,0:0:0:0:
320,192,77875,1,0,0:0:0:0:
64,192,77875,1,0,0:0:0:0:
64,192,78000,1,0,0:0:0:0:
448,192,78000,1,0,0:0:0:0:
192,192,78000,1,0,0:0:0:0:
320,192,78000,1,0,0:0:0:0:
64,192,78125,1,0,0:0:0:0:
320,192,78125,1,0,0:0:0:0:
192,192,78125,1,0,0:0:0:0:
448,192,78125,1,0,0:0:0:0:
192,192,78250,1,0,0:0:0:0:
448,192,78250,1,0,0:0:0:0:
320,192,78250,1,0,0:0:0:0:
64,192,78250,1,0,0:0:0:0:
320,192,78375,1,0,0:0:0:0:
64,192,78375,1,0,0:0:0:0:
448,192,78375,1,0,0:0:0:0:
192,192,78375,1,0,0:0:0:0:
448,192,78500,1,0,0:0:0:0:
64,192,78500,1,0,0:0:0:0:
192,192,78500,1,0,0:0:0:0:
320,192,78500,1,0,0:0:0:0:
64,192,78625,1,0,0:0:0:0:
320,192,78625,1,0,0:0:0:0:
192,192,78625,1,0,0:0:0:0:
448,192,78625,1,0,0:0:0:0:
448,192,78750,1,0,0:0:0:0:
192,192,78750,1,0,0:0:0:0:
320,192,78750,1,0,0:0:0:0:
64,192,78750,1,0,0:0:0:0:
192,192,78875,1,0,0:0:0:0:
320,192,78875,1,0,0:0:0:0:
64,192,78875,1,0,0:0:0:0:
448,192,78875,1,0,0:0:0:0:
64,192,79000,1,0,0:0:0:0:
448,192,79000,1,0,0:0:0:0:
320,192,79000,1,0,0:0:0:0:
192,192,79000,1,0,0:0:0:0:
192,192,79125,1,0,0:0:0:0:
448,192,79125,1,0,0:0:0:0:
64,192,79125,1,0,0:0:0:0:
320,192,79125,1,0,0:0:0:0:
192,192,79250,1,0,0:0:0:0:
64,192,79250,1,0,0:0:0:0:
320,192,79250,1,0,0:0:0:0:
448,192,79250,1,0,0:0:0:0:
320,192,79375,1,0,0:0:0:0:
64,192,79375,1,0,0:0:0:0:
448,192,79375,1,0,0:0:0:0:
192,192,79375,1,0,0:0:0:0:
64,192,79500,1,0,0:0:0:0:
192,192,79500,1,0,0:0:0:0:
448,192,79500,1,0,0:0:0:0:
320,192,79625,1,0,0:0:0:0:
64,192,79625,1,0,0:0:0:0:
192,192,79625,1,0,0:0:0:0:
192,192,79750,1,0,0:0:0:0:
448,192,79750,1,0,0:0:0:0:
64,192,79750,1,0,0:0:0:0:
192,192,79875,1,0,0:0:0:0:
320,192,79875,1,0,0:0:0:0:
64,192,79875,1,0,0:0:0:0:
448,192,80000,1,0,0:0:0:0:
320,192,80000,1,0,0:0:0:0:
192,192,80000,1,0,0:0:0:0:
64,192,80000,1,0,0:0:0:0:
64,192,80125,1,0,0:0:0:0:
448,192,80125,1,0,0:0:0:0:
320,192,80125,1,0,0:0:0:0:
192,192,80125,1,0,0:0:0:0:
448,192,80250,1,0,0:0:0:0:
320,192,80250,1,0,0:0:0:0:
64,192,80250,1,0,0:0:0:0:
192,192,80250,1,0,0:0:0:0:
64,192,80375,1,0,0:0:0:0:
192,192,80375,1,0,0:0:0:0:
320,192,80375,1,0,0:0:0:0:
448,192,80375,1,0,0:0:0:0:
448,192,80500,1,0,0:0:0:0:
192,192,80500,1,0,0:0:0:0:
320,192,80500,1,0,0:0:0:0:
64,192,80500,1,0,0:0:0:0:
192,192,80625,1,0,0:0:0:0:
320,192,80625,1,0,0:0:0:0:
64,192,80625,1,0,0:0:0:0:
448,192,80625,1,0,0:0:0:0:
448,192,80750,1,0,0:0:0:0:
320,192,80750,1,0,0:0:0:0:
192,192,80750,1,0,0:0:0:0:
64,192,80750,1,0,0:0:0:0:
64,192,80875,1,0,0:0:0:0:
192,192,80875,1,0,0:0:0:0:
320,192,80875,1,0,0:0:0:0:
448,192,80875,1,0,0:0:0:0:
320,192,81000,1,0,0:0:0:0:
448,192,81000,1,0,0:0:0:0:
192,192,81000,1,0,0:0:0:0:
64,192,81000,1,0,0:0:0:0:
192,192,81125,1,0,0:0:0:0:
448,192,81125,1,0,0:0:0:0:
320,192,81125,1,0,0:0:0:0:
320,192,81250,1,0,0:0:0:0:
448,192,81250,1,0,0:0:0:0:
64,192,81250,1,0,0:0:0:0:
192,192,81250,1,0,0:0:0:0:
64,192,81375,1,0,0:0:0:0:
448,192,81375,1,0,0:0:0:0:
192,192,81375,1,0,0:0:0:0:
64,192,81500,1,0,0:0:0:0:
192,192,81500,1,0,0:0:0:0:
320,192,81500,1,0,0:0:0:0:
448,192,81500,1,0,0:0:0:0:
320,192,81625,1,0,0:0:0:0:
448,192,81625,1,0,0:0:0:0:
192,192,81625,1,0,0:0:0:0:
64,192,81625,1,0,0:0:0:0:
64,192,81750,1,0,0:0:0:0:
448,192,81750,1,0,0:0:0:0:
320,192,81750,1,0,0:0:0:0:
192,192,81750,1,0,0:0:0:0:
64,192,81875,1,0,0:0:0:0:
448,192,81875,1,0,0:0:0:0:
320,192,81875,1,0,0:0:0:0:
192,192,81875,1,0,0:0:0:0:
320,192,82000,1,0,0:0:0:0:
192,192,82000,1,0,0:0:0:0:
64,192,82000,1,0,0:0:0:0:
192,192,82125,1,0,0:0:0:0:
448,192,82125,1,0,0:0:0:0:
64,192,82250,1,0,0:0:0:0:
192,192,82250,1,0,0:0:0:0:
448,192,82250,1,0,0:0:0:0:
64,192,82375,1,0,0:0:0:0:
320,192,82375,1,0,0:0:0:0:
448,192,82375,1,0,0:0:0:0:
192,192,82375,1,0,0:0:0:0:
448,192,82500,1,0,0:0:0:0:
64,192,82500,1,0,0:0:0:0:
320,192,82500,1,0,0:0:0:0:
192,192,82500,1,0,0:0:0:0:
192,192,82625,1,0,0:0:0:0:
320,192,82625,1,0,0:0:0:0:
448,192,82750,1,0,0:0:0:0:
64,192,82750,1,0,0:0:0:0:
320,192,82750,1,0,0:0:0:0:
192,192,82750,1,0,0:0:0:0:
320,192,82875,1,0,0:0:0:0:
192,192,82875,1,0,0:0:0:0:
64,192,82875,1,0,0:0:0:0:
448,192,82875,1,0,0:0:0:0:
192,192,83000,1,0,0:0:0:0:
64,192,83000,1,0,0:0:0:0:
320,192,83000,1,0,0:0:0:0:
448,192,83125,1,0,0:0:0:0:
320,192,83125,1,0,0:0:0:0:
192,192,83125,1,0,0:0:0:0:
64,192,83125,1,0,0:0:0:0:
192,192,83250,1,0,0:0:0:0:
448,192,83250,1,0,0:0:0:0:
320,192,83250,1,0,0:0:0:0:
64,192,83375,1,0,0:0:0:0:
320,192,83375,1,0,0:0:0:0:
192,192,83375,1,0,0:0:0:0:
192,192,83500,1,0,0:0:0:0:
448,192,83500,1,0,0:0:0:0:
64,192,83500,1,0,0:0:0:0:
320,192,83500,1,0,0:0:0:0:
64,192,83625,1,0,0:0:0:0:
320,192,83625,1,0,0:0:0:0:
192,192,83625,1,0,0:0:0:0:
448,192,83625,1,0,0:0:0:0:
448,192,83750,1,0,0:0:0:0:
192,192,83750,1,0,0:0:0:0:
64,192,83750,1,0,0:0:0:0:
320,192,83750,1,0,0:0:0:0:
320,192,83875,1,0,0:0:0:0:
64,192,83875,1,0,0:0:0:0:
192,192,83875,1,0,0:0:0:0:
448,192,83875,1,0,0:0:0:0:
192,192,84000,1,0,0:0:0:0:
320,192,84000,1,0,0:0:0:0:
448,192,84000,1,0,0:0:0:0:
64,192,84125,1,0,0:0:0:0:
448,192,84125,1,0,0:0:0:0:
320,192,84125,1,0,0:0:0:0:
192,192,84125,1,0,0:0:0:0:
448,192,84250,1,0,0:0:0:0:
320,192,84250,1,0,0:0:0:0:
192,192,84375,1,0,0:0:0:0:
64,192,84375,1,0,0:0:0:0:
320,192,84375,1,0,0:0:0:0:
448,192,84375,1,0,0:0:0:0:
320,192,84500,1,0,0:0:0:0:
192,192,84500,1,0,0:0:0:0:
64,192,84500,1,0,0:0:0:0:
192,192,84625,1,0,0:0:0:0:
448,192,84625,1,0,0:0:0:0:
320,192,84625,1,0,0:0:0:0:
192,192,84750,1,0,0:0:0:0:
448,192,84750,1,0,0:0:0:0:
64,192,84875,1,0,0:0:0:0:
448,192,84875,1,0,0:0:0:0:
320,192,84875,1,0,0:0:0:0:
320,192,85000,1,0,0:0:0:0:
192,192,85000,1,0,0:0:0:0:
64,192,85000,1,0,0:0:0:0:
192,192,85125,1,0,0:0:0:0:
64,192,85125,1,0,0:0:0:0:
320,192,85125,1,0,0:0:0:0:
448,192,85125,1,0,0:0:0:0:
192,192,85250,128,0,85625:0:0:0:0:
320,192,85250,1,0,0:0:0:0:
64,192,85250,1,0,0:0:0:0:
448,192,85250,1,0,0:0:0:0:
448,192,85375,1,0,0:0:0:0:
64,192,85375,1,0,0:0:0:0:
320,192,85375,1,0,0:0:0:0:
448,192,85500,1,0,0:0:0:0:
64,192,85500,1,0,0:0:0:0:
448,192,85625,1,0,0:0:0:0:
320,192,85625,1,0,0:0:0:0:
64,192,85625,1,0,0:0:0:0:
320,192,85750,1,0,0:0:0:0:
64,192,85750,1,0,0:0:0:0:
192,192,85750,1,0,0:0:0:0:
448,192,85750,1,0,0:0:0:0:
64,192,85875,1,0,0:0:0:0:
192,192,85875,1,0,0:0:0:0:
448,192,85875,1,0,0:0:0:0:
320,192,85875,1,0,0:0:0:0:
192,192,86000,1,0,0:0:0:0:
448,192,86000,1,0,0:0:0:0:
320,192,86000,1,0,0:0:0:0:
64,192,86000,1,0,0:0:0:0:
448,192,86125,1,0,0:0:0:0:
320,192,86125,1,0,0:0:0:0:
192,192,86125,1,0,0:0:0:0:
64,192,86125,1,0,0:0:0:0:
64,192,86250,1,0,0:0:0:0:
320,192,86250,1,0,0:0:0:0:
192,192,86250,1,0,0:0:0:0:
448,192,86250,1,0,0:0:0:0:
448,192,86375,1,0,0:0:0:0:
320,192,86375,1,0,0:0:0:0:
192,192,86375,1,0,0:0:0:0:
64,192,86375,1,0,0:0:0:0:
192,192,86500,1,0,0:0:0:0:
448,192,86500,1,0,0:0:0:0:
320,192,86500,1,0,0:0:0:0:
64,192,86500,1,0,0:0:0:0:
64,192,86625,1,0,0:0:0:0:
192,192,86625,1,0,0:0:0:0:
448,192,86625,1,0,0:0:0:0:
320,192,86625,1,0,0:0:0:0:
64,192,86750,1,0,0:0:0:0:
448,192,86750,1,0,0:0:0:0:
192,192,86750,1,0,0:0:0:0:
320,192,86750,1,0,0:0:0:0:
320,192,86875,1,0,0:0:0:0:
192,192,86875,1,0,0:0:0:0:
64,192,86875,1,0,0:0:0:0:
192,192,87000,1,0,0:0:0:0:
448,192,87000,1,0,0:0:0:0:
320,192,87000,1,0,0:0:0:0:
64,192,87000,1,0,0:0:0:0:
64,192,87125,1,0,0:0:0:0:
192,192,87125,1,0,0:0:0:0:
320,192,87125,1,0,0:0:0:0:
448,192,87125,1,0,0:0:0:0:
64,192,87250,1,0,0:0:0:0:
320,192,87250,1,0,0:0:0:0:
448,192,87250,1,0,0:0:0:0:
192,192,87250,1,0,0:0:0:0:
192,192,87375,1,0,0:0:0:0:
320,192,87375,1,0,0:0:0:0:
64,192,87375,1,0,0:0:0:0:
448,192,87375,1,0,0:0:0:0:
448,192,87500,1,0,0:0:0:0:
192,192,87500,1,0,0:0:0:0:
64,192,87500,1,0,0:0:0:0:
320,192,87500,1,0,0:0:0:0:
64,192,87625,1,0,0:0:0:0:
448,192,87625,1,0,0:0:0:0:
320,192,87625,1,0,0:0:0:0:
192,192,87625,1,0,0:0:0:0:
448,192,87750,1,0,0:0:0:0:
320,192,87750,1,0,0:0:0:0:
192,192,87750,1,0,0:0:0:0:
64,192,87750,1,0,0:0:0:0:
192,192,87875,1,0,0:0:0:0:
64,192,87875,1,0,0:0:0:0:
448,192,87875,1,0,0:0:0:0:
320,192,87875,1,0,0:0:0:0:
64,192,88000,1,0,0:0:0:0:
448,192,88000,1,0,0:0:0:0:
320,192,88000,1,0,0:0:0:0:
192,192,88000,1,0,0:0:0:0:
192,192,88125,1,0,0:0:0:0:
320,192,88125,1,0,0:0:0:0:
64,192,88125,1,0,0:0:0:0:
448,192,88125,1,0,0:0:0:0:
448,192,88250,1,0,0:0:0:0:
64,192,88250,1,0,0:0:0:0:
320,192,88250,1,0,0:0:0:0:
192,192,88250,1,0,0:0:0:0:
192,192,88375,1,0,0:0:0:0:
64,192,88375,1,0,0:0:0:0:
320,192,88375,1,0,0:0:0:0:
448,192,88375,1,0,0:0:0:0:
448,192,88500,1,0,0:0:0:0:
64,192,88500,1,0,0:0:0:0:
192,192,88500,1,0,0:0:0:0:
320,192,88500,1,0,0:0:0:0:
64,192,88625,1,0,0:0:0:0:
192,192,88625,1,0,0:0:0:0:
320,192,88625,1,0,0:0:0:0:
448,192,88625,1,0,0:0:0:0:
64,192,88750,1,0,0:0:0:0:
320,192,88750,1,0,0:0:0:0:
192,192,88750,1,0,0:0:0:0:
448,192,88750,1,0,0:0:0:0:
64,192,88875,1,0,0:0:0:0:
192,192,88875,1,0,0:0:0:0:
448,192,88875,1,0,0:0:0:0:
320,192,88875,1,0,0:0:0:0:
448,192,89000,1,0,0:0:0:0:
320,192,89000,1,0,0:0:0:0:
64,192,89000,1,0,0:0:0:0:
192,192,89000,1,0,0:0:0:0:
192,192,89125,1,0,0:0:0:0:
448,192,89125,1,0,0:0:0:0:
320,192,89125,1,0,0:0:0:0:
64,192,89250,1,0,0:0:0:0:
320,192,89250,1,0,0:0:0:0:
448,192,89250,1,0,0:0:0:0:
192,192,89250,1,0,0:0:0:0:
192,192,89375,1,0,0:0:0:0:
448,192,89375,1,0,0:0:0:0:
64,192,89375,1,0,0:0:0:0:
320,192,89375,1,0,0:0:0:0:
320,192,89500,1,0,0:0:0:0:
64,192,89500,1,0,0:0:0:0:
192,192,89500,1,0,0:0:0:0:
448,192,89500,1,0,0:0:0:0:
64,192,89625,1,0,0:0:0:0:
192,192,89625,1,0,0:0:0:0:
448,192,89625,1,0,0:0:0:0:
320,192,89625,1,0,0:0:0:0:
320,192,89750,1,0,0:0:0:0:
448,192,89750,1,0,0:0:0:0:
192,192,89750,1,0,0:0:0:0:
192,192,89875,1,0,0:0:0:0:
448,192,89875,1,0,0:0:0:0:
320,192,89875,1,0,0:0:0:0:
64,192,89875,1,0,0:0:0:0:
320,192,90000,1,0,0:0:0:0:
64,192,90000,1,0,0:0:0:0:
192,192,90000,1,0,0:0:0:0:
448,192,90000,1,0,0:0:0:0:
448,192,90125,1,0,0:0:0:0:
192,192,90125,1,0,0:0:0:0:
320,192,90125,1,0,0:0:0:0:
64,192,90125,1,0,0:0:0:0:
192,192,90250,1,0,0:0:0:0:
448,192,90250,1,0,0:0:0:0:
64,192,90250,1,0,0:0:0:0:
320,192,90250,1,0,0:0:0:0:
448,192,90375,1,0,0:0:0:0:
192,192,90375,1,0,0:0:0:0:
320,192,90375,1,0,0:0:0:0:
64,192,90375,1,0,0:0:0:0:
192,192,90500,1,0,0:0:0:0:
448,192,90500,1,0,0:0:0:0:
64,192,90500,1,0,0:0:0:0:
320,192,90500,1,0,0:0:0:0:
192,192,90625,1,0,0:0:0:0:
448,192,90625,1,0,0:0:0:0:
320,192,90625,1,0,0:0:0:0:
64,192,90625,1,0,0:0:0:0:
192,192,90750,1,0,0:0:0:0:
448,192,90750,1,0,0:0:0:0:
320,192,90750,1,0,0:0:0:0:
64,192,90750,1,0,0:0:0:0:
192,192,90875,1,0,0:0:0:0:
448,192,90875,1,0,0:0:0:0:
320,192,90875,1,0,0:0:0:0:
64,192,90875,1,0,0:0:0:0:
192,192,91000,1,0,0:0:0:0:
448,192,91000,1,0,0:0:0:0:
320,192,91000,1,0,0:0:0:0:
64,192,91000,1,0,0:0:0:0:
192,192,91125,1,0,0:0:0:0:
448,192,91125,1,0,0:0:0:0:
64,192,91125,1,0,0:0:0:0:
320,192,91125,1,0,0:0:0:0:
64,192,91250,1,0,0:0:0:0:
448,192,91250,1,0,0:0:0:0:
320,192,91250,1,0,0:0:0:0:
192,192,91250,1,0,0:0:0:0:
64,192,91375,1,0,0:0:0:0:
448,192,91375,1,0,0:0:0:0:
192,192,91375,1,0,0:0:0:0:
320,192,91375,1,0,0:0:0:0:
64,192,91500,1,0,0:0:0:0:
448,192,91500,1,0,0:0:0:0:
320,192,91500,1,0,0:0:0:0:
192,192,91500,1,0,0:0:0:0:
64,192,91625,1,0,0:0:0:0:
448,192,91625,1,0,0:0:0:0:
192,192,91625,1,0,0:0:0:0:
320,192,91625,1,0,0:0:0:0:
64,192,91750,1,0,0:0:0:0:
448,192,91750,1,0,0:0:0:0:
320,192,91750,1,0,0:0:0:0:
192,192,91750,1,0,0:0:0:0:
64,192,91875,1,0,0:0:0:0:
448,192,91875,1,0,0:0:0:0:
192,192,91875,1,0,0:0:0:0:
320,192,91875,1,0,0:0:0:0:
64,192,92000,1,0,0:0:0:0:
448,192,92000,1,0,0:0:0:0:
320,192,92000,1,0,0:0:0:0:
192,192,92000,1,0,0:0:0:0:
64,192,92125,1,0,0:0:0:0:
448,192,92125,1,0,0:0:0:0:
192,192,92125,1,0,0:0:0:0:
320,192,92125,1,0,0:0:0:0:
448,192,92250,1,0,0:0:0:0:
192,192,92250,1,0,0:0:0:0:
320,192,92250,1,0,0:0:0:0:
64,192,92250,1,0,0:0:0:0:
320,192,92375,1,0,0:0:0:0:
192,192,92375,1,0,0:0:0:0:
448,192,92375,1,0,0:0:0:0:
64,192,92375,1,0,0:0:0:0:
192,192,92500,1,0,0:0:0:0:
448,192,92500,1,0,0:0:0:0:
320,192,92500,1,0,0:0:0:0:
64,192,92500,1,0,0:0:0:0:
320,192,92625,1,0,0:0:0:0:
64,192,92625,1,0,0:0:0:0:
192,192,92625,1,0,0:0:0:0:
448,192,92625,1,0,0:0:0:0:
192,192,92750,1,0,0:0:0:0:
64,192,92750,1,0,0:0:0:0:
320,192,92750,1,0,0:0:0:0:
448,192,92750,1,0,0:0:0:0:
192,192,92875,1,0,0:0:0:0:
448,192,92875,1,0,0:0:0:0:
64,192,92875,1,0,0:0:0:0:
320,192,92875,1,0,0:0:0:0:
320,192,93000,1,0,0:0:0:0:
448,192,93000,1,0,0:0:0:0:
192,192,93000,1,0,0:0:0:0:
64,192,93000,1,0,0:0:0:0:
448,192,93125,1,0,0:0:0:0:
192,192,93125,1,0,0:0:0:0:
64,192,93125,1,0,0:0:0:0:
320,192,93125,1,0,0:0:0:0:
64,192,93250,1,0,0:0:0:0:
320,192,93250,1,0,0:0:0:0:
448,192,93250,1,0,0:0:0:0:
192,192,93250,1,0,0:0:0:0:
192,192,93375,1,0,0:0:0:0:
448,192,93375,1,0,0:0:0:0:
64,192,93375,1,0,0:0:0:0:
320,192,93375,1,0,0:0:0:0:
64,192,93500,1,0,0:0:0:0:
192,192,93500,1,0,0:0:0:0:
320,192,93500,1,0,0:0:0:0:
448,192,93500,1,0,0:0:0:0:
320,192,93625,1,0,0:0:0:0:
192,192,93625,1,0,0:0:0:0:
64,192,93625,1,0,0:0:0:0:
448,192,93625,1,0,0:0:0:0:
448,192,93750,1,0,0:0:0:0:
320,192,93750,1,0,0:0:0:0:
192,192,93750,1,0,0:0:0:0:
64,192,93750,1,0,0:0:0:0:
64,192,93875,1,0,0:0:0:0:
192,192,93875,1,0,0:0:0:0:
320,192,93875,1,0,0:0:0:0:
448,192,93875,1,0,0:0:0:0:
192,192,94000,1,0,0:0:0:0:
320,192,94000,1,0,0:0:0:0:
448,192,94000,1,0,0:0:0:0:
64,192,94000,1,0,0:0:0:0:
448,192,94125,1,0,0:0:0:0:
192,192,94125,1,0,0:0:0:0:
320,192,94125,1,0,0:0:0:0:
64,192,94125,1,0,0:0:0:0:
448,192,94250,1,0,0:0:0:0:
64,192,94250,1,0,0:0:0:0:
320,192,94250,1,0,0:0:0:0:
192,192,94375,1,0,0:0:0:0:
192,192,94500,1,0,0:0:0:0:
448,192,94500,1,0,0:0:0:0:
64,192,94500,1,0,0:0:0:0:
320,192,94625,1,0,0:0:0:0:
64,192,94625,1,0,0:0:0:0:
448,192,94750,1,0,0:0:0:0:
192,192,94750,1,0,0:0:0:0:
192,192,94875,1,0,0:0:0:0:
448,192,95125,1,0,0:0:0:0:
64,192,95125,1,0,0:0:0:0:
320,192,95250,1,0,0:0:0:0:
192,192,95375,1,0,0:0:0:0:
448,192,95375,1,0,0:0:0:0:
448,192,95500,1,0,0:0:0:0:
64,192,95625,1,0,0:0:0:0:
320,192,95625,1,0,0:0:0:0:
192,192,95750,1,0,0:0:0:0:
64,192,95875,1,0,0:0:0:0:
320,192,95875,1,0,0:0:0:0:
448,192,96000,1,0,0:0:0:0:
64,192,96000,1,0,0:0:0:0:
192,192,96125,1,0,0:0:0:0:
320,192,96125,1,0,0:0:0:0:
64,192,96250,1,0,0:0:0:0:
448,192,96250,1,0,0:0:0:0:
320,192,96250,1,0,0:0:0:0:
64,192,96500,1,0,0:0:0:0:
192,192,96500,1,0,0:0:0:0:
320,192,96500,1,0,0:0:0:0:
448,192,96500,1,0,0:0:0:0:
192,192,96625,1,0,0:0:0:0:
448,192,96750,1,0,0:0:0:0:
320,192,96750,1,0,0:0:0:0:
448,192,96875,1,0,0:0:0:0:
64,192,96875,1,0,0:0:0:0:
192,192,96875,1,0,0:0:0:0:
64,192,97000,1,0,0:0:0:0:
320,192,97125,1,0,0:0:0:0:
192,192,97125,1,0,0:0:0:0:
64,192,97250,1,0,0:0:0:0:
448,192,97250,128,0,97625:0:0:0:0:
192,192,97375,1,0,0:0:0:0:
64,192,97500,128,0,98000:0:0:0:0:
320,192,97500,1,0,0:0:0:0:
192,192,97625,1,0,0:0:0:0:
192,192,97750,1,0,0:0:0:0:
448,192,97875,1,0,0:0:0:0:
320,192,97875,1,0,0:0:0:0:
192,192,98000,1,0,0:0:0:0:
448,192,98125,1,0,0:0:0:0:
320,192,98125,128,0,98625:0:0:0:0:
64,192,98250,1,0,0:0:0:0:
64,192,98375,1,0,0:0:0:0:
192,192,98375,1,0,0:0:0:0:
448,192,98375,1,0,0:0:0:0:
192,192,98500,1,0,0:0:0:0:
64,192,98625,1,0,0:0:0:0:
448,192,98625,1,0,0:0:0:0:
448,192,98750,1,0,0:0:0:0:
320,192,98750,1,0,0:0:0:0:
192,192,98750,1,0,0:0:0:0:
64,192,98875,1,0,0:0:0:0:
192,192,99000,1,0,0:0:0:0:
320,192,99000,1,0,0:0:0:0:
448,192,99125,1,0,0:0:0:0:
192,192,99125,1,0,0:0:0:0:
64,192,99250,1,0,0:0:0:0:
320,192,99250,1,0,0:0:0:0:
192,192,99250,1,0,0:0:0:0:
448,192,99375,1,0,0:0:0:0:
192,192,99375,1,0,0:0:0:0:
320,192,99500,1,0,0:0:0:0:
192,192,99500,1,0,0:0:0:0:
64,192,99500,1,0,0:0:0:0:
64,192,99625,1,0,0:0:0:0:
448,192,99625,128,0,100125:0:0:0:0:
192,192,99625,1,0,0:0:0:0:
64,192,99750,128,0,100125:0:0:0:0:
320,192,99750,128,0,100375:0:0:0:0:
192,192,99875,1,0,0:0:0:0:
192,192,100000,1,0,0:0:0:0:
192,192,100125,1,0,0:0:0:0:
448,192,100375,1,0,0:0:0:0:
64,192,100375,1,0,0:0:0:0:
192,192,100375,1,0,0:0:0:0:
320,192,100500,1,0,0:0:0:0:
192,192,100500,1,0,0:0:0:0:
64,192,100625,1,0,0:0:0:0:
448,192,100625,1,0,0:0:0:0:
320,192,100625,1,0,0:0:0:0:
192,192,100750,1,0,0:0:0:0:
448,192,100750,1,0,0:0:0:0:
320,192,100875,1,0,0:0:0:0:
64,192,100875,1,0,0:0:0:0:
448,192,100875,1,0,0:0:0:0:
448,192,101000,1,0,0:0:0:0:
64,192,101000,1,0,0:0:0:0:
192,192,101000,1,0,0:0:0:0:
320,192,101125,1,0,0:0:0:0:
192,192,101125,1,0,0:0:0:0:
64,192,101250,1,0,0:0:0:0:
448,192,101250,1,0,0:0:0:0:
448,192,101375,1,0,0:0:0:0:
192,192,101375,1,0,0:0:0:0:
320,192,101375,1,0,0:0:0:0:
64,192,101500,1,0,0:0:0:0:
448,192,101500,1,0,0:0:0:0:
320,192,101500,1,0,0:0:0:0:
192,192,101500,1,0,0:0:0:0:
64,192,101625,1,0,0:0:0:0:
448,192,101625,1,0,0:0:0:0:
192,192,101625,1,0,0:0:0:0:
64,192,101750,1,0,0:0:0:0:
448,192,101750,1,0,0:0:0:0:
320,192,101750,1,0,0:0:0:0:
192,192,101750,1,0,0:0:0:0:
64,192,101875,1,0,0:0:0:0:
448,192,101875,1,0,0:0:0:0:
192,192,101875,1,0,0:0:0:0:
320,192,102000,1,0,0:0:0:0:
192,192,102000,1,0,0:0:0:0:
192,192,102125,1,0,0:0:0:0:
64,192,102125,1,0,0:0:0:0:
448,192,102250,1,0,0:0:0:0:
192,192,102250,1,0,0:0:0:0:
320,192,102250,1,0,0:0:0:0:
64,192,102375,1,0,0:0:0:0:
320,192,102375,1,0,0:0:0:0:
192,192,102375,1,0,0:0:0:0:
448,192,102500,1,0,0:0:0:0:
64,192,102625,1,0,0:0:0:0:
192,192,102625,1,0,0:0:0:0:
448,192,102625,1,0,0:0:0:0:
320,192,102750,1,0,0:0:0:0:
64,192,102750,1,0,0:0:0:0:
448,192,102875,1,0,0:0:0:0:
192,192,102875,1,0,0:0:0:0:
64,192,102875,1,0,0:0:0:0:
320,192,103000,1,0,0:0:0:0:
192,192,103125,1,0,0:0:0:0:
448,192,103125,1,0,0:0:0:0:
64,192,103250,1,0,0:0:0:0:
320,192,103250,1,0,0:0:0:0:
448,192,103375,1,0,0:0:0:0:
192,192,103500,1,0,0:0:0:0:
64,192,103500,1,0,0:0:0:0:
320,192,103500,1,0,0:0:0:0:
320,192,103625,1,0,0:0:0:0:
192,192,103625,1,0,0:0:0:0:
64,192,103625,1,0,0:0:0:0:
448,192,103625,1,0,0:0:0:0:
320,192,103750,1,0,0:0:0:0:
192,192,103750,1,0,0:0:0:0:
64,192,103750,1,0,0:0:0:0:
448,192,103750,1,0,0:0:0:0:
320,192,103875,1,0,0:0:0:0:
192,192,103875,1,0,0:0:0:0:
64,192,103875,1,0,0:0:0:0:
448,192,103875,1,0,0:0:0:0:
448,192,104125,1,0,0:0:0:0:
64,192,104125,1,0,0:0:0:0:
448,192,104375,128,0,104875:0:0:0:0:
192,192,104500,1,0,0:0:0:0:
64,192,104750,128,0,105250:0:0:0:0:
192,192,104875,1,0,0:0:0:0:
320,192,105000,128,0,105500:0:0:0:0:
64,192,105375,128,0,105625:0:0:0:0:
448,192,105375,128,0,105750:0:0:0:0:
192,192,105625,128,0,105875:0:0:0:0:
64,192,105750,128,0,106375:0:0:0:0:
448,192,105875,128,0,106250:0:0:0:0:
320,192,106000,128,0,106250:0:0:0:0:
192,192,106125,1,0,0:0:0:0:
192,192,106250,1,0,0:0:0:0:
64,192,106500,1,0,0:0:0:0:
448,192,106500,128,0,106875:0:0:0:0:
192,192,106500,128,0,106750:0:0:0:0:
320,192,106500,128,0,106750:0:0:0:0:
64,192,106625,128,0,106875:0:0:0:0:
