osu file format v14

[General]
AudioFilename: audio.mp3
AudioLeadIn: 0
PreviewTime: 49346
Countdown: 0
SampleSet: Soft
StackLeniency: 0.5
Mode: 0
LetterboxInBreaks: 0
WidescreenStoryboard: 0

[Editor]
Bookmarks: 49655,79346,118933
DistanceSpacing: 0.9
BeatDivisor: 4
GridSize: 4
TimelineZoom: 1.299999

[Metadata]
Title:FRUITY
TitleUnicode:FRUITY
Artist:HYOLYN X KISUM
ArtistUnicode:효린 X 키썸
Creator:Irreversible
Version:SUNLIGHT
Source:
Tags:Starship Entertainment single kpop k-pop SISTAR Lilyanna Marianna Yales fruchtig bright cheerful colorful rap
BeatmapID:1558715
BeatmapSetID:738588

[Difficulty]
HPDrainRate:7
CircleSize:4
OverallDifficulty:8
ApproachRate:9
SliderMultiplier:1.92
SliderTickRate:1

[Events]
//Background and Video events
0,0,"bg.jpg",0,0
Video,-213,"MV2.mp4"
//Break Periods
//Storyboard Layer 0 (Background)
//Storyboard Layer 1 (Fail)
//Storyboard Layer 2 (Pass)
//Storyboard Layer 3 (Foreground)
//Storyboard Sound Samples

[TimingPoints]
186,618.556701030928,4,2,1,60,1,0
186,-153.846153846154,4,2,1,60,0,0
804,-153.846153846154,4,2,1,5,0,0
959,-153.846153846154,4,2,1,60,0,0
1113,-153.846153846154,4,2,1,5,0,0
1268,-612.846153846154,4,2,1,60,0,0
2041,-153.846153846154,4,2,1,60,0,0
2660,-117.647058823529,4,2,1,60,0,0
3124,-117.647058823529,4,2,1,60,0,0
3278,-117.647058823529,4,2,1,5,0,0
3433,-117.647058823529,4,2,1,60,0,0
3588,-117.647058823529,4,2,1,5,0,0
3742,-476.190476190476,4,2,1,60,0,0
4515,-117.647058823529,4,2,1,60,0,0
5134,-133.333333333333,4,2,1,60,0,0
5753,-133.333333333333,4,2,1,5,0,0
5907,-133.333333333333,4,2,1,60,0,0
6062,-133.333333333333,4,2,1,5,0,0
6216,-526.315789473684,4,2,1,60,0,0
6990,-133.333333333333,4,2,1,60,0,0
8227,-133.333333333333,4,2,1,5,0,0
8381,-114.942528735632,4,2,1,60,0,0
8536,-114.942528735632,4,2,1,5,0,0
8691,-100,4,2,1,60,0,0
9155,-100,4,2,1,5,0,0
9309,-83.3333333333333,4,2,1,60,0,0
10082,-66.6666666666667,4,2,1,60,0,0
10546,-133.333333333333,4,2,1,60,0,0
10701,-133.333333333333,4,2,1,5,0,0
10856,-133.333333333333,4,2,1,60,0,0
11010,-133.333333333333,4,2,1,5,0,0
11165,-66.6666666666667,4,2,1,60,0,0
11938,-400,4,2,1,60,0,0
12093,-400,4,2,1,5,0,0
12247,-400,4,2,1,60,0,0
12402,-400,4,2,1,5,0,0
12557,-71.4285714285714,4,2,1,60,0,0
13175,-71.4285714285714,4,2,1,5,0,0
13330,-71.4285714285714,4,2,1,60,0,0
13484,-71.4285714285714,4,2,1,5,0,0
13639,-71.4285714285714,4,2,1,60,0,0
14412,-133.333333333333,4,2,1,60,0,0
15031,-71.4285714285714,4,2,1,60,0,0
18588,-400,4,2,1,60,0,0
19206,-400,4,2,1,5,0,0
19361,-58.8235294117647,4,2,1,60,0,0
19979,-66.6666666666667,4,2,1,60,0,0
22608,-66.6666666666667,4,2,1,5,0,0
22763,-66.6666666666667,4,2,1,60,0,0
23072,-66.6666666666667,4,2,1,5,0,0
23227,-76.9230769230769,4,2,1,60,0,0
23381,-76.9230769230769,4,2,1,5,0,0
23536,-90.9090909090909,4,2,1,60,0,0
23691,-66.6666666666667,4,2,1,5,0,0
23845,-400,4,2,1,60,0,0
24928,-100,4,2,1,60,0,0
27015,-100,4,2,1,5,0,0
27093,-100,4,2,1,60,0,0
27325,-100,4,2,1,5,0,0
27402,-133.333333333333,4,2,1,60,0,0
28871,-133.333333333333,4,2,1,5,0,0
28948,-66.6666666666667,4,2,1,60,0,0
29103,-66.6666666666667,4,2,1,5,0,0
29258,-83.3333333333333,4,2,1,60,0,0
29876,-60.6060606060606,4,2,1,60,0,0
30082,-60.6060606060606,4,2,1,5,0,0
30186,-60.6060606060606,4,2,1,60,0,0
30392,-60.6060606060606,4,2,1,5,0,0
30495,-60.6060606060606,4,2,1,60,0,0
32350,-100,4,2,1,60,0,0
34206,-151.515151515152,4,2,1,60,0,0
34825,-60.6060606060606,4,2,1,60,0,0
35031,-60.6060606060606,4,2,1,5,0,0
35134,-60.6060606060606,4,2,1,60,0,0
35340,-60.6060606060606,4,2,1,5,0,0
35443,-60.6060606060606,4,2,1,60,0,0
37299,-151.515151515152,4,2,1,60,0,0
39155,-60.6060606060606,4,2,1,60,0,0
39979,-60.6060606060606,4,2,1,5,0,0
40082,-60.6060606060606,4,2,1,60,0,0
40289,-60.6060606060606,4,2,1,5,0,0
40392,-60.6060606060606,4,2,1,60,0,0
42247,-100,4,2,1,60,0,0
44412,-66.6666666666667,4,2,1,60,0,0
44644,-66.6666666666667,4,2,1,5,0,0
44722,-83.3333333333333,4,2,1,60,0,0
45804,-333.333333333333,4,2,1,60,0,0
47196,-400,4,2,1,60,0,0
47814,-200,4,2,1,60,0,0
48046,-200,4,2,1,5,0,0
48124,-133.333333333333,4,2,1,60,0,0
48201,-133.333333333333,4,2,1,5,0,0
48278,-133.333333333333,4,2,1,60,0,0
48356,-133.333333333333,4,2,1,5,0,0
48433,-100,4,2,1,60,0,0
48742,-50,4,2,1,60,0,0
48781,-50,4,2,1,25,0,0
48820,-50,4,2,1,30,0,0
48858,-50,4,2,1,35,0,0
48897,-50,4,2,1,40,0,0
48936,-50,4,2,1,45,0,0
48974,-50,4,2,1,50,0,0
49013,-50,4,2,1,55,0,0
49051,-28.5714285714286,4,2,1,60,0,0
49129,-28.5714285714286,4,2,1,5,0,0
49206,-50,4,2,1,60,0,0
49670,-28.5714285714286,4,2,1,60,0,1
49902,-28.5714285714286,4,2,1,5,0,1
49979,-28.5714285714286,4,2,1,60,0,1
50289,-66.6666666666667,4,2,1,60,0,1
50907,-50,4,2,1,60,0,1
51113,-50,4,2,1,5,0,1
51216,-50,4,2,1,60,0,1
51423,-50,4,2,1,5,0,1
51526,-50,4,2,1,60,0,1
52144,-100,4,2,1,60,0,1
54618,-66.6666666666667,4,2,1,60,0,1
56062,-66.6666666666667,4,2,1,5,0,1
56165,-66.6666666666667,4,2,1,60,0,1
56371,-66.6666666666667,4,2,1,5,0,1
56474,-66.6666666666667,4,2,1,60,0,1
57093,-100,4,2,1,60,0,1
59567,-66.6666666666667,4,2,1,60,0,1
61010,-66.6666666666667,4,2,1,5,0,1
61113,-66.6666666666667,4,2,1,60,0,1
61320,-66.6666666666667,4,2,1,5,0,1
61423,-50,4,2,1,60,0,1
62041,-100,4,2,1,60,0,1
64515,-66.6666666666667,4,2,1,60,0,1
64979,-100,4,2,1,60,0,1
65753,-66.6666666666667,4,2,1,60,0,1
65959,-66.6666666666667,4,2,1,5,0,1
66062,-66.6666666666667,4,2,1,60,0,1
66268,-66.6666666666667,4,2,1,5,0,1
66371,-66.6666666666667,4,2,1,60,0,1
66577,-66.6666666666667,4,2,1,5,0,1
66680,-66.6666666666667,4,2,1,60,0,1
66887,-66.6666666666667,4,2,1,5,0,1
66990,-200,4,2,1,60,0,1
67608,-66.6666666666667,4,2,1,60,0,1
67711,-66.6666666666667,4,2,1,5,0,1
67814,-66.6666666666667,4,2,1,60,0,1
67917,-66.6666666666667,4,2,1,5,0,1
68021,-66.6666666666667,4,2,1,60,0,1
68124,-66.6666666666667,4,2,1,5,0,1
68227,-66.6666666666667,4,2,1,60,0,1
68330,-66.6666666666667,4,2,1,5,0,1
68433,-66.6666666666667,4,2,1,60,0,1
68533,-66.6666666666667,4,2,1,5,0,1
68639,-66.6666666666667,4,2,1,60,0,1
68742,-66.6666666666667,4,2,1,5,0,1
68845,-133.333333333333,4,2,1,60,0,1
69464,-133.333333333333,4,2,1,60,0,0
76268,-200,4,2,1,60,0,0
77196,-100,4,2,1,60,0,0
77350,-100,4,2,1,5,0,0
77660,-100,4,2,1,60,0,0
78433,-100,4,2,1,5,0,0
78588,-100,4,2,1,60,0,0
79361,-113.636363636364,4,2,1,60,0,0
82454,-113.636363636364,4,2,1,5,0,0
82608,-113.636363636364,4,2,1,60,0,0
82647,-113.636363636364,4,2,1,5,0,0
82917,-113.636363636364,4,2,1,60,0,0
86242,-113.636363636364,4,2,1,5,0,0
86320,-66.6666666666667,4,2,1,60,0,0
87247,-133.333333333333,4,2,1,60,0,0
87402,-133.333333333333,4,2,1,5,0,0
87557,-133.333333333333,4,2,1,60,0,0
87711,-133.333333333333,4,2,1,5,0,0
87866,-50,4,2,1,60,0,0
88330,-113.636363636364,4,2,1,60,0,0
89258,-56.8181818181818,4,2,1,60,0,0
89335,-56.8181818181818,4,2,1,5,0,0
89722,-56.8181818181818,4,2,1,60,0,0
89799,-56.8181818181818,4,2,1,5,0,0
90031,-113.636363636364,4,2,1,60,0,0
96758,-113.636363636364,4,2,1,30,0,0
97222,-113.636363636364,4,2,1,45,0,0
97917,-113.636363636364,4,2,1,55,0,0
98227,-60.2409638554217,4,2,1,60,0,0
98613,-60.2409638554217,4,2,1,5,0,0
98691,-60.2409638554217,4,2,1,60,0,0
98845,-200,4,2,1,60,0,0
99155,-51.0204081632653,4,2,1,60,0,0
99387,-66.6666666666667,4,2,1,5,0,0
99464,-66.6666666666667,4,2,1,60,0,0
100392,-59.1715976331361,4,2,1,60,0,0
101010,-90.9090909090909,4,2,1,60,0,0
101242,-90.9090909090909,4,2,1,5,0,0
101320,-90.9090909090909,4,2,1,60,0,0
101629,-66.6666666666667,4,2,1,60,0,0
102402,-66.6666666666667,4,2,1,5,0,0
102557,-66.6666666666667,4,2,1,60,0,0
102711,-66.6666666666667,4,2,1,5,0,0
102866,-66.6666666666667,4,2,1,60,0,0
103175,-1000,4,2,1,60,0,0
103407,-1000,4,2,1,5,0,0
103484,-1000,4,2,1,60,0,0
103716,-1000,4,2,1,5,0,0
103794,-66.6666666666667,4,2,1,60,0,0
104103,-66.6666666666667,4,2,1,60,0,0
105340,-66.6666666666667,4,2,1,60,0,0
105649,-50,4,2,1,60,0,0
105959,-40,4,2,1,60,0,0
106268,-80,4,2,1,60,0,0
106577,-66.6666666666667,4,2,1,60,0,0
108433,-1000,4,2,1,60,0,0
109051,-66.6666666666667,4,2,1,60,0,0
109283,-66.6666666666667,4,2,1,5,0,0
109361,-59.1715976331361,4,2,1,60,0,0
111526,-100,4,2,1,60,0,0
111758,-100,4,2,1,5,0,0
111835,-59.1715976331361,4,2,1,60,0,0
112995,-59.1715976331361,4,2,1,5,0,0
113072,-59.1715976331361,4,2,1,60,0,0
113613,-59.1715976331361,4,2,1,5,0,0
113691,-59.1715976331361,4,2,1,60,0,0
114000,-200,4,2,1,60,0,0
114309,-200,4,2,1,5,0,0
114464,-200,4,2,1,60,0,0
114618,-81.9672131147541,4,2,1,60,0,0
116474,-151.515151515152,4,2,1,60,0,0
117711,-85.4700854700855,4,2,1,60,0,0
117943,-85.4700854700855,4,2,1,5,0,0
118021,-11.6666666666667,4,2,1,60,0,0
118253,-66.6666666666667,4,2,1,5,0,0
118330,-54.6448087431694,4,2,1,60,0,0
118562,-54.6448087431694,4,2,1,5,0,0
118639,-109.289617486339,4,2,1,60,0,0
118871,-109.289617486339,4,2,1,5,0,0
118948,-66.6666666666667,4,2,1,60,0,1
120392,-66.6666666666667,4,2,1,5,0,1
120495,-66.6666666666667,4,2,1,60,0,1
120701,-66.6666666666667,4,2,1,5,0,1
120804,-66.6666666666667,4,2,1,60,0,1
121423,-100,4,2,1,60,0,1
123897,-66.6666666666667,4,2,1,60,0,1
125340,-66.6666666666667,4,2,1,5,0,1
125443,-66.6666666666667,4,2,1,60,0,1
125649,-66.6666666666667,4,2,1,5,0,1
125753,-66.6666666666667,4,2,1,60,0,1
127454,-100,4,2,1,60,0,1
128845,-66.6666666666667,4,2,1,60,0,1
130289,-66.6666666666667,4,2,1,5,0,1
130392,-66.6666666666667,4,2,1,60,0,1
130598,-66.6666666666667,4,2,1,5,0,1
130701,-66.6666666666667,4,2,1,60,0,1
131320,-100,4,2,1,60,0,1
134258,-66.6666666666667,4,2,1,60,0,1
135237,-66.6666666666667,4,2,1,5,0,1
135340,-66.6666666666667,4,2,1,60,0,1
135546,-66.6666666666667,4,2,1,5,0,1
135649,-66.6666666666667,4,2,1,60,0,1
135856,-66.6666666666667,4,2,1,5,0,1
135959,-66.6666666666667,4,2,1,60,0,1
136165,-66.6666666666667,4,2,1,5,0,1
136268,-200,4,2,1,60,0,1
136887,-66.6666666666667,4,2,1,60,0,1
136990,-66.6666666666667,4,2,1,5,0,1
137093,-66.6666666666667,4,2,1,60,0,1
137196,-66.6666666666667,4,2,1,5,0,1
137299,-66.6666666666667,4,2,1,60,0,1
137402,-66.6666666666667,4,2,1,5,0,1
137505,-66.6666666666667,4,2,1,60,0,1
137608,-66.6666666666667,4,2,1,5,0,1
137711,-66.6666666666667,4,2,1,60,0,1
137814,-66.6666666666667,4,2,1,5,0,1
137917,-66.6666666666667,4,2,1,60,0,1
138021,-66.6666666666667,4,2,1,5,0,1
138124,-133.333333333333,4,2,1,60,0,1
138742,-133.333333333333,4,2,1,60,0,0
145546,-200,4,2,1,60,0,0
146474,-100,4,2,1,60,0,0
146629,-100,4,2,1,5,0,0
146938,-100,4,2,1,60,0,0
147247,-200,4,2,1,60,0,0
147557,-200,4,2,1,5,0,0
148330,-50,4,2,1,60,0,0
148562,-50,4,2,1,5,0,0
148639,-200,4,2,1,60,0,0
149258,-400,4,2,1,60,0,0
153433,-400,4,2,1,5,0,0
153588,-400,4,2,1,60,0,0
155134,-1000,4,2,1,60,0,0
156990,-400,4,2,1,60,0,0
158536,-200,4,2,1,60,0,0
160005,-200,4,2,1,5,0,0
160082,-66.6666666666667,4,2,1,60,0,0
161010,-200,4,2,1,60,0,0
162247,-66.6666666666667,4,2,1,60,0,0
162479,-66.6666666666667,4,2,1,5,0,0
162557,-133.333333333333,4,2,1,60,0,0
162789,-133.333333333333,4,2,1,5,0,0
162866,-133.333333333333,4,2,1,60,0,0
164103,-400,4,2,1,60,0,0
164644,-400,4,2,1,5,0,0
164722,-400,4,2,1,60,0,0
164954,-400,4,2,1,5,0,0
165031,-400,4,2,1,60,0,0
165263,-400,4,2,1,5,0,0
165340,-400,4,2,1,60,0,0
165572,-400,4,2,1,5,0,0
165649,-400,4,2,1,60,0,0
166887,-66.6666666666667,4,2,1,60,0,0
167118,-66.6666666666667,4,2,1,5,0,0
167196,-66.6666666666667,4,2,1,60,0,0
167814,-30.03003003003,4,2,1,60,0,0
168046,-30.03003003003,4,2,1,5,0,0
168124,-30.03003003003,4,2,1,60,0,0
168201,-30.03003003003,4,2,1,5,0,0
168433,-57.1428571428571,4,2,1,60,0,1
169876,-57.1428571428571,4,2,1,5,0,1
169979,-57.1428571428571,4,2,1,60,0,1
170186,-57.1428571428571,4,2,1,5,0,1
170289,-57.1428571428571,4,2,1,60,0,1
170907,-100,4,2,1,60,0,1
173381,-66.6666666666667,4,2,1,60,0,1
174825,-66.6666666666667,4,2,1,5,0,1
174928,-66.6666666666667,4,2,1,60,0,1
175134,-66.6666666666667,4,2,1,5,0,1
175237,-66.6666666666667,4,2,1,60,0,1
176165,-100,4,2,1,60,0,1
178330,-57.1428571428571,4,2,1,60,0,1
179773,-57.1428571428571,4,2,1,5,0,1
179876,-57.1428571428571,4,2,1,60,0,1
180082,-57.1428571428571,4,2,1,5,0,1
180186,-57.1428571428571,4,2,1,60,0,1
180804,-100,4,2,1,60,0,1
183278,-66.6666666666667,4,2,1,60,0,1
184722,-66.6666666666667,4,2,1,5,0,1
184825,-66.6666666666667,4,2,1,60,0,1
185031,-66.6666666666667,4,2,1,5,0,1
185134,-66.6666666666667,4,2,1,60,0,1
185340,-66.6666666666667,4,2,1,5,0,1
185443,-66.6666666666667,4,2,1,60,0,1
185649,-66.6666666666667,4,2,1,5,0,1
185753,-200,4,2,1,60,0,1
188227,-200,4,2,1,30,0,0
195959,-200,4,2,1,40,0,0
196732,-200,4,2,1,50,0,0
197505,-200,4,2,1,60,0,0
197814,-200,4,2,1,69,0,0

[Colours]
Combo1 : 223,223,223
Combo2 : 255,255,0
Combo3 : 255,128,0
Combo4 : 242,24,57
Combo5 : 255,128,255
Combo6 : 154,53,255
Combo7 : 128,255,255
Combo8 : 128,255,128
SliderBorder : 240,140,255

[HitObjects]
72,192,186,6,0,L|156:185,1,62.3999971435548,2|0,0:0|0:0,0:0:0:0:
134,187,649,6,0,L|128:236,1,31.1999985717774,2|0,0:0|0:0,0:0:0:0:
208,216,959,2,0,L|202:265,1,31.1999985717774,2|0,0:0|0:0,0:0:0:0:
282,139,1268,6,0,L|278:106,1,31.3292342865475,0|2,3:0|0:0,0:0:0:0:
356,274,2041,2,0,P|383:287|414:285,1,62.3999971435548,0|0,3:0|3:0,0:0:0:0:
356,274,2660,6,0,P|394:284|434:275,1,81.6000015563965,2|0,0:0|0:0,0:0:0:0:
388,168,3124,6,0,P|396:188|396:216,1,40.8000007781983,2|0,0:0|0:0,0:0:0:0:
292,132,3433,2,0,P|293:111|301:92,1,40.8000007781983,2|0,0:0|0:0,0:0:0:0:
232,280,3742,6,0,P|210:289|187:287,1,40.3199987695313,0|2,3:0|0:0,0:0:0:0:
193,288,4515,2,0,L|186:370,1,81.6000015563965,0|0,3:0|3:0,0:0:0:0:
64,192,5134,6,0,L|57:110,1,72.0000027465821,2|0,0:0|0:0,0:0:0:0:
58,120,5598,6,0,L|102:124,1,36.0000013732911,2|0,0:0|0:0,0:0:0:0:
184,80,5907,2,0,L|228:84,1,36.0000013732911,2|0,0:0|0:0,0:0:0:0:
320,192,6216,6,0,L|283:195,1,36.4799995546875,0|2,3:0|0:0,0:0:0:0:
440,116,6990,2,0,P|455:84|454:49,1,72.0000027465821,0|0,3:0|3:0,0:0:0:0:
72,268,7609,6,0,P|57:300|58:335,1,72.0000027465821,0|0,3:0|0:0,0:0:0:0:
131,316,8073,6,0,P|149:314|165:320,1,36.0000013732911,0|0,3:0|0:0,0:0:0:0:
284,244,8382,6,0,P|300:256|309:275,1,41.7600003504639,0|0,3:0|0:0,0:0:0:0:
456,248,8691,6,0,B|466:285|456:319|456:319|484:304|487:258,1,144,0|0,3:0|2:0,2:0:0:0:
252,68,9309,5,0,0:0:0:0:
252,68,9464,2,0,L|107:78,1,115.199996484375,2|4,0:0|0:0,0:0:0:0:
108,64,10082,6,0,L|251:67,1,144.000005493164,4|0,0:1|0:0,0:0:0:0:
382,58,10546,6,0,L|378:110,1,36.0000013732911,2|0,0:0|0:0,0:0:0:0:
456,116,10856,2,0,L|452:168,1,36.0000013732911,2|0,0:0|0:0,0:0:0:0:
408,336,11165,5,4,3:0:0:0:
408,336,11320,2,0,P|374:321|339:317,1,72.0000027465821,0|0,3:0|0:0,0:0:0:0:
179,343,11629,2,0,P|215:339|248:327,1,72.0000027465821,0|0,3:0|0:0,0:0:0:0:
53,236,11938,6,0,L|56:248,1,12,8|0,0:0|0:0,0:0:0:0:
68,232,12247,2,0,L|72:212,1,12,2|0,0:1|0:0,0:0:0:0:
32,145,12557,6,0,B|88:125|128:161|128:161|120:147|124:129,1,134.399995898438,4|0,0:1|0:0,0:0:0:0:
263,134,13021,6,0,P|232:125|200:133,1,67.1999979492188,2|0,0:0|0:0,0:0:0:0:
320,68,13330,2,0,P|348:84|365:124,1,67.1999979492188,2|0,0:0|0:0,0:0:0:0:
472,100,13639,5,0,3:0:0:0:
464,234,13794,2,0,L|472:98,1,134.399995898438,0|8,3:0|0:3,0:0:0:0:
360,240,14258,5,0,0:0:0:0:
441,312,14412,1,8,0:0:0:0:
508,298,14567,6,0,P|477:314|441:312,1,72.0000027465821,0|0,3:0|3:0,0:0:0:0:
232,332,15031,6,0,B|172:304|172:356|101:328,1,134.399995898438,4|0,0:1|0:0,0:0:0:0:
24,348,15495,1,2,0:0:0:0:
184,192,15804,1,2,0:0:0:0:
184,192,15959,2,0,L|176:104,1,67.1999979492188,0|0,3:0|3:0,0:0:0:0:
170,43,16268,5,2,0:3:0:0:
176,32,16577,1,0,0:0:0:0:
104,328,16887,1,8,0:0:0:0:
177,125,17196,5,2,0:1:0:0:
96,232,17506,1,8,3:0:0:0:
176,32,17660,5,0,0:0:0:0:
324,104,17814,2,0,P|348:109|331:91,1,67.1999979492188,0|0,3:0|3:0,0:0:0:0:
96,232,18124,6,0,P|62:229|32:214,2,67.1999979492188,8|0|0,0:0|3:0|3:0,0:0:0:0:
408,332,18588,6,0,B|403:325|403:325|419:321|443:329,1,48,8|0,0:3|0:0,0:0:0:0:
443,329,19361,5,8,0:0:0:0:
275,308,19515,1,0,0:0:0:0:
295,147,19670,1,0,3:0:0:0:
463,167,19825,1,0,0:0:0:0:
231,195,19979,6,0,B|203:154|227:102|227:102|205:119|173:115,1,144.000005493164,4|0,0:1|3:0,0:0:0:0:
38,31,20443,2,0,L|182:39,2,144.000005493164,2|0|4,0:0|3:0|0:3,0:0:0:0:
295,147,21371,2,0,L|439:139,1,144.000005493164,0|0,3:0|0:0,0:0:0:0:
438,139,21835,5,8,0:0:0:0:
417,307,21989,1,0,0:0:0:0:
256,287,22144,1,0,3:0:0:0:
276,119,22299,1,0,0:0:0:0:
140,336,22454,6,0,L|48:344,1,72.0000027465821,4|0,0:1|0:0,0:0:0:0:
132,200,22763,1,0,3:0:0:0:
116,324,22917,6,0,L|24:332,1,72.0000027465821,8|0,3:0|0:0,0:0:0:0:
256,287,23227,2,0,L|348:279,1,62.3999971435548,8|0,3:0|0:0,0:0:0:0:
132,200,23536,2,0,L|63:205,1,52.8000016113282,4|0,3:0|0:0,0:0:0:0:
327,104,23845,6,0,L|373:100,1,36,0|8,3:0|0:0,0:0:0:0:
432,172,24618,1,2,0:0:0:0:
92,77,24928,6,0,B|80:88|53:88|32:65|52:44|84:37|116:32|144:44|166:56|183:78,1,192,4|8,0:1|0:0,0:0:0:0:
183,78,26010,5,8,3:0:0:0:
104,188,26165,2,0,L|111:290,1,96,0|0,3:0|3:0,0:0:0:0:
111,283,26783,6,0,L|191:288,1,72,8|0,0:0|0:0,0:0:0:0:
192,300,27093,2,0,L|269:294,1,72,0|0,3:0|0:0,0:0:0:0:
328,348,27402,5,4,3:0:0:0:
404,272,27557,1,0,0:0:0:0:
404,272,27711,2,0,P|411:256|406:236,1,36.0000013732911,0|0,3:0|0:0,0:0:0:0:
256,44,28021,2,0,P|249:60|254:80,2,36.0000013732911,2|0|0,0:0|3:0|3:0,0:0:0:0:
94,163,28484,6,0,P|72:137|105:146,1,90.0000034332277,4|0,0:0|0:0,0:0:0:0:
105,146,28948,2,0,L|98:217,1,72.0000027465821,4|0,3:0|0:0,0:0:0:0:
303,353,29258,6,0,P|341:350|372:327,1,76.7999976562501,8|0,0:0|3:0,0:0:0:0:
311,276,29567,2,0,P|273:280|243:303,1,76.7999976562501,2|0,0:0|3:0,0:0:0:0:
243,302,29876,6,0,L|107:298,1,105.60000100708,4|0,1:0|0:0,0:0:0:0:
0,204,30186,2,0,L|105:200,1,105.60000100708,2|0,0:0|0:0,0:0:0:0:
200,112,30495,6,0,P|243:140|295:143,1,105.60000100708,8|0,3:2|3:0,0:0:0:0:
400,104,30804,2,0,P|435:66|445:15,1,105.60000100708,0|0,3:0|3:0,0:0:0:0:
444,14,31113,6,0,L|422:251,1,237.60000226593,4|0,0:0|3:0,0:0:0:0:
296,140,31732,2,0,L|284:316,1,158.40000151062,8|0,0:0|3:0,0:0:0:0:
108,352,32196,1,0,3:0:0:0:
96,344,32350,6,0,P|74:333|50:330,1,48,4|0,3:0|0:0,0:0:0:0:
156,276,32660,2,0,P|179:272|201:262,1,48,0|0,0:0|3:0,0:0:0:0:
333,300,32969,6,0,L|265:296,2,48,8|0|0,0:0|3:0|0:0,0:0:0:0:
256,192,33433,1,0,3:0:0:0:
276,168,33588,6,0,P|283:145|279:122,1,48,2|0,0:0|0:0,0:0:0:0:
60,44,33897,2,0,P|52:66|56:89,1,48,4|0,3:0|0:0,0:0:0:0:
64,96,34206,6,0,L|56:188,1,63.3599998066406,8|2,0:0|3:0,0:0:0:0:
16,232,34670,1,2,0:0:0:0:
156,348,34825,6,0,P|204:368|256:361,1,105.60000100708,4|0,1:0|0:0,0:0:0:0:
344,296,35134,2,0,P|395:289|444:309,1,105.60000100708,2|0,0:0|0:0,0:0:0:0:
444,309,35443,6,0,P|424:260|432:209,1,105.60000100708,8|0,3:2|3:0,3:0:0:0:
496,121,35752,2,0,P|503:69|482:20,1,105.60000100708,0|0,3:0|3:0,3:0:0:0:
255,68,36062,6,0,L|442:82,1,158.40000151062,4|0,0:0|3:0,0:0:0:0:
436,216,36526,1,2,0:0:0:0:
436,216,36680,2,0,L|258:200,1,158.40000151062,8|0,0:0|3:0,0:0:0:0:
96,328,37144,1,0,3:0:0:0:
96,328,37299,6,0,P|54:349|7:351,1,95.0399997099609,4|0,0:3|0:0,0:0:0:0:
186,283,37917,2,0,P|225:308|250:348,1,95.0399997099609,8|0,0:0|0:0,0:0:0:0:
102,227,38536,2,0,P|103:179|126:138,1,95.0399997099609,0|0,3:0|0:0,0:0:0:0:
52,40,39155,6,0,L|168:48,1,105.60000100708,8|0,0:0|3:0,0:0:0:0:
254,107,39464,2,0,L|360:100,1,105.60000100708,2|0,0:0|3:0,0:0:0:0:
254,106,39773,6,0,P|237:156|248:207,1,105.60000100708,4|0,1:0|0:0,0:0:0:0:
400,320,40082,2,0,P|416:270|405:219,1,105.60000100708,2|0,0:0|0:0,0:0:0:0:
202,177,40392,6,0,P|221:227|262:259,1,105.60000100708,8|0,3:2|3:0,0:0:0:0:
451,248,40701,2,0,P|431:199|390:167,1,105.60000100708,0|0,3:0|3:0,0:0:0:0:
162,308,41010,6,0,L|360:317,1,158.40000151062,4|0,0:0|0:0,0:0:0:0:
208,180,41474,1,2,0:0:0:0:
208,180,41629,2,0,L|36:171,1,158.40000151062,8|0,0:0|3:0,0:0:0:0:
80,312,42093,1,0,3:0:0:0:
80,312,42247,6,0,P|82:284|95:260,1,48,4|0,3:0|0:0,0:0:0:0:
288,120,42557,2,0,P|285:92|272:68,1,48,2|0,0:3|3:0,0:0:0:0:
224,8,42866,1,8,0:0:0:0:
288,68,43175,6,0,P|297:89|299:113,1,48,2|0,0:3|3:0,0:0:0:0:
364,196,43484,1,0,0:0:0:0:
364,196,43639,2,0,L|480:204,1,96,0|2,3:0|0:0,0:0:0:0:
399,319,44103,2,0,L|395:283,2,24,0|0|0,3:0|3:0|3:0,3:0:0:0:
178,328,44412,6,0,B|166:320|158:304|158:304|118:296|72:316,1,108.000004119873,4|0,0:3|0:0,0:0:0:0:
83,311,44722,6,0,P|55:261|66:206,1,115.199996484375,4|0,0:1|0:0,0:0:0:0:
120,112,45186,1,0,3:0:0:0:
136,120,45340,2,0,L|140:56,1,57.5999982421876,0|0,0:0|3:0,0:0:0:0:
236,88,45649,1,0,0:0:0:0:
252,96,45804,6,0,L|256:32,1,57.5999982421876,4|0,3:0|3:0,0:0:0:0:
79,253,46577,5,8,0:0:0:0:
79,267,46731,1,0,0:0:0:0:
80,281,46886,1,0,3:0:0:0:
81,296,47040,1,0,0:0:0:0:
82,310,47196,6,0,L|105:314,1,24,4|2,1:0|0:0,0:0:0:0:
232,292,47660,5,2,0:0:0:0:
288,348,47814,2,0,L|327:340,1,36,4|0,3:0|0:0,0:0:0:0:
336,338,48124,6,0,L|343:322,1,18.0000006866455,2|0,3:0|0:0,0:0:0:0:
416,240,48278,2,0,L|423:255,1,18.0000006866455,2|0,3:0|0:0,0:0:0:0:
232,292,48433,6,0,L|176:284,1,48,0|0,1:0|1:0,0:0:0:0:
64,72,48742,6,0,L|58:40,7,24,2|0|0|0|0|0|0|0,0:0|0:0|0:0|0:0|0:0|0:0|0:0|0:0,0:0:0:0:
64,72,49051,6,0,L|54:170,1,84.0000008010864,6|0,1:2|0:0,0:0:0:0:
115,303,49206,5,0,0:0:0:0:
150,302,49360,1,0,3:0:0:0:
184,285,49515,1,0,0:0:0:0:
312,100,49670,6,0,P|425:72|484:174,1,252.000002403259,4|0,1:0|3:0,3:0:0:0:
446,333,49979,2,0,B|368:363|367:307|281:336,1,168.000001602173,0|0,1:0|3:0,0:0:0:0:
64,52,50289,5,8,1:2:0:0:
182,218,50443,2,0,L|174:309,2,72.0000027465821,8|0|4,0:3|0:0|0:3,0:0:0:0:
101,325,50907,6,0,P|143:368|207:369,1,128,0|0,3:0|0:0,0:0:0:0:
283,337,51216,2,0,P|238:292|175:291,1,128,0|0,3:0|0:0,0:0:0:0:
283,337,51526,6,0,L|378:334,1,96,8|0,1:2|3:0,0:0:0:0:
478,197,51835,2,0,L|382:194,1,96,4|0,3:0|0:0,0:0:0:0:
176,42,52144,6,0,B|194:69|194:69|182:135,1,96,4|2,3:1|0:1,0:0:0:0:
182,131,52608,1,4,3:0:0:0:
108,192,52763,2,0,L|44:188,2,48,8|8|0,0:0|3:0|3:0,0:0:0:0:
83,353,53227,6,0,P|127:337|175:342,2,96,4|2|0,3:0|0:3|3:0,0:0:0:0:
256,296,54000,2,0,P|295:322|342:323,1,96,8|8,0:0|0:3,0:0:0:0:
455,286,54464,1,4,3:0:0:0:
455,286,54618,6,0,B|456:264|439:247|439:247|479:199|456:153,1,144.000005493164,4|0,3:1|0:0,0:0:0:0:
336,96,55082,1,0,3:0:0:0:
312,192,55237,2,0,L|392:188,1,72.0000027465821,0|8,1:0|3:0,0:0:0:0:
91,155,55546,2,0,L|11:151,1,72.0000027465821,0|4,0:0|3:0,0:0:0:0:
120,76,55856,6,0,P|157:104|175:148,1,96.0000036621095,0|0,3:0|0:0,0:0:0:0:
147,228,56165,2,0,P|109:199|91:155,1,96.0000036621095,0|0,3:0|0:0,0:0:0:0:
247,155,56474,6,0,L|146:146,1,72.0000027465821,8|0,1:2|3:0,0:0:0:0:
270,329,56783,2,0,L|371:320,1,72.0000027465821,4|0,3:0|0:0,0:0:0:0:
404,204,57093,5,4,3:1:0:0:
96,276,57402,1,2,0:1:0:0:
440,288,57866,1,2,0:1:0:0:
57,204,58175,2,0,L|45:324,2,96,4|0|0,3:0|3:0|3:0,0:0:0:0:
112,144,58948,6,0,B|88:124|60:120|60:120|80:108|96:114,1,96,8|8,0:0|0:3,0:0:0:0:
192,208,59412,1,4,3:0:0:0:
284,36,59567,6,0,B|312:8|312:8|289:182,1,216.000008239746,4|0,3:1|3:0,0:0:0:0:
392,256,60186,6,0,P|421:235|456:233,1,72.0000027465821,8|8,1:2|3:0,0:0:0:0:
400,336,60495,2,0,P|364:333|335:313,1,72.0000027465821,0|4,0:0|3:0,0:0:0:0:
167,307,60804,6,0,P|122:295|77:311,1,96.0000036621095,0|0,3:0|0:0,0:0:0:0:
77,311,61113,2,0,P|100:269|95:222,1,96.0000036621095,0|0,3:0|0:0,0:0:0:0:
60,152,61423,6,0,B|22:141|-9:153|-9:153|24:172,1,96,8|0,1:2|3:0,0:0:0:0:
256,256,61732,2,0,B|293:266|324:254|324:254|292:236,1,96,4|0,3:0|0:0,0:0:0:0:
295,146,62041,6,0,L|302:247,1,96,4|2,3:1|3:2,0:0:0:0:
380,120,62505,1,4,3:0:0:0:
380,120,62660,2,0,L|374:48,2,48,8|8|0,0:0|3:0|3:0,0:0:0:0:
166,250,63124,6,0,P|109:250|64:220,2,96,4|2|0,3:0|0:3|3:0,0:0:0:0:
291,101,63897,2,0,P|338:96|379:119,1,96,8|8,0:0|0:3,0:0:0:0:
323,173,64361,1,4,3:0:0:0:
456,128,64515,6,0,B|475:118|475:118|444:252,1,144.000005493164,4|0,3:1|3:0,0:0:0:0:
476,336,64979,1,0,3:0:0:0:
384,288,65134,5,8,1:2:0:0:
308,328,65289,1,8,3:0:0:0:
224,316,65443,1,0,0:0:0:0:
148,356,65598,1,4,3:0:0:0:
72,320,65753,6,0,P|40:286|25:241,1,96.0000036621095,0|0,3:0|0:0,0:0:0:0:
141,113,66062,2,0,P|173:147|188:192,1,96.0000036621095,0|0,3:0|0:0,0:0:0:0:
38,301,66371,2,0,P|20:259|21:211,1,96.0000036621095,8|0,1:2|3:0,3:0:0:0:
174,131,66680,2,0,P|192:173|191:221,1,96.0000036621095,4|0,3:0|3:0,3:0:0:0:
384,344,66990,6,0,B|408:340|408:340|436:348|436:348|454:343,1,72,4|4,1:2|3:0,0:0:0:0:
454,343,67608,6,0,L|460:288,1,48.0000018310548,0|0,3:0|0:0,0:0:0:0:
384,344,67814,2,0,L|389:288,1,48.0000018310548,0|0,3:0|0:0,0:0:0:0:
314,345,68021,2,0,L|319:289,1,48.0000018310548,0|0,3:0|0:0,0:0:0:0:
154,51,68227,6,0,L|124:88,1,48.0000018310548,0|0,1:0|3:0,3:0:0:0:
128,344,68433,2,0,L|98:306,1,48.0000018310548,0|0,1:0|3:0,3:0:0:0:
58,41,68639,2,0,L|23:85,1,48.0000018310548,0|0,1:0|3:0,3:0:0:0:
8,252,68845,6,0,B|16:224|48:229|48:229|38:235|31:244,2,72.0000027465821,8|2|0,0:0|0:1|0:0,0:0:0:0:
98,306,69618,1,0,0:0:0:0:
98,306,69773,1,0,3:0:0:0:
231,259,70082,5,8,0:0:0:0:
228,280,70237,1,0,0:0:0:0:
224,300,70392,1,0,3:0:0:0:
382,294,70701,5,0,0:0:0:0:
350,327,70856,1,0,0:0:0:0:
317,360,71011,1,0,3:0:0:0:
452,120,71320,6,0,L|444:44,1,72.0000027465821,8|0,0:0|0:0,0:0:0:0:
208,120,71938,5,0,0:0:0:0:
176,112,72093,1,0,0:0:0:0:
199,89,72247,1,0,3:0:0:0:
218,129,72557,5,8,0:0:0:0:
162,115,72712,1,0,0:0:0:0:
202,75,72866,1,0,3:0:0:0:
234,145,73175,5,0,0:0:0:0:
139,121,73330,1,0,0:0:0:0:
208,53,73484,1,0,3:0:0:0:
92,324,73794,6,0,P|48:340|-4:336,1,72.0000027465821,8|0,0:0|0:0,0:0:0:0:
23,340,74258,1,0,3:0:0:0:
120,252,74412,6,0,P|136:258|149:271,1,36.0000013732911
149,271,74722,1,0,3:0:0:0:
216,132,75031,6,0,P|232:125|245:112,1,36.0000013732911,8|0,0:0|0:0,0:0:0:0:
260,76,75340,1,0,3:0:0:0:
432,256,75649,6,0,P|448:262|461:275,1,36.0000013732911
488,344,75959,1,0,3:0:0:0:
64,192,76268,6,0,P|78:160|75:189,1,96,8|4,0:0|3:1,0:0:0:0:
78,187,77196,6,0,L|138:183,1,48,2|0,0:1|0:0,0:0:0:0:
312,52,77660,1,2,0:1:0:0:
204,204,77969,1,6,0:1:0:0:
436,112,78278,6,0,L|376:108,1,48,2|0,0:1|0:0,0:0:0:0:
312,52,78588,1,2,0:0:0:0:
416,264,78742,6,2,B|422:279|422:279|445:245|432:196,1,96,8|6,0:0|0:1,0:1:0:0:
420,192,79206,1,2,3:1:0:0:
236,276,79361,6,0,P|216:284|194:283,1,42.2400012890625,4|2,1:0|0:0,0:0:0:0:
124,328,79670,2,0,P|104:320|89:303,1,42.2400012890625,0|2,3:0|0:0,3:0:0:0:
4,192,79979,6,0,L|0:244,2,42.2400012890625,8|2|0,3:2|0:0|3:0,0:0:0:0:
90,304,80443,1,4,3:0:0:0:
7,149,80598,6,0,L|3:201,1,42.2400012890625,0|0,3:0|3:0,0:0:0:0:
108,84,80907,5,0,3:0:0:0:
182,66,81061,1,0,3:0:0:0:
89,71,81216,1,8,0:0:0:0:
187,45,81371,1,0,3:0:0:0:
332,108,81732,6,2,B|334:117|334:117|427:97|427:97|429:104,1,112.6400034375,2|0,0:1|3:1,0:1:0:0:
394,185,82299,2,0,L|352:193,1,42.2400012890625,0|0,1:0|0:0,0:0:0:0:
380,266,82608,2,0,L|367:268,1,10.5600003222656,0|0,1:0|0:0,0:0:0:0:
180,108,82917,6,2,B|177:118|177:118|72:95|72:95|69:104,1,126.720003867188,0|4,0:1|3:0,0:1:0:0:
143,268,83536,1,0,3:0:0:0:
89,325,83691,6,0,P|74:309|67:288,1,42.2400012890625,8|2,3:2|0:0,0:0:0:0:
143,268,84000,2,0,P|157:283|164:304,1,42.2400012890625,0|2,3:0|0:0,0:0:0:0:
312,344,84309,5,4,1:0:0:0:
336,340,84464,1,0,0:0:0:0:
404,270,84618,1,0,3:0:0:0:
380,266,84773,1,0,0:0:0:0:
247,250,84928,5,8,3:2:0:0:
195,259,85083,1,0,0:0:0:0:
136,196,85237,1,0,3:0:0:0:
256,136,85392,1,8,0:3:0:0:
104,68,85546,6,0,L|62:61,2,42.2400012890625,0|2|0,1:0|0:0|3:0,0:0:0:0:
256,136,86010,2,0,L|324:128,1,63.3600019335938,2|0,3:0|0:0,0:0:0:0:
369,65,86320,6,2,B|401:83|416:139|387:179|387:179|411:235|395:299|395:299|423:263|435:231|428:200,1,360.000013732911,0|0,3:1|3:1,0:1:0:0:
427,199,87247,6,0,L|468:201,1,36.0000013732911,2|0,3:0|0:0,0:0:0:0:
436,276,87557,2,0,L|477:278,1,36.0000013732911,2|0,3:0|0:0,0:0:0:0:
295,331,87866,6,0,P|154:312|20:360,1,288,0|4,0:0|3:0,0:0:0:0:
104,192,88484,5,0,3:0:0:0:
95,71,88639,2,0,L|98:113,1,42.2400012890625,8|2,3:2|0:0,0:0:0:0:
294,331,88948,2,0,L|298:288,1,42.2400012890625,0|2,3:0|0:0,0:0:0:0:
453,24,89258,6,0,B|462:18|462:18|498:25,1,42.2400012890625,4|0,1:2|0:0,0:0:0:0:
59,360,89722,2,0,B|50:366|50:366|14:359,1,42.2400012890625,4|0,1:2|0:0,0:0:0:0:
376,192,90031,5,2,0:0:0:0:
376,192,90186,2,0,L|379:149,1,42.2400012890625,0|4,3:0|3:0,0:0:0:0:
288,108,90495,5,2,3:0:0:0:
192,256,90649,1,0,3:0:0:0:
116,96,90804,1,0,3:0:0:0:
152,163,90959,6,0,P|111:173|72:160,2,84.4800025781251,2|2|0,0:3|0:3|3:0,0:0:0:0:
116,96,91732,5,4,1:0:0:0:
112,80,91887,1,0,0:0:0:0:
156,179,92041,5,0,3:0:0:0:
152,163,92196,1,0,0:0:0:0:
196,262,92350,5,8,0:0:0:0:
100,296,92505,1,0,0:0:0:0:
177,362,92660,1,0,3:0:0:0:
196,262,92814,5,2,0:3:0:0:
344,336,92969,2,0,L|301:332,2,42.2400012890625,0|0|4,1:0|0:0|3:0,0:0:0:0:
439,223,93433,6,0,P|400:210|359:220,2,84.4800025781251,2|2|0,0:3|0:3|1:0,0:0:0:0:
301,332,94206,5,4,1:0:0:0:
182,317,94361,1,0,0:0:0:0:
319,322,94515,1,0,3:0:0:0:
219,336,94670,1,0,0:0:0:0:
359,220,94825,6,0,L|363:176,1,42.2400012890625,8|2,3:2|0:0,0:0:0:0:
376,48,95134,2,0,L|372:90,1,42.2400012890625,0|2,3:0|0:0,0:0:0:0:
260,152,95443,5,2,3:0:0:0:
132,108,95598,1,0,3:0:0:0:
34,201,95753,1,0,3:0:0:0:
162,245,95907,6,0,L|152:336,2,84.4800025781251,2|2|0,0:3|0:3|3:0,0:0:0:0:
260,148,96680,6,0,L|258:131,22,14.0800004296875,4|0|0|0|0|0|0|0|0|0|0|0|0|0|0|0|0|0|0|0|0|0|0,1:0|0:0|0:0|0:0|0:0|0:0|0:0|0:0|0:0|0:0|0:0|0:0|0:0|0:0|0:0|0:0|0:0|0:0|0:0|0:0|0:0|0:0|0:0,0:0:0:0:
320,212,97917,5,0,1:0:0:0:
340,36,98072,1,2,0:0:0:0:
384,276,98227,1,8,1:3:0:0:
256,344,98381,6,0,P|206:313|150:329,1,119.520001732544,0|0,3:0|0:0,0:0:0:0:
142,342,98691,1,0,1:0:0:0:
36,280,98845,6,0,L|32:256,1,24,0|0,1:0|3:0,0:0:0:0:
270,67,99155,6,0,P|291:114|250:82,1,141.119998708008,4|0,1:0|0:0,0:0:0:0:
130,47,99464,6,0,B|194:51|194:51|210:63|210:63|282:67,1,144.000005493164,2|8,1:0|0:0,0:0:0:0:
452,192,99928,2,0,B|388:196|388:196|372:208|372:208|300:212,1,144.000005493164,2|8,1:0|3:0,0:0:0:0:
138,294,100392,6,0,B|128:355|128:355|141:341,1,81.1200015162964,4|2,0:0|0:0,0:0:0:0:
89,201,100701,2,0,B|40:162|40:162|46:180,1,81.1200015162964,4|2,1:3|0:0,0:0:0:0:
194,205,101010,6,0,B|251:182|251:182|233:178,1,79.2000024169923,8|0,1:0|0:0,0:0:0:0:
235,178,101320,2,0,L|240:104,1,52.8000016113282,0|0,1:0|0:0,0:0:0:0:
332,48,101629,5,4,1:0:0:0:
384,36,101783,1,0,0:0:0:0:
460,100,101938,1,2,3:2:0:0:
392,232,102093,1,0,1:0:0:0:
460,284,102247,6,0,P|474:251|472:216,1,72.0000027465821,4|0,1:2|0:0,0:0:0:0:
296,344,102557,2,0,P|283:310|257:286,1,72.0000027465821,0|0,1:0|0:0,0:0:0:0:
60,360,102866,5,0,1:0:0:0:
140,356,103021,1,0,3:0:0:0:
220,352,103175,6,0,L|213:353,1,7.2,4|0,1:2|0:0,0:0:0:0:
140,356,103484,6,0,L|133:357,1,7.2,8|0,1:0|0:0,0:0:0:0:
60,360,103794,6,0,B|48:336|48:336|54:291,1,72.0000027465821,4|0,1:3|1:0,0:0:0:0:
54,93,104103,6,0,L|138:97,1,72.0000027465821,4|2,1:0|0:0,0:0:0:0:
204,32,104412,1,4,3:0:0:0:
256,192,104567,1,2,3:0:0:0:
458,93,104722,6,0,L|374:97,1,72.0000027465821,8|0,1:2|0:0,0:0:0:0:
187,235,105031,2,0,P|211:259|245:270,1,72.0000027465821,2|8,3:0|0:3,0:0:0:0:
386,96,105340,5,4,1:3:0:0:
256,192,105495,1,0,0:0:0:0:
482,226,105649,1,8,3:0:0:0:
352,322,105804,1,2,0:3:0:0:
256,56,105959,5,4,1:0:0:0:
256,56,106268,1,2,0:0:0:0:
0,92,106423,1,2,0:0:0:0:
84,336,106577,6,0,L|80:265,1,72.0000027465821,0|0,1:0|0:0,0:0:0:0:
245,269,106887,2,0,L|174:266,1,72.0000027465821,4|0,3:0|0:0,0:0:0:0:
336,198,107196,5,8,1:2:0:0:
384,338,107350,1,4,3:0:0:0:
482,226,107505,1,2,3:0:0:0:
245,269,107660,1,4,3:0:0:0:
428,64,107814,6,0,P|443:96|440:131,1,72.0000027465821,0|0,1:0|0:0,0:0:0:0:
71,131,108124,2,0,P|68:96|83:64,1,72.0000027465821,2|0,1:0|0:0,0:0:0:0:
256,192,108433,5,4,1:0:0:0:
368,112,108588,5,2,1:2:0:0:
144,272,108742,1,2,1:2:0:0:
176,80,108897,1,2,1:2:0:0:
336,304,109051,1,6,1:1:0:0:
336,304,109361,6,0,B|372:264|372:264|384:152,1,162.240003032593,4|8,0:0|0:0,0:0:0:0:
176,80,109825,2,0,B|140:120|140:120|128:232,1,162.240003032593,4|4,0:0|3:0,0:0:0:0:
200,304,110289,1,0,1:0:0:0:
60,340,110443,1,0,0:0:0:0:
208,320,110598,1,0,0:0:0:0:
68,324,110752,1,2,0:3:0:0:
211,231,110907,6,0,P|250:240|280:267,1,81.1200015162964,8|0,1:2|3:0,0:0:0:0:
452,44,111216,2,0,P|421:70|382:79,1,81.1200015162964,0|0,1:0|3:0,0:0:0:0:
201,151,111526,6,0,L|129:148,1,72,4|0,1:0|0:0,0:0:0:0:
129,148,111835,6,0,B|109:128|100:103|100:103|116:160|106:210,1,162.240003032593,4|8,1:2|0:0,0:0:0:0:
382,235,112299,2,0,B|401:254|410:279|410:279|394:222|404:172,1,162.240003032593,4|2,1:2|0:3,0:0:0:0:
175,252,112763,6,0,P|130:288|55:272,1,121.680002274445,0|0,1:0|0:0,0:0:0:0:
115,129,113072,2,0,L|105:210,1,81.1200015162964,4|0,1:3|0:0,0:0:0:0:
256,336,113381,2,0,L|276:178,1,121.680002274445,8|0,1:2|0:0,0:0:0:0:
271,215,113691,2,0,L|363:203,1,81.1200015162964,4|0,1:3|3:0,0:0:0:0:
433,75,114000,6,0,B|431:62|436:52|436:52|420:52|415:61,1,48,4|0,1:0|0:0,0:0:0:0:
351,204,114464,5,0,3:0:0:0:
228,104,114618,2,0,P|170:103|121:133,1,117.119995174805,8|2,1:2|0:3,0:0:0:0:
351,187,115082,5,4,3:0:0:0:
198,76,115236,2,0,P|141:85|98:124,1,117.119995174805,0|2,1:0|0:3,0:0:0:0:
349,170,115701,5,0,3:0:0:0:
164,60,115855,2,0,P|110:80|74:125,1,117.119995174805,8|2,1:2|0:3,0:0:0:0:
344,154,116320,5,0,3:0:0:0:
256,328,116474,1,4,3:1:0:0:
400,364,116629,6,2,L|336:368,1,63.3599998066406,0|0,0:0|1:0,0:1:0:0:
256,328,117093,6,0,L|224:325,1,31.6799999033203,0|8,3:0|3:0,0:0:0:0:
240,244,117402,2,0,L|195:241,1,31.6799999033203,0|4,3:0|3:0,0:0:0:0:
480,172,117711,6,2,P|508:136|508:92,1,84.2400003213501,4|0,0:0|0:0,0:1:0:0:
480,172,118021,6,0,P|496:120|478:71,6,102.857140054508,4|0|0|0|0|0|0,3:0|3:0|3:0|3:0|3:0|3:0|3:0,3:0:0:0:
480,172,118330,6,2,P|477:106|436:57,1,131.759997637665,4|0,1:2|0:1,0:1:0:0:
375,137,118639,6,2,P|401:136|384:156,1,65.8799988188324,4|0,1:2|0:1,0:1:0:0:
256,72,118948,6,0,P|195:31|125:49,1,144.000005493164,4|0,1:0|0:0,0:0:0:0:
77,116,119412,1,0,3:0:0:0:
160,212,119567,1,8,1:2:0:0:
185,185,119722,2,0,L|181:113,2,72.0000027465821,8|0|4,3:0|0:0|3:0,0:0:0:0:
188,348,120186,6,0,P|230:326|277:326,1,96.0000036621095,0|0,3:0|0:0,0:0:0:0:
352,352,120495,2,0,P|399:351|441:330,1,96.0000036621095,0|0,3:0|0:0,0:0:0:0:
449,258,120804,6,0,L|441:330,1,72.0000027465821,8|0,1:2|3:0,0:0:0:0:
383,155,121113,2,0,L|391:83,1,72.0000027465821,4|0,3:0|0:0,0:0:0:0:
185,185,121423,6,0,B|165:165|165:165|97:170,1,96,4|2,3:1|0:1,0:0:0:0:
36,244,121887,1,4,3:0:0:0:
36,244,122041,2,0,L|27:336,2,48,8|8|0,0:0|3:0|3:0,0:0:0:0:
160,352,122505,6,0,P|203:333|251:336,2,96,4|2|0,3:0|0:3|3:0,0:0:0:0:
364,284,123278,2,0,P|408:301|439:337,1,96,8|8,0:0|0:3,3:0:0:0:
251,336,123742,1,4,3:0:0:0:
251,336,123897,6,0,B|240:252|240:252|260:228|257:197,1,144.000005493164,4|0,3:1|0:0,0:0:0:0:
134,139,124361,1,4,3:0:0:0:
113,214,124515,2,0,P|148:217|180:200,1,72.0000027465821,8|4,1:2|3:0,0:0:0:0:
324,45,124825,2,0,P|289:42|257:59,1,72.0000027465821,0|4,0:0|3:0,0:0:0:0:
408,208,125134,6,0,L|412:104,1,96.0000036621095,0|0,3:0|0:0,0:0:0:0:
488,76,125443,2,0,L|484:171,1,96.0000036621095,0|0,3:0|0:0,0:0:0:0:
452,271,125753,6,0,P|418:284|383:282,1,72.0000027465821,8|0,1:2|3:0,0:0:0:0:
281,346,126062,2,0,P|305:372|338:386,1,72.0000027465821,4|0,3:0|0:0,0:0:0:0:
216,232,126371,5,4,3:1:0:0:
488,76,126680,1,2,0:1:0:0:
128,24,127144,1,2,0:1:0:0:
216,232,127454,2,0,L|204:328,2,96,4|2|0,3:0|0:3|3:0,0:0:0:0:
376,282,128227,6,0,B|410:294|430:319|430:319|432:303|425:290,1,96,8|8,0:0|0:3,0:0:0:0:
360,368,128691,1,4,3:0:0:0:
248,152,128845,6,0,B|169:140|129:204|129:204|129:160|101:133,1,216.000008239746,4|0,3:1|3:0,0:0:0:0:
44,200,129464,2,0,P|31:233|39:271,1,72.0000027465821,8|8,1:2|3:0,0:0:0:0:
316,192,129773,2,0,P|328:158|320:120,1,72.0000027465821,0|4,0:0|3:0,0:0:0:0:
270,347,130082,6,0,P|312:369|359:367,1,96.0000036621095,0|0,3:0|0:0,0:0:0:0:
375,291,130392,2,0,P|420:277|453:243,1,96.0000036621095,0|0,3:0|0:0,0:0:0:0:
393,130,130701,6,0,L|313:122,1,72.0000027465821,8|0,1:2|3:0,0:0:0:0:
216,68,131010,2,0,L|136:76,1,72.0000027465821,4|0,3:0|0:0,0:0:0:0:
68,148,131320,1,4,3:1:0:0:
68,148,131629,6,0,P|55:193|64:240,1,96,2|8,3:2|0:0,0:0:0:0:
136,324,132093,2,0,L|88:327,1,48,8|0,3:0|0:0,0:0:0:0:
256,256,132402,6,0,P|299:276|346:275,2,96,4|2|0,3:0|0:3|3:0,0:0:0:0:
376,72,133175,2,0,P|419:51|466:52,1,96,8|8,0:0|0:3,0:0:0:0:
466,52,133639,1,4,3:0:0:0:
466,52,133794,1,4,3:1:0:0:
256,264,134258,5,0,3:0:0:0:
164,200,134412,2,0,L|72:204,1,72.0000027465821,8|8,1:2|3:0,0:0:0:0:
256,264,134722,2,0,L|348:268,1,72.0000027465821,0|4,0:0|3:0,0:0:0:0:
452,152,135031,6,0,P|470:107|469:60,1,96.0000036621095,0|0,3:0|0:0,0:0:0:0:
273,172,135340,2,0,P|254:216|255:263,1,96.0000036621095,0|0,3:0|0:0,0:0:0:0:
443,121,135649,2,0,P|445:74|427:29,1,96.0000036621095,8|0,1:2|0:0,0:0:0:0:
281,202,135958,2,0,P|279:249|297:294,1,96.0000036621095,4|0,3:0|0:0,0:0:0:0:
128,40,136268,6,0,B|104:44|104:44|76:36|76:36|58:41,1,72,4|4,1:2|3:0,0:0:0:0:
58,40,136887,6,0,L|52:95,1,48.0000018310548,0|0,3:0|0:0,0:0:0:0:
47,165,137093,2,0,L|41:220,1,48.0000018310548,0|0,3:0|0:0,0:0:0:0:
36,290,137299,2,0,L|30:345,1,48.0000018310548,0|0,3:0|0:0,0:0:0:0:
180,316,137505,6,0,L|126:317,1,48.0000018310548,0|0,1:0|3:0,3:0:0:0:
292,200,137711,2,0,L|238:201,1,48.0000018310548,0|0,1:0|3:0,3:0:0:0:
424,88,137918,2,0,L|370:89,1,48.0000018310548,0|0,1:0|3:0,3:0:0:0:
504,132,138124,6,0,B|496:160|464:155|464:155|474:149|481:140,2,72.0000027465821,8|2|0,0:0|0:1|0:0,0:0:0:0:
414,78,138897,1,0,0:0:0:0:
414,78,139052,1,0,3:0:0:0:
281,125,139361,5,8,0:0:0:0:
284,104,139516,1,0,0:0:0:0:
288,84,139671,1,0,3:0:0:0:
130,90,139980,5,0,0:0:0:0:
162,57,140135,1,0,0:0:0:0:
195,24,140290,1,0,3:0:0:0:
60,264,140599,6,0,L|68:340,1,72.0000027465821,8|0,0:0|3:0,0:0:0:0:
304,264,141217,5,0,0:0:0:0:
336,272,141372,1,0,0:0:0:0:
313,295,141526,1,0,3:0:0:0:
294,255,141836,5,8,0:0:0:0:
350,269,141991,1,0,0:0:0:0:
310,309,142145,1,0,3:0:0:0:
278,239,142454,5,0,0:0:0:0:
373,263,142609,1,0,0:0:0:0:
304,331,142763,1,0,3:0:0:0:
420,60,143073,6,0,P|464:44|516:48,1,72.0000027465821,8|0,0:0|3:0,0:0:0:0:
489,44,143537,1,0,3:0:0:0:
392,132,143691,6,0,P|376:126|363:113,1,36.0000013732911
363,113,144001,1,0,3:0:0:0:
296,252,144310,6,0,P|280:259|267:272,1,36.0000013732911,8|0,0:0|0:0,0:0:0:0:
252,308,144619,1,0,3:0:0:0:
80,128,144928,6,0,P|64:122|51:109,1,36.0000013732911
24,40,145238,1,0,3:0:0:0:
448,192,145547,6,0,P|434:224|437:195,1,96,8|4,0:0|3:1,0:0:0:0:
434,197,146474,6,0,L|374:201,1,48,2|0,0:1|0:0,0:0:0:0:
200,332,146938,1,2,0:1:0:0:
308,180,147247,6,0,B|316:161|316:161|307:134,1,48,2|0,0:1|0:0,0:0:0:0:
307,135,148330,6,2,P|269:97|297:142,1,144,4|0,0:3|0:0,0:1:0:0:
200,332,148639,5,4,1:0:0:0:
120,300,149258,6,0,L|69:302,1,48,0|4,1:0|3:0,0:0:0:0:
440,224,150186,1,4,3:0:0:0:
120,300,150495,6,0,L|69:302,1,48,0|0,1:0|1:0,0:0:0:0:
97,73,151423,5,0,0:0:0:0:
176,60,151577,1,0,3:0:0:0:
212,128,151732,5,0,1:0:0:0:
208,140,151887,1,0,0:0:0:0:
308,94,152041,5,0,3:0:0:0:
303,109,152196,1,0,0:0:0:0:
402,67,152350,6,0,L|396:93,1,24,2|4,1:2|3:0,0:0:0:0:
492,192,152814,1,2,0:0:0:0:
307,296,152969,6,0,L|312:334,1,36,8|0,1:2|0:0,0:0:0:0:
312,331,153588,1,4,1:0:0:0:
120,191,153897,5,0,3:0:0:0:
187,92,154051,1,0,0:0:0:0:
104,108,154206,1,0,1:0:0:0:
203,175,154361,1,0,3:0:0:0:
440,48,154515,6,0,P|451:47|463:51,1,24,4|2,3:0|0:1,0:0:0:0:
487,159,155134,2,0,P|491:161|494:165,1,9.6,0|2,0:0|1:0,0:0:0:0:
187,92,155753,5,0,3:0:0:0:
203,175,155907,1,0,0:0:0:0:
224,260,156062,5,4,3:0:0:0:
219,269,156216,1,2,0:0:0:0:
214,277,156371,5,0,0:0:0:0:
203,175,156680,5,0,1:0:0:0:
214,277,156835,1,0,3:0:0:0:
440,48,156990,2,0,P|451:47|463:51,1,24,4|2,3:0|0:1,0:0:0:0:
120,235,157608,5,4,3:0:0:0:
25,159,157763,1,0,3:0:0:0:
20,160,157917,1,0,1:0:0:0:
16,162,158072,1,0,0:0:0:0:
12,165,158226,1,2,0:0:0:0:
9,169,158381,1,2,0:0:0:0:
6,173,158536,6,0,L|10:201,1,24,6|0,1:0|3:0,0:0:0:0:
28,288,158845,1,0,0:0:0:0:
28,288,159000,1,0,3:0:0:0:
164,240,159155,6,0,L|196:244,1,24,0|2,1:0|0:0,0:0:0:0:
256,336,159464,2,0,L|288:332,1,24,4|2,3:0|0:0,0:0:0:0:
484,260,159773,2,0,L|448:255,1,36,0|0,1:0|0:0,0:0:0:0:
448,255,160082,6,0,L|454:183,1,72.0000027465821,4|0,3:0|3:0,0:0:0:0:
304,168,160392,2,0,L|310:96,1,72.0000027465821,0|0,1:0|0:0,0:0:0:0:
159,80,160701,2,0,L|165:8,1,72.0000027465821,0|0,1:0|0:0,0:0:0:0:
32,260,161010,6,0,P|30:284|36:310,1,48,4|0,1:0|0:0,0:0:0:0:
80,196,161474,1,0,3:0:0:0:
220,328,161629,6,0,P|235:346|258:360,1,48,0|0,1:0|3:0,0:0:0:0:
208,248,162093,1,0,0:0:0:0:
377,65,162247,6,0,P|429:55|477:77,1,108.000004119873
477,77,162557,6,0,P|450:72|426:83,1,54.0000020599366,4|0,3:0|0:0,0:0:0:0:
378,157,162866,5,0,1:0:0:0:
472,312,163021,2,0,L|476:268,2,36.0000013732911,0|2|0,3:0|0:3|3:0,0:0:0:0:
378,157,163484,6,0,L|374:201,1,36.0000013732911,4|2,1:0|0:0,0:0:0:0:
300,192,163794,2,0,L|296:236,1,36.0000013732911,0|0,3:0|3:0,0:0:0:0:
112,306,164103,6,0,L|69:308,1,42,0|0,1:0|0:0,0:0:0:0:
70,308,164722,6,0,L|68:286,1,18,8|0,3:0|0:0,0:0:0:0:
124,204,165031,6,0,L|142:202,1,18,8|0,3:0|0:0,0:0:0:0:
141,202,165340,6,0,L|139:183,1,18,4|0,1:3|0:0,0:0:0:0:
104,112,165649,5,2,0:0:0:0:
72,308,165804,1,2,0:0:0:0:
104,112,165959,1,4,1:0:0:0:
200,52,166113,5,2,3:0:0:0:
248,164,166268,5,4,3:0:0:0:
348,96,166423,5,8,0:0:0:0:
439,287,166577,5,8,3:0:0:0:
456,32,166732,1,8,3:0:0:0:
439,287,166887,2,2,L|429:180,1,108.000004119873,0|0,1:1|0:1,0:1:0:0:
376,352,167196,6,0,P|342:360|307:352,1,72.0000027465821,4|0,1:0|0:0,0:0:0:0:
212,192,167505,5,2,1:0:0:0:
341,283,167659,1,2,1:0:0:0:
150,327,167814,6,2,B|118:295|106:207|138:167|138:167|130:211|150:237,1,239.760005853516,4|0,1:1|0:1,0:1:0:0:
147,233,168124,6,0,L|66:228,1,79.9200019511719,4|0,1:2|0:0,0:0:0:0:
446,117,168433,6,0,P|435:42|362:57,1,168.000001602173,4|0,1:0|0:0,0:0:0:0:
300,144,168897,1,0,3:0:0:0:
380,224,169051,1,8,1:2:0:0:
256,352,169206,2,0,L|248:264,2,84.0000008010864,8|0|4,3:0|0:0|3:0,0:0:0:0:
184,192,169670,6,0,P|134:166|79:168,1,112.000001068115,0|0,3:0|0:0,0:0:0:0:
0,248,169979,2,0,P|49:273|104:271,1,112.000001068115,0|0,3:0|0:0,0:0:0:0:
184,192,170289,6,0,L|187:108,1,84.0000008010864,8|0,1:2|3:0,0:0:0:0:
337,199,170598,2,0,L|340:282,1,84.0000008010864,4|0,3:0|0:0,0:0:0:0:
444,52,170907,6,0,P|396:55|353:35,1,96,4|0,3:1|0:0,0:0:0:0:
272,76,171371,1,4,3:0:0:0:
272,76,171526,2,0,L|189:73,2,48,8|8|0,0:0|3:0|0:0,0:0:0:0:
336,240,171990,2,0,P|368:192|400:168,2,96,4|2|0,3:0|0:3|3:0,0:0:0:0:
248,336,172763,2,0,P|236:279|242:239,1,96,8|8,0:0|0:3,0:0:0:0:
336,240,173227,1,4,3:0:0:0:
385,86,173381,6,0,B|408:60|408:60|398:169,1,144.000005493164,4|0,3:1|0:0,0:0:0:0:
292,68,173845,1,0,3:0:0:0:
292,68,174000,2,0,P|261:84|225:85,1,72.0000027465821,8|8,1:2|3:0,0:0:0:0:
75,116,174309,2,0,P|110:116|142:132,1,72.0000027465821,0|4,0:0|3:0,0:0:0:0:
100,292,174618,6,0,L|92:180,1,96.0000036621095,0|0,3:0|0:0,0:0:0:0:
200,240,174928,2,0,L|208:352,1,96.0000036621095,0|0,3:0|0:0,0:0:0:0:
100,292,175237,6,0,L|8:300,1,72.0000027465821,8|0,1:2|3:0,0:0:0:0:
200,240,175546,2,0,L|292:232,1,72.0000027465821,4|0,3:0|0:0,0:0:0:0:
412,292,175856,5,4,3:1:0:0:
28,86,176165,1,2,0:1:0:0:
196,237,176629,1,2,0:1:0:0:
507,63,176938,2,0,B|508:48|488:48|488:48|464:84|416:88,2,96,4|2|0,3:0|0:3|3:0,0:0:0:0:
284,256,177711,2,0,P|237:262|197:238,1,96,8|8,0:0|0:3,0:0:0:0:
172,108,178175,1,4,3:0:0:0:
252,192,178330,6,0,B|292:160|360:176|360:176|375:202|400:211,1,168.000001602173,4|0,3:1|0:0,0:0:0:0:
439,60,178794,1,0,3:0:0:0:
432,144,178948,2,0,L|440:56,1,84.0000008010864,8|8,1:2|3:0,0:0:0:0:
472,240,179258,2,0,L|480:328,1,84.0000008010864,0|4,0:0|3:0,0:0:0:0:
356,328,179567,6,0,P|311:359|256:353,1,112.000001068115,0|0,3:0|0:0,0:0:0:0:
190,307,179876,2,0,P|234:275|289:281,1,112.000001068115,0|0,3:0|0:0,0:0:0:0:
190,307,180186,6,0,L|92:300,1,84.0000008010864,8|0,1:2|3:0,0:0:0:0:
24,192,180495,2,0,L|122:185,1,84.0000008010864,4|0,3:0|0:0,0:0:0:0:
176,44,180804,6,0,B|199:53|209:78|209:78|230:63|256:68,1,96,4|0,3:1|0:0,0:0:0:0:
252,143,181268,1,4,3:0:0:0:
324,107,181423,2,0,P|335:86|335:62,2,48,8|8|0,0:0|3:0|0:0,0:0:0:0:
384,240,181887,6,0,B|408:224|408:224|446:243|446:243|448:268,2,96,4|2|0,3:0|0:3|3:0,0:0:0:0:
160,322,182660,2,0,L|256:328,1,96,8|8,0:0|0:3,0:0:0:0:
260,332,183124,1,4,3:0:0:0:
259,331,183278,6,0,P|204:245|101:249,1,216.000008239746,4|0,3:1|3:0,0:0:0:0:
48,183,183897,2,0,P|79:167|114:156,1,72.0000027465821,8|8,1:2|3:0,0:0:0:0:
114,39,184206,2,0,P|148:49|180:66,1,72.0000027465821,0|4,3:0|3:0,3:0:0:0:
332,192,184515,6,0,L|464:180,1,96.0000036621095,0|0,3:0|0:0,0:0:0:0:
427,200,184825,2,0,L|332:192,1,96.0000036621095,0|0,3:0|0:0,0:0:0:0:
328,112,185134,2,0,L|460:100,1,96.0000036621095,8|0,1:2|0:0,0:0:0:0:
423,280,185443,2,0,L|328:272,1,96.0000036621095,4|0,3:0|0:0,0:0:0:0:
255,336,185753,6,0,P|214:358|166:357,1,96.0000036621095,4|0,1:2|3:0,0:0:0:0:
88,332,186577,1,0,3:0:0:0:
40,268,186783,1,0,3:0:0:0:
52,192,186990,5,4,1:0:0:0:
358,368,187196,1,4,1:0:0:0:
358,15,187402,1,4,1:0:0:0:
176,160,187608,6,0,L|168:226,2,48,8|2|4,0:0|0:1|0:0,0:0:0:0:
342,207,188845,5,8,0:0:0:0:
160,336,189464,1,0,0:0:0:0:
180,332,189773,1,0,0:0:0:0:
198,326,190082,2,0,L|192:278,1,48,8|0,0:0|3:0,0:0:0:0:
320,106,190701,5,4,0:0:0:0:
170,207,191320,1,8,0:0:0:0:
390,250,191938,6,0,L|342:255,2,48,2|2|8,0:0|0:0|0:0,0:0:0:0:
408,264,192866,1,2,0:0:0:0:
456,184,193175,5,4,0:0:0:0:
56,200,193794,1,8,0:0:0:0:
356,196,194412,1,0,0:0:0:0:
156,188,194722,1,0,0:0:0:0:
248,272,195031,1,8,0:0:0:0:
264,112,195340,1,0,0:0:0:0:
256,192,195649,5,4,0:1:0:0:
314,326,195959,1,2,0:1:0:0:
264,112,196423,1,2,0:1:0:0:
248,272,196732,1,2,0:1:0:0:
104,192,197041,6,2,P|126:181|150:180,1,48,0|0,0:0|0:0,0:1:0:0:
362,204,197505,2,2,P|386:202|408:192,1,48,8|2,0:0|0:1,0:1:0:0:
