osu file format v14

[General]
AudioFilename: audio.ogg
AudioLeadIn: 0
PreviewTime: 58443
Countdown: 0
SampleSet: Soft
StackLeniency: 0.7
Mode: 0
LetterboxInBreaks: 0
WidescreenStoryboard: 1

[Editor]
DistanceSpacing: 0.5
BeatDivisor: 4
GridSize: 32
TimelineZoom: 1.8

[Metadata]
Title:Ginga Kousoku
TitleUnicode:銀河高速
Artist:HUMBREADERS
ArtistUnicode:ハンブレッダーズ
Creator:pumice
Version:Insane
Source:
Tags:japanese pop jpop j-pop rock jrock j-rock TOY'S FACTORY Mutsumuro Akira ムツムロ アキラ Derashi でらし Kijima 木島 Nagata Ryoji 永田 涼司 ユースレスマシン useless machine
BeatmapID:4522264
BeatmapSetID:2138433

[Difficulty]
HPDrainRate:5
CircleSize:3.7
OverallDifficulty:8
ApproachRate:9
SliderMultiplier:1.6
SliderTickRate:1

[Events]
//Background and Video events
0,0,"hum.jpg",0,0
//Break Periods
2,166040,174937
//Storyboard Layer 0 (Background)
//Storyboard Layer 1 (Fail)
//Storyboard Layer 2 (Pass)
//Storyboard Layer 3 (Foreground)
//Storyboard Layer 4 (Overlay)
//Storyboard Sound Samples

[TimingPoints]
992,303.030303030303,4,2,1,70,1,0
27658,-100,4,2,1,65,0,0
47052,-100,4,2,1,70,0,0
59173,-90.9090909090909,4,2,1,80,0,1
95537,-100,4,2,1,70,0,0
97961,-100,4,2,1,65,0,0
117355,-100,4,2,1,55,0,0
124628,-100,4,2,1,70,0,0
129476,-90.9090909090909,4,2,1,80,0,1
146446,-90.9090909090909,4,2,1,80,0,0
175537,-90.9090909090909,4,2,1,65,0,0
176749,-100,4,2,1,65,0,0
180385,-100,4,2,1,70,0,0
185234,-90.9090909090909,4,2,1,80,0,1
209476,-133.333333333333,4,2,1,80,0,1
211901,-133.333333333333,4,2,1,80,0,0
216749,-90.9090909090909,4,2,1,80,0,1
236143,-90.9090909090909,4,2,1,80,0,0
246597,-90.9090909090909,4,2,1,55,0,0

[Colours]
Combo1 : 53,154,255
Combo2 : 175,221,254

[HitObjects]
341,242,17961,6,0,P|358:207|365:144,1,80,6|0,3:1|2:0,2:0:0:0:
216,43,18264,2,0,P|220:114|256:201,1,160,8|2,2:0|3:2,2:0:0:0:
330,89,18719,1,0,3:2:0:0:
221,185,18870,1,8,2:0:0:0:
381,180,19022,2,0,L|473:193,1,80,2|0,3:1|0:0,2:0:0:0:
366,289,19325,5,0,3:0:0:0:
366,289,19476,2,0,B|315:296|315:296|256:321|256:321|201:330,1,160,8|2,2:0|3:2,0:0:0:0:
230,229,19931,1,0,3:0:0:0:
255,103,20082,1,10,2:1:0:0:
49,187,20385,6,0,P|60:228|81:274,1,80,2|0,3:1|0:0,2:0:0:0:
230,291,20688,2,0,L|247:205,1,80,8|0,2:0|2:0,2:0:0:0:
180,133,20991,2,0,L|181:50,1,80,2|0,3:2|3:0,0:0:0:0:
180,53,21294,1,8,2:0:0:0:
347,19,21446,2,0,B|342:109|342:109|326:189,1,160,2|0,3:1|3:0,2:0:0:0:
429,254,21900,2,0,P|416:294|382:342,1,80,8|0,2:0|2:0,0:0:0:0:
249,281,22203,5,2,3:2:0:0:
396,236,22355,1,0,3:0:0:0:
316,340,22506,1,10,2:1:0:0:
254,193,22658,1,0,2:0:0:0:
219,310,22810,6,0,P|150:340|83:278,1,160,2|8,3:1|2:0,2:0:0:0:
89,194,23264,1,2,2:0:0:0:
182,150,23416,2,0,P|192:112|197:50,1,80,0|0,3:0|3:0,0:0:0:0:
196,71,23719,1,8,2:0:0:0:
65,49,23870,2,0,P|76:130|122:207,1,160,2|2,3:1|3:2,2:0:0:0:
262,133,24325,2,0,B|305:125|305:125|364:100|364:100|415:93,1,160,8|2,2:0|3:2,0:0:0:0:
386,191,24779,1,0,3:0:0:0:
349,308,24931,1,10,2:1:0:0:
118,176,25234,6,0,L|130:265,1,80,2|0,3:1|2:0,2:0:0:0:
252,226,25537,2,0,L|228:322,1,80,8|0,2:0|2:0,2:0:0:0:
71,322,25840,1,2,3:2:0:0:
160,269,25991,1,0,3:0:0:0:
30,250,26143,1,8,2:0:0:0:
166,351,26294,2,0,L|346:328,1,160,2|0,3:1|3:0,2:0:0:0:
459,192,26749,1,8,2:0:0:0:
459,192,27052,5,6,3:2:0:0:
374,230,27203,1,8,2:3:0:0:
263,162,27355,1,4,2:3:0:0:
187,214,27506,1,4,2:3:0:0:
110,164,27658,6,0,P|109:129|125:67,1,80,6|0,3:2|2:0,2:0:0:0:
204,49,27961,1,8,2:0:0:0:
204,49,28113,1,0,2:0:0:0:
299,139,28264,2,0,P|287:179|281:232,1,80,2|0,3:2|3:0,0:0:0:0:
150,302,28567,2,0,P|190:290|243:284,1,80,10|0,2:0|0:0,2:0:0:0:
186,156,28870,6,0,P|114:197|5:197,1,160,0|10,3:0|2:0,0:0:0:0:
38,203,29325,2,0,L|49:318,1,80,0|0,3:0|2:0,0:0:0:0:
191,383,29628,2,0,L|199:303,1,80,0|10,3:0|2:0,0:0:0:0:
199,303,30082,5,2,3:2:0:0:
301,325,30234,1,2,2:0:0:0:
265,243,30385,1,8,2:0:0:0:
381,297,30537,1,2,2:0:0:0:
381,297,30688,2,0,P|392:260|398:191,1,80,2|0,3:2|3:0,2:0:0:0:
245,189,30991,2,0,P|281:173|315:152,1,80,10|0,2:0|0:0,2:0:0:0:
474,114,31294,6,0,P|421:66|323:83,1,160,0|10,3:0|2:0,0:0:0:0:
337,72,31749,2,0,L|244:58,1,80,0|0,3:0|2:0,0:0:0:0:
243,214,32052,2,0,L|152:175,1,80,0|10,3:0|2:0,0:0:0:0:
169,182,32506,5,2,3:2:0:0:
114,304,32658,1,2,2:0:0:0:
232,384,32810,2,0,P|249:353|258:305,1,80,8|2,2:0|2:0,0:0:0:0:
358,293,33113,1,2,3:2:0:0:
291,182,33264,1,0,3:0:0:0:
404,109,33416,2,0,P|419:148|423:196,1,80,10|0,2:0|0:0,2:0:0:0:
237,241,33719,6,0,L|249:81,1,160,2|8,3:2|2:0,2:0:0:0:
148,160,34173,1,2,3:2:0:0:
148,160,34325,1,0,2:0:0:0:
40,95,34476,2,0,L|57:197,1,80,0|10,3:2|2:0,0:0:0:0:
51,295,34779,5,0,2:0:0:0:
156,357,34931,2,0,P|228:371|273:282,1,160,2|8,3:2|2:0,2:0:0:0:
329,193,35385,2,0,P|412:201|480:247,1,160,0|0,3:0|3:0,0:0:0:0:
430,156,35840,6,0,P|418:121|418:72,1,80,10|0,2:0|0:0,2:0:0:0:
252,173,36143,2,0,P|260:89|306:21,1,160,2|10,3:2|2:0,0:0:0:0:
348,157,36597,2,0,P|409:201|396:276,1,160,2|2,3:2|3:2,0:0:0:0:
250,354,37052,1,8,2:0:0:0:
34,140,37355,6,0,P|74:148|114:166,1,80,6|0,3:2|0:0,2:0:0:0:
138,266,37658,2,0,P|98:258|58:240,1,80,8|0,2:0|0:0,0:0:0:0:
13,325,37961,1,0,3:0:0:0:
111,298,38113,1,0,3:0:0:0:
216,269,38264,2,0,B|262:261|262:261|319:227|319:227|374:214,1,160,10|0,2:0|3:0,2:0:0:0:
262,118,38719,6,0,L|281:40,1,80,2|8,2:0|0:0,2:0:0:0:
387,238,39022,2,0,L|348:312,1,80,0|0,3:0|2:0,0:0:0:0:
248,232,39325,1,0,3:0:0:0:
374,137,39476,1,10,2:0:0:0:
374,137,39779,5,2,3:2:0:0:
243,123,39931,1,2,2:0:0:0:
301,0,40082,2,0,L|312:92,1,80,8|0,2:0|2:0,2:0:0:0:
409,162,40385,1,2,3:2:0:0:
511,148,40537,1,0,3:0:0:0:
421,235,40688,1,8,2:0:0:0:
512,264,40840,1,0,2:0:0:0:
364,173,40991,6,0,P|290:185|256:282,1,160,2|8,3:2|2:0,2:0:0:0:
388,355,41446,2,0,P|402:320|405:258,1,80,2|0,3:2|2:0,2:0:0:0:
283,222,41749,1,0,3:0:0:0:
152,320,41900,1,10,2:0:0:0:
152,320,42203,5,2,3:2:0:0:
297,369,42355,1,2,2:0:0:0:
173,230,42506,2,0,P|160:192|154:127,1,80,8|0,2:0|0:0,2:0:0:0:
263,74,42810,2,0,P|257:113|244:151,1,80,2|0,3:2|3:0,2:0:0:0:
60,195,43113,1,10,2:0:0:0:
282,270,43416,6,0,L|454:237,1,160,2|10,3:2|2:0,2:0:0:0:
324,178,43870,1,0,2:0:0:0:
426,146,44022,1,0,3:0:0:0:
315,88,44173,2,0,L|214:77,1,80,2|8,3:2|0:0,2:0:0:0:
60,81,44476,5,0,2:0:0:0:
181,23,44628,2,0,P|209:104|178:179,1,160,2|10,3:2|2:0,2:0:0:0:
184,170,45234,1,2,3:2:0:0:
120,245,45385,1,0,3:0:0:0:
185,316,45537,1,10,2:0:0:0:
185,316,45688,1,0,2:0:0:0:
255,254,45840,5,2,3:2:0:0:
127,222,45991,1,0,0:0:0:0:
147,355,46143,2,0,L|256:334,1,80,10|0,2:0|2:0,2:0:0:0:
284,213,46446,5,8,3:2:0:0:
430,274,46597,1,0,3:0:0:0:
353,356,46749,1,8,3:0:0:0:
504,295,46900,1,4,3:0:0:0:
408,168,47052,1,6,3:1:0:0:
408,168,47355,6,0,L|309:160,1,80,8|0,2:0|2:0,2:0:0:0:
87,261,47658,2,0,L|186:253,1,80,10|0,2:0|3:0,2:0:0:0:
243,111,47961,2,0,L|224:30,1,80,10|0,2:0|3:0,2:0:0:0:
199,284,48264,1,14,2:0:0:0:
199,284,48567,5,10,2:0:0:0:
318,237,48719,1,0,2:0:0:0:
280,331,48870,1,10,2:0:0:0:
359,229,49022,1,0,3:0:0:0:
437,120,49173,2,0,L|458:253,1,120,10|0,2:0|0:0,2:0:0:0:
491,276,49476,6,0,L|392:320,1,80,6|0,3:2|0:0,2:0:0:0:
318,237,49779,1,8,2:0:0:0:
258,119,49931,2,0,L|276:27,1,80,2|8,2:0|2:0,2:0:0:0:
406,1,50234,2,0,L|459:75,1,80,2|8,3:2|2:0,0:0:0:0:
424,193,50537,1,0,3:0:0:0:
273,238,50688,1,6,3:2:0:0:
273,238,50991,5,8,2:0:0:0:
114,216,51143,1,0,2:0:0:0:
240,325,51294,1,8,2:0:0:0:
197,199,51446,1,0,3:0:0:0:
78,319,51597,2,0,P|72:280|83:223,1,80,8|0,2:0|3:0,2:0:0:0:
152,65,51900,1,6,3:1:0:0:
152,65,52203,6,0,L|245:78,1,80,8|0,2:0|2:0,0:0:0:0:
397,192,52506,2,0,L|304:205,1,80,10|0,2:0|0:0,2:0:0:0:
250,60,52810,1,10,2:0:0:0:
370,80,52961,1,0,3:0:0:0:
234,163,53113,6,0,P|225:208|227:255,1,80,10|0,2:0|2:0,0:0:0:0:
399,319,53416,2,0,P|407:279|407:240,1,80,10|0,2:0|2:0,0:0:0:0:
180,246,53719,1,10,2:0:0:0:
180,246,53870,1,0,3:0:0:0:
396,193,54022,1,10,2:0:0:0:
228,363,54325,5,14,3:1:0:0:
322,281,54476,2,0,B|312:242|312:242|291:201,1,80,0|0,3:0|3:0,0:0:0:0:
304,295,54779,1,14,3:1:0:0:
355,134,54931,2,0,B|320:113|320:113|276:99,1,80,0|0,3:0|3:0,0:0:0:0:
359,156,55234,1,14,3:1:0:0:
268,10,55385,2,0,B|228:20|228:20|187:40,1,80,0|0,3:0|3:0,0:0:0:0:
42,127,55688,6,0,L|216:149,1,160,10|0,3:2|2:0,2:0:0:0:
200,147,56143,1,8,2:0:0:0:
310,160,56294,1,0,3:0:0:0:
188,185,56446,1,8,2:0:0:0:
332,193,56597,6,0,P|399:235|485:186,1,160,6|0,3:1|2:0,2:0:0:0:
341,376,57052,2,0,P|329:337|327:298,1,80,8|2,3:2|2:0,0:0:0:0:
217,181,57355,1,4,2:3:0:0:
217,181,57506,1,4,2:3:0:0:
417,133,57658,2,0,P|383:150|328:188,1,80,8|2,3:2|2:0,0:0:0:0:
235,257,57961,5,8,2:3:0:0:
142,230,58113,1,8,2:3:0:0:
109,384,58264,5,8,3:2:0:0:
24,284,58416,1,0,3:0:0:0:
174,188,58567,5,10,2:0:0:0:
213,308,58719,1,0,3:0:0:0:
274,123,58870,1,10,2:0:0:0:
471,266,59173,6,0,P|382:281|336:199,1,176,6|8,3:1|2:0,2:0:0:0:
336,219,59628,1,2,2:0:0:0:
240,126,59779,2,0,B|253:86|253:86|260:32,1,88,0|2,3:2|3:2,0:0:0:0:
396,133,60082,1,8,2:0:0:0:
295,205,60234,2,0,B|232:202|182:231|182:231|111:210,1,176,2|0,2:1|2:0,2:0:0:0:
126,214,60688,6,0,P|116:170|118:115,1,88,8|0,2:0|2:0,0:0:0:0:
3,211,60991,1,2,3:1:0:0:
107,294,61143,1,0,3:0:0:0:
2,173,61294,2,0,B|42:165|42:165|98:136,1,88,8|0,2:0|2:0,2:0:0:0:
238,200,61597,2,0,L|271:16,1,176,2|8,3:1|2:0,0:0:0:0:
368,121,62052,2,0,L|354:20,1,88,2|0,2:1|3:2,0:0:0:0:
145,64,62355,6,0,P|185:86|239:96,1,88,2|8,3:2|2:0,0:0:0:0:
455,236,62658,2,0,P|415:214|361:204,1,88,2|0,3:1|0:0,2:0:0:0:
273,199,62961,1,0,3:0:0:0:
172,223,63113,2,0,L|193:329,1,88,8|0,2:0|2:0,2:0:0:0:
75,379,63416,5,2,3:2:0:0:
218,314,63567,1,0,3:0:0:0:
88,257,63719,1,8,2:0:0:0:
140,332,63870,1,0,2:0:0:0:
297,384,64022,2,0,P|326:302|319:195,1,176,2|8,3:1|2:0,2:0:0:0:
172,194,64476,6,0,L|-14:229,1,176,2|2,2:0|3:2,2:0:0:0:
0,226,64931,1,8,2:0:0:0:
65,100,65082,2,0,L|262:124,1,176,2|2,2:1|2:0,2:0:0:0:
390,77,65537,1,8,2:0:0:0:
273,22,65688,1,0,0:0:0:0:
337,151,65840,2,0,B|344:199|344:199|368:249,1,88,2|0,3:1|3:0,0:0:0:0:
279,382,66143,2,0,P|221:371|163:322,1,132,8|0,2:0|0:0,0:0:0:0:
124,341,66446,6,0,L|139:230,1,88,2|2,3:1|2:3,2:0:0:0:
214,176,66749,1,8,2:0:0:0:
356,155,66900,2,0,P|329:192|260:220,1,88,2|0,2:1|3:0,2:0:0:0:
173,174,67203,1,2,3:2:0:0:
89,274,67355,1,8,2:0:0:0:
134,92,67506,6,0,B|182:81|182:81|252:46|252:46|311:36,1,176,2|0,3:1|3:0,2:0:0:0:
299,37,67961,2,0,L|423:62,1,88,8|0,2:0|2:0,2:0:0:0:
469,101,68264,1,2,3:1:0:0:
453,120,68340,1,8,2:0:0:0:
448,144,68416,1,8,2:0:0:0:
453,169,68491,1,8,2:0:0:0:
471,185,68567,2,0,L|462:248,1,44,8|8,3:2|2:0,0:0:0:0:
421,245,68719,2,0,L|412:308,1,44,8|8,2:0|2:0,0:0:0:0:
352,354,68870,6,0,B|339:316|339:316|329:248,1,88,6|0,3:1|2:0,2:0:0:0:
249,166,69173,1,10,2:1:0:0:
249,166,69325,1,0,2:0:0:0:
249,166,69476,2,0,P|259:124|263:65,1,88,2|0,3:2|0:0,2:0:0:0:
108,210,69779,2,0,P|66:220|7:224,1,88,8|0,2:0|2:0,2:0:0:0:
176,287,70082,1,4,3:2:0:0:
236,194,70385,6,0,B|209:161|209:161|190:99,1,88,10|0,2:1|2:0,2:0:0:0:
306,7,70688,1,2,3:1:0:0:
306,7,70840,1,0,2:0:0:0:
306,7,70991,2,0,L|415:27,1,88,10|0,2:0|2:0,2:0:0:0:
451,179,71294,1,4,3:2:0:0:
368,59,71597,6,0,P|347:103|309:144,1,88,10|0,2:1|0:0,2:0:0:0:
307,292,71900,1,2,3:1:0:0:
307,292,72052,1,0,0:0:0:0:
307,292,72203,2,0,P|345:275|405:228,1,88,10|0,2:0|2:0,0:0:0:0:
280,123,72506,1,4,3:2:0:0:
276,220,72658,1,0,2:0:0:0:
384,150,72810,1,8,2:0:0:0:
234,95,72961,1,2,2:0:0:0:
349,70,73113,5,0,3:2:0:0:
349,70,73264,1,2,3:2:0:0:
192,186,73416,2,0,P|146:186|100:171,1,88,10|0,2:1|0:0,0:0:0:0:
15,148,73719,6,0,L|39:244,1,88,6|0,3:1|2:0,0:0:0:0:
228,105,74022,2,0,L|215:18,1,88,8|2,2:1|2:0,0:0:0:0:
340,244,74325,2,0,L|444:266,1,88,2|0,3:2|0:0,2:0:0:0:
151,142,74628,2,0,L|45:129,1,88,10|0,2:1|2:0,2:0:0:0:
178,250,74931,1,2,3:1:0:0:
286,179,75082,1,0,2:0:0:0:
322,269,75234,5,10,2:1:0:0:
169,148,75385,1,0,2:0:0:0:
297,57,75537,2,0,B|339:77|339:77|387:85,1,88,2|0,3:1|3:0,2:0:0:0:
342,291,75840,2,0,B|384:271|384:271|432:263,1,88,10|0,2:1|0:0,0:0:0:0:
512,125,76143,1,6,3:1:0:0:
512,125,76446,5,8,2:0:0:0:
431,299,76597,1,2,3:1:0:0:
351,148,76749,1,10,2:0:0:0:
494,233,76900,1,2,3:1:0:0:
309,180,77052,1,8,2:0:0:0:
456,57,77203,1,2,3:1:0:0:
265,14,77355,1,8,3:2:0:0:
265,14,77658,6,0,L|130:40,1,132,12|0,3:2|0:0,2:0:0:0:
113,68,77961,2,0,L|133:143,1,44,2|0,3:1|2:0,2:0:0:0:
217,128,78113,1,8,2:0:0:0:
229,149,78188,1,8,2:0:0:0:
234,173,78264,1,8,2:0:0:0:
229,198,78340,1,8,2:0:0:0:
219,214,78416,2,0,L|235:278,1,44,8|8,2:0|2:0,0:0:0:0:
188,292,78567,6,0,B|275:309|275:309|385:312,1,176,6|8,3:1|2:0,2:0:0:0:
422,178,79022,2,0,L|319:191,1,88,2|0,2:0|3:0,2:0:0:0:
185,116,79325,2,0,P|161:153|149:195,1,88,2|8,3:2|2:0,2:0:0:0:
30,309,79628,1,2,2:1:0:0:
30,309,79779,2,0,B|46:192|46:192|39:132,1,176,0|8,3:0|2:0,0:0:0:0:
39,134,80234,5,0,0:0:0:0:
150,257,80385,2,0,L|164:160,1,88,2|0,3:1|3:0,0:0:0:0:
270,77,80688,2,0,L|282:164,1,88,8|0,2:0|2:0,2:0:0:0:
120,283,80991,6,1,B|135:326|135:326|170:375,1,88,2|0,3:1|2:0,2:0:0:0:
291,381,81294,1,8,2:0:0:0:
389,278,81446,2,0,P|352:258|287:246,1,88,2|0,2:1|3:2,0:0:0:0:
202,129,81749,2,0,P|166:154|123:201,1,88,2|8,3:2|2:0,0:0:0:0:
313,152,82052,6,1,P|401:175|465:84,1,176,2|0,3:1|3:0,2:3:0:0:
212,177,82506,2,0,P|230:271|234:360,1,176,8|2,2:0|3:2,2:0:0:0:
124,287,82961,1,0,3:2:0:0:
326,283,83113,2,0,L|443:295,1,88,8|0,2:0|2:0,2:0:0:0:
310,173,83416,6,0,B|307:110|336:60|336:60|315:-11,1,176,2|8,3:1|2:0,2:0:0:0:
163,31,83870,2,0,L|260:55,1,88,2|0,2:0|3:0,0:0:0:0:
473,107,84173,2,0,L|376:131,1,88,2|8,3:2|2:0,0:0:0:0:
239,215,84476,2,0,P|149:232|98:145,1,176,2|0,2:1|2:0,2:0:0:0:
99,173,84931,2,0,B|133:149|133:149|191:131,1,88,8|0,2:0|2:0,2:0:0:0:
70,74,85234,1,2,3:1:0:0:
180,151,85385,1,0,3:0:0:0:
295,103,85537,2,0,P|304:63|304:7,1,88,8|0,2:0|2:0,2:0:0:0:
146,111,85840,6,0,L|161:222,1,88,2|0,3:1|2:0,0:0:0:0:
236,276,86143,1,8,2:0:0:0:
378,297,86294,2,0,P|351:260|282:232,1,88,2|0,2:1|3:2,0:0:0:0:
149,278,86597,1,2,3:2:0:0:
68,135,86749,5,8,2:0:0:0:
219,12,86900,2,0,L|244:212,1,176,2|0,3:1|3:0,2:0:0:0:
447,264,87355,2,0,L|453:169,1,88,8|2,2:0|2:0,0:0:0:0:
307,119,87658,2,0,L|233:107,1,44,6|0,3:1|2:0,2:0:0:0:
228,178,87810,1,8,2:0:0:0:
216,188,87885,1,8,2:0:0:0:
203,200,87961,2,0,L|219:264,3,44,8|8|8|8,2:0|2:0|2:0|2:0,0:0:0:0:
281,283,88264,6,0,P|225:339|116:290,1,176,6|10,3:1|2:1,2:0:0:0:
38,241,88719,1,0,0:0:0:0:
138,158,88870,2,0,P|154:117|158:56,1,88,2|0,3:2|3:0,2:0:0:0:
299,197,89173,2,0,P|304:240|320:281,1,88,10|0,2:0|2:0,2:0:0:0:
185,257,89476,5,4,3:2:0:0:
469,203,89779,1,10,2:1:0:0:
469,203,89931,1,0,0:0:0:0:
383,112,90082,2,0,P|374:155|375:224,1,88,2|0,3:1|3:0,2:0:0:0:
212,87,90385,2,0,P|210:43|201:0,1,88,10|0,2:0|2:0,0:0:0:0:
313,50,90688,5,4,3:2:0:0:
99,189,90991,1,10,2:1:0:0:
99,189,91143,1,0,2:0:0:0:
203,319,91294,2,0,L|226:220,1,88,2|0,3:1|3:0,2:0:0:0:
408,182,91597,2,0,L|309:159,1,88,10|0,2:0|2:0,2:0:0:0:
105,210,91900,1,4,3:2:0:0:
105,210,92203,6,0,P|142:222|199:224,1,88,10|0,2:1|2:0,0:0:0:0:
441,87,92506,2,0,P|404:99|347:101,1,88,2|0,3:1|3:0,0:0:0:0:
368,339,92810,2,0,P|328:294|329:195,1,132,12|0,2:0|0:0,2:0:0:0:
361,202,93113,2,0,L|467:224,1,88,4|0,3:2|2:0,2:0:0:0:
237,320,93416,2,0,L|131:342,1,88,10|0,2:1|2:0,0:0:0:0:
0,222,93719,1,2,3:1:0:0:
100,275,93870,1,2,3:0:0:0:
100,275,93946,1,2,3:0:0:0:
100,275,94022,2,0,P|118:235|125:163,1,88,12|0,2:0|0:0,2:0:0:0:
258,19,94325,6,0,B|270:116|270:116|295:207,1,176,0|10,3:0|2:1,0:0:0:0:
290,191,94931,1,2,3:2:0:0:
411,234,95082,1,2,3:1:0:0:
249,304,95234,1,8,2:0:0:0:
436,334,95385,1,2,2:1:0:0:
260,336,95537,6,0,P|221:357|158:365,1,80,6|0,3:2|2:0,2:0:0:0:
64,307,95840,2,0,P|85:268|93:205,1,80,8|2,2:0|2:3,2:0:0:0:
212,195,96143,1,2,3:2:0:0:
65,132,96294,1,0,3:0:0:0:
204,164,96446,1,8,2:0:0:0:
308,88,96597,2,0,B|306:48|306:48|287:-6,1,80,2|0,2:1|0:0,2:0:0:0:
292,10,96900,5,0,3:0:0:0:
473,102,97052,2,0,P|431:110|393:107,1,80,10|0,2:0|2:0,0:0:0:0:
261,116,97355,1,2,3:2:0:0:
359,191,97506,1,10,2:1:0:0:
195,222,97658,1,8,2:0:0:0:
361,306,97810,1,8,2:0:0:0:
186,317,97961,6,0,P|112:337|47:259,1,160,6|8,3:1|2:0,2:0:0:0:
95,156,98416,2,0,P|113:203|118:249,1,80,2|0,2:0|0:0,2:0:0:0:
246,261,98719,1,0,3:0:0:0:
332,193,98870,2,0,P|291:191|226:164,1,80,8|0,2:0|2:0,0:0:0:0:
17,171,99173,6,0,L|194:135,1,160,2|8,3:2|2:0,2:0:0:0:
173,139,99628,2,0,L|190:59,1,80,0|2,3:0|2:0,0:0:0:0:
337,2,99931,2,0,L|353:81,1,80,0|8,3:0|2:0,0:0:0:0:
353,81,100385,5,2,3:2:0:0:
270,140,100537,1,0,2:0:0:0:
383,191,100688,2,0,P|420:186|472:163,1,80,8|0,2:0|2:0,0:0:0:0:
295,159,100991,2,0,P|258:164|206:187,1,80,2|0,3:2|3:0,2:0:0:0:
167,292,101294,5,8,2:0:0:0:
167,292,101446,1,0,2:0:0:0:
311,353,101597,2,0,P|278:285|295:182,1,160,2|8,3:2|2:0,2:0:0:0:
285,202,102052,2,0,L|390:220,1,80,2|0,3:2|2:0,2:0:0:0:
496,298,102355,2,0,L|391:315,1,80,2|8,3:2|2:0,0:0:0:0:
416,311,102810,5,2,3:2:0:0:
487,192,102961,1,0,2:0:0:0:
333,177,103113,2,0,P|317:142|313:89,1,80,8|0,2:0|2:0,2:0:0:0:
199,32,103416,1,2,3:2:0:0:
242,160,103567,1,0,3:0:0:0:
100,222,103719,2,0,P|115:259|121:315,1,80,10|0,2:0|2:0,2:0:0:0:
233,366,104022,6,0,P|303:372|349:277,1,160,2|8,3:2|2:0,2:0:0:0:
267,208,104476,1,2,3:2:0:0:
267,208,104628,1,0,2:0:0:0:
383,144,104779,2,0,P|344:133|294:106,1,80,2|8,3:2|2:0,2:0:0:0:
239,14,105082,5,0,2:0:0:0:
89,56,105234,2,0,L|110:161,1,80,2|0,3:2|0:0,2:0:0:0:
294,71,105537,2,0,L|273:176,1,80,8|0,2:0|2:0,2:0:0:0:
142,225,105840,1,2,3:2:0:0:
244,232,105991,1,2,3:2:0:0:
154,136,106143,1,10,2:0:0:0:
232,285,106294,1,0,2:0:0:0:
390,287,106446,6,0,P|432:218|412:116,1,160,2|8,3:2|2:0,2:0:0:0:
261,28,106900,2,0,P|255:106|296:173,1,160,2|2,3:2|3:2,2:0:0:0:
469,159,107355,1,10,2:1:0:0:
371,186,107506,1,0,0:0:0:0:
151,227,107658,6,0,B|113:244|113:244|47:251,1,80,6|0,3:1|2:0,2:0:0:0:
227,365,107961,1,8,2:0:0:0:
227,365,108113,2,0,B|154:345|154:345|63:341,1,160,0|0,2:0|3:0,0:0:0:0:
70,342,108567,2,0,L|168:327,1,80,10|0,2:1|0:0,2:0:0:0:
290,247,108870,2,0,L|388:267,1,80,2|0,3:2|2:0,0:0:0:0:
412,244,109097,1,0,0:0:0:0:
412,244,109173,1,8,2:0:0:0:
278,329,109325,2,0,P|239:272|257:154,1,160,2|2,3:1|3:2,2:0:0:0:
352,103,109779,2,0,B|343:63|343:63|317:16,1,80,8|0,2:0|2:0,2:0:0:0:
204,73,110082,6,0,B|163:89|163:89|110:96,1,80,2|2,3:1|2:3,2:0:0:0:
94,76,110310,1,2,2:3:0:0:
94,76,110385,2,0,L|61:176,1,80,8|0,2:0|2:0,2:0:0:0:
202,119,110688,1,2,3:2:0:0:
225,194,110840,1,0,3:0:0:0:
341,92,110991,2,0,L|344:205,1,80,10|0,2:1|0:0,2:0:0:0:
327,324,111294,6,0,B|382:316|382:316|488:275,1,160,2|8,3:2|2:0,2:0:0:0:
309,195,111749,2,0,L|216:185,1,80,2|0,3:1|0:0,2:0:0:0:
41,310,112052,2,0,L|134:300,1,80,2|8,3:2|2:0,0:0:0:0:
120,301,112355,5,0,2:0:0:0:
262,218,112506,1,2,3:1:0:0:
131,188,112658,1,0,2:0:0:0:
286,309,112810,2,0,B|293:258|293:258|318:199|318:199|327:144,1,160,8|2,2:0|3:2,2:0:0:0:
416,71,113264,1,0,3:0:0:0:
287,26,113416,6,0,B|250:41|250:41|196:44,1,80,10|0,2:1|2:0,0:0:0:0:
172,24,113643,1,0,0:0:0:0:
172,24,113719,2,0,L|87:46,1,80,2|0,3:2|2:0,2:0:0:0:
231,123,114022,1,8,2:0:0:0:
95,135,114173,2,0,L|3:114,1,80,2|0,3:1|0:0,2:0:0:0:
62,232,114476,6,0,P|60:278|74:323,2,80,2|8|0,3:2|2:0|2:0,0:0:0:0:
140,122,114931,1,2,3:1:0:0:
252,188,115082,1,0,2:0:0:0:
105,195,115234,5,8,2:1:0:0:
249,103,115385,1,0,2:0:0:0:
177,250,115537,2,0,P|242:300|319:257,1,160,2|8,3:1|2:1,2:0:0:0:
416,159,115991,1,0,2:0:0:0:
281,9,116143,6,0,P|282:48|295:86,1,80,2|0,3:1|2:0,0:0:0:0:
498,204,116446,2,0,P|496:164|483:126,1,80,4|0,3:0|2:0,0:0:0:0:
409,113,116749,1,8,2:2:0:0:
285,219,116900,1,8,2:0:0:0:
327,339,117052,1,8,3:0:0:0:
239,360,117203,1,4,3:0:0:0:
414,379,117355,5,6,3:1:0:0:
414,379,117961,2,0,L|397:285,1,80,2|0,2:0|0:0,0:0:0:0:
309,282,118264,2,0,L|292:188,1,80,2|0,2:0|0:0,0:0:0:0:
207,161,118567,1,2,2:0:0:0:
207,161,118719,1,0,2:0:0:0:
302,117,118870,2,0,L|209:99,1,80,2|0,2:0|2:0,0:0:0:0:
90,147,119173,1,2,2:0:0:0:
273,13,119476,1,2,2:0:0:0:
65,70,119779,6,0,L|38:167,1,80,2|0,2:0|2:0,2:0:0:0:
122,228,120082,1,0,2:0:0:0:
188,157,120234,2,0,L|161:254,1,80,2|2,2:0|2:3,2:0:0:0:
309,318,120537,2,0,L|406:291,1,80,2|2,2:0|2:3,2:0:0:0:
272,238,120840,1,2,2:0:0:0:
358,150,120991,2,0,L|522:192,2,160,2|2|2,2:3|2:3|2:3,2:0:0:0:
505,160,121900,5,2,2:3:0:0:
399,180,122052,1,0,0:0:0:0:
297,203,122203,2,0,L|325:94,1,80,6|0,3:2|0:0,0:0:0:0:
217,3,122506,1,2,3:0:0:0:
217,3,122810,6,0,L|125:30,1,80,2|0,3:2|2:0,0:0:0:0:
367,56,123113,2,0,L|443:78,1,80,2|0,3:2|2:0,0:0:0:0:
237,191,123416,1,2,3:2:0:0:
237,191,123567,1,0,2:0:0:0:
237,191,123719,2,0,L|262:105,1,80,2|0,3:2|2:0,2:0:0:0:
424,278,124022,2,0,L|347:300,1,80,2|0,3:2|2:0,2:0:0:0:
184,264,124325,1,8,2:0:0:0:
291,74,124476,5,8,2:0:0:0:
310,111,124552,1,8,2:0:0:0:
329,149,124628,2,0,B|250:177|250:177|146:184,1,160,6|8,3:1|2:0,2:0:0:0:
48,91,125082,2,0,B|41:136|41:136|48:193,1,80,2|0,2:0|3:0,0:0:0:0:
171,273,125385,1,0,3:2:0:0:
137,152,125537,1,8,2:0:0:0:
312,106,125688,5,2,2:0:0:0:
219,202,125840,2,0,L|196:371,2,160,2|8|0,3:1|2:0|3:0,2:0:0:0:
358,122,126597,1,2,3:2:0:0:
485,227,126749,2,0,P|448:242|395:249,1,80,8|2,2:0|2:1,0:0:0:0:
272,212,127052,5,4,3:2:0:0:
272,212,127204,1,0,3:0:0:0:
146,364,127355,2,0,L|157:285,1,80,8|0,3:2|0:0,0:0:0:0:
28,287,127658,1,8,3:2:0:0:
148,183,127810,1,0,2:0:0:0:
120,286,127961,1,8,3:0:0:0:
1,208,128113,5,8,3:2:0:0:
151,166,128264,1,0,3:0:0:0:
42,107,128416,1,4,3:0:0:0:
107,251,128567,1,8,3:2:0:0:
281,190,128719,1,0,3:0:0:0:
172,69,128870,1,10,2:1:0:0:
414,115,129476,6,1,B|409:207|409:207|391:289,1,176,6|8,3:1|2:0,2:0:0:0:
391,288,129931,1,2,2:0:0:0:
239,239,130082,1,0,3:0:0:0:
341,214,130234,1,2,3:2:0:0:
261,317,130385,1,8,2:0:0:0:
368,188,130537,2,0,B|320:179|320:179|254:151|254:151|197:143,1,176,2|0,2:1|2:0,2:0:0:0:
199,143,130991,6,0,L|216:42,1,88,8|0,2:0|2:0,2:0:0:0:
77,177,131294,1,2,3:1:0:0:
182,240,131446,1,0,2:0:0:0:
51,194,131597,2,0,L|65:308,1,88,8|0,2:0|2:0,0:0:0:0:
202,350,131900,2,0,P|263:310|237:188,1,176,2|8,3:1|2:0,2:0:0:0:
369,132,132355,2,0,P|324:126|268:101,1,88,2|0,2:1|3:2,0:0:0:0:
147,192,132658,6,0,B|109:216|109:216|54:233,1,88,2|8,3:2|2:0,0:0:0:0:
302,329,132961,2,1,B|339:353|339:353|394:370,1,88,2|0,3:1|0:0,2:0:0:0:
452,292,133264,1,0,3:0:0:0:
493,203,133416,2,0,L|382:224,1,88,8|0,2:0|2:0,2:0:0:0:
229,108,133719,5,2,3:2:0:0:
286,191,133870,1,0,3:0:0:0:
285,28,134022,1,8,2:0:0:0:
285,28,134173,1,0,2:0:0:0:
448,64,134325,2,0,P|398:129|301:84,1,176,2|8,3:1|2:0,2:0:0:0:
252,269,134779,2,0,P|254:228|269:176,1,88,2|0,2:0|3:0,2:0:0:0:
92,106,135082,2,0,P|103:148|106:192,1,88,2|8,3:2|2:0,2:0:0:0:
0,283,135385,6,0,B|63:280|113:309|113:309|184:288,1,176,2|0,2:1|2:0,2:0:0:0:
168,292,135840,2,0,L|184:188,1,88,8|0,2:0|2:0,0:0:0:0:
282,255,136143,1,2,3:1:0:0:
190,176,136294,1,0,3:0:0:0:
28,169,136446,2,0,P|70:159|124:129,1,88,8|0,2:0|2:0,2:0:0:0:
307,143,136749,6,0,L|277:38,1,88,2|2,3:1|2:3,2:0:0:0:
147,24,137052,1,8,2:0:0:0:
33,91,137203,2,0,B|75:105|75:105|132:108,1,88,2|0,2:1|3:0,0:0:0:0:
271,164,137506,1,2,3:2:0:0:
164,223,137658,5,8,2:0:0:0:
277,347,137810,2,0,P|190:366|143:274,1,176,2|0,3:1|3:0,2:0:0:0:
341,186,138264,2,0,L|454:212,1,88,8|0,2:0|2:0,2:0:0:0:
499,279,138567,1,2,3:1:0:0:
477,289,138643,1,8,2:0:0:0:
453,294,138719,1,8,2:0:0:0:
433,290,138794,1,8,2:0:0:0:
415,282,138870,2,0,L|354:295,1,44,8|8,3:2|2:0,0:0:0:0:
339,323,139022,2,0,L|274:310,1,44,8|8,2:0|2:0,0:0:0:0:
224,370,139173,6,0,B|215:290|215:290|217:179,1,176,6|10,3:1|2:1,2:0:0:0:
291,86,139628,1,0,2:0:0:0:
135,71,139779,2,0,L|38:90,1,88,2|0,3:2|3:0,2:0:0:0:
143,219,140082,2,0,L|240:238,1,88,10|0,2:0|2:0,2:0:0:0:
157,311,140385,5,4,3:2:0:0:
343,172,140688,1,10,2:1:0:0:
343,172,140840,1,0,2:0:0:0:
462,243,140991,2,0,P|451:197|449:129,1,88,2|0,3:1|3:0,0:0:0:0:
267,73,141294,2,0,P|263:116|252:159,1,88,10|0,2:0|2:0,2:0:0:0:
342,93,141597,5,4,3:2:0:0:
131,231,141900,1,10,2:1:0:0:
131,231,142052,1,0,2:0:0:0:
12,126,142203,2,0,B|54:140|54:140|104:146,1,88,2|0,3:1|3:0,2:0:0:0:
197,341,142506,2,0,B|211:299|211:299|217:249,1,88,10|0,2:0|2:0,2:0:0:0:
220,85,142810,6,0,P|312:73|356:137,1,176,4|10,3:2|2:1,0:0:0:0:
355,133,143264,1,0,2:0:0:0:
421,51,143416,1,2,3:1:0:0:
272,164,143567,1,0,3:0:0:0:
456,205,143719,2,0,L|360:220,1,88,12|0,2:0|0:0,2:0:0:0:
236,369,144022,6,0,P|202:322|227:252,1,132,4|0,3:2|0:0,2:0:0:0:
252,282,144325,2,0,L|360:307,1,88,10|0,2:1|2:0,2:0:0:0:
291,146,144628,2,0,P|286:106|271:60,1,88,2|0,3:1|3:0,2:0:0:0:
122,0,144931,1,12,2:0:0:0:
191,117,145082,1,0,2:0:0:0:
191,117,145158,1,0,0:0:0:0:
191,117,145234,2,0,B|158:192|158:192|103:273,2,176,4|10|4,3:2|2:1|3:2,0:0:0:0:
326,35,145991,5,2,2:1:0:0:
459,131,146143,1,8,2:0:0:0:
296,122,146294,1,4,2:3:0:0:
443,47,146446,2,0,L|429:243,1,176,6|8,3:1|2:0,2:0:0:0:
269,161,146900,5,0,2:0:0:0:
393,213,147052,2,0,B|420:257|420:257|440:358,1,132,2|0,3:1|0:0,2:0:0:0:
479,314,147355,2,0,L|388:299,1,88,8|2,2:0|2:0,0:0:0:0:
214,316,147658,5,0,3:0:0:0:
317,245,147810,1,2,2:0:0:0:
226,344,147961,2,0,B|177:332|177:332|105:290|105:290|46:275,1,176,8|2,2:0|3:1,0:0:0:0:
198,188,148416,1,2,3:2:0:0:
127,348,148567,1,10,2:1:0:0:
89,163,148719,5,2,2:0:0:0:
270,252,148870,2,0,P|316:205|289:121,1,132,2|0,3:1|0:0,2:0:0:0:
265,132,149173,2,0,B|247:93|247:93|245:31,1,88,8|2,2:0|2:0,2:0:0:0:
442,93,149476,2,0,B|437:188|437:188|415:277,1,176,2|8,3:1|2:0,2:0:0:0:
417,266,149931,1,2,2:0:0:0:
209,210,150082,1,2,3:1:0:0:
359,151,150234,1,0,2:0:0:0:
251,311,150385,2,0,L|231:120,1,176,10|0,2:1|3:0,2:0:0:0:
233,136,150840,6,0,L|261:233,2,88,0|8|0,0:0|2:0|0:0,0:0:0:0:
84,61,151294,2,0,B|150:76|150:76|269:23,1,176,6|8,3:1|2:0,2:0:0:0:
244,176,151749,1,2,2:0:0:0:
408,118,151900,2,0,B|387:80|387:80|369:13,1,88,2|0,3:1|3:0,2:0:0:0:
278,101,152203,5,10,2:1:0:0:
451,201,152355,1,2,2:0:0:0:
472,74,152506,2,0,L|410:98,1,44,2|0,3:1|2:0,2:0:0:0:
385,153,152658,2,0,L|341:145,1,44,2|0,2:0|2:0,2:0:0:0:
247,65,152810,6,0,B|260:126|241:180|241:180|274:247,1,176,10|0,2:1|3:0,2:0:0:0:
371,245,153264,1,0,3:0:0:0:
435,327,153416,2,0,B|395:339|395:339|339:344,1,88,10|0,2:1|2:0,0:0:0:0:
322,374,153643,1,0,0:0:0:0:
322,374,153719,1,2,3:1:0:0:
170,336,153870,2,0,L|184:226,1,88,0|8,2:3|2:0,0:0:0:0:
95,242,154173,5,2,2:1:0:0:
292,173,154325,2,0,L|306:277,1,88,2|0,3:2|3:0,2:0:0:0:
130,358,154628,1,8,2:0:0:0:
130,358,154931,5,2,3:1:0:0:
226,232,155082,1,0,2:3:0:0:
99,271,155234,1,10,2:0:0:0:
249,324,155385,1,0,2:0:0:0:
190,202,155537,2,0,B|146:191|146:191|99:162,1,88,2|0,3:1|3:0,0:0:0:0:
328,86,155840,2,0,B|371:75|371:75|418:46,1,88,10|4,2:1|2:3,0:0:0:0:
189,15,156143,6,0,L|213:134,1,88,6|0,3:1|2:0,2:0:0:0:
294,191,156446,1,8,2:0:0:0:
372,191,156597,1,0,2:0:0:0:
424,131,156749,1,2,3:2:0:0:
512,160,156900,1,0,3:0:0:0:
497,268,157052,1,8,2:0:0:0:
371,218,157203,1,0,2:0:0:0:
240,307,157355,1,2,3:1:0:0:
240,307,157658,5,8,2:0:0:0:
375,316,157810,1,2,2:0:0:0:
181,379,157961,1,2,3:1:0:0:
235,264,158113,5,2,3:2:0:0:
162,186,158264,1,8,2:0:0:0:
131,279,158416,1,0,2:0:0:0:
7,317,158567,1,2,3:1:0:0:
7,317,158870,5,8,2:0:0:0:
41,187,159022,1,2,2:0:0:0:
81,355,159173,1,2,3:1:0:0:
125,258,159325,5,2,3:2:0:0:
215,232,159476,1,8,2:0:0:0:
206,331,159628,1,0,2:0:0:0:
321,380,159779,1,2,3:1:0:0:
321,380,160082,5,8,2:0:0:0:
166,354,160234,1,2,2:0:0:0:
343,276,160385,1,2,3:1:0:0:
280,199,160537,5,2,3:2:0:0:
188,223,160688,1,8,2:0:0:0:
278,115,160840,1,0,2:0:0:0:
424,176,160991,2,0,L|435:71,1,88,2|0,3:1|0:0,0:0:0:0:
149,26,161294,2,0,L|158:113,1,88,8|2,2:0|2:0,0:0:0:0:
387,153,161597,5,2,3:1:0:0:
387,153,161749,1,2,3:2:0:0:
145,222,161900,1,8,2:0:0:0:
145,222,162052,1,0,2:0:0:0:
289,358,162203,5,2,3:1:0:0:
385,269,162355,2,0,L|360:205,2,44,2|2|10,2:0|2:0|2:1,0:0:0:0:
173,184,162658,1,2,2:0:0:0:
173,184,162734,1,2,2:0:0:0:
173,184,162810,2,0,B|70:184|97:226|-1:224,1,176,2|8,3:1|2:0,2:0:0:0:
423,236,163416,6,0,L|408:140,1,88,6|0,3:1|2:0,2:0:0:0:
292,205,163719,1,8,3:2:0:0:
292,205,163870,1,0,2:0:0:0:
205,159,164022,5,4,2:3:0:0:
205,159,164325,2,0,L|96:181,1,88,8|0,3:2|2:0,0:0:0:0:
39,237,164628,1,8,2:3:0:0:
130,255,164779,1,8,2:3:0:0:
133,125,164931,5,4,2:3:0:0:
8,194,165082,1,4,2:3:0:0:
225,221,165234,1,10,3:2:0:0:
59,102,165385,1,0,3:0:0:0:
118,298,165537,1,10,2:0:0:0:
118,298,165840,5,6,3:1:0:0:
472,191,175537,5,2,3:2:0:0:
472,191,175840,1,10,2:0:0:0:
472,191,176143,1,0,3:2:0:0:
403,214,176294,1,0,0:0:0:0:
365,282,176446,1,8,2:0:0:0:
224,254,176749,6,0,P|216:219|214:151,1,80,0|0,3:0|0:0,0:0:0:0:
137,153,177052,2,0,P|139:113|148:74,1,80,10|0,2:0|0:0,0:0:0:0:
247,23,177355,1,2,3:2:0:0:
247,23,177658,1,8,2:0:0:0:
368,128,177961,5,0,3:0:0:0:
159,213,178264,1,10,2:0:0:0:
333,278,178567,1,2,3:2:0:0:
231,350,178870,1,8,2:0:0:0:
231,350,179173,6,0,L|244:243,1,80,0|0,3:0|0:0,0:0:0:0:
411,281,179476,2,0,L|398:174,1,80,8|0,2:0|0:0,0:0:0:0:
216,162,179779,1,0,3:0:0:0:
363,112,179931,1,0,3:0:0:0:
190,129,180082,2,0,B|133:151|133:151|64:156,1,120,12|0,2:0|0:0,0:0:0:0:
36,180,180385,6,0,L|16:85,1,80,6|0,3:1|0:0,2:0:0:0:
240,235,180688,2,0,L|223:313,1,80,10|0,2:1|3:0,0:0:0:0:
77,252,180991,2,0,L|-21:279,1,80,10|0,2:0|3:0,0:0:0:0:
250,117,181294,2,0,L|348:144,1,80,10|0,2:0|3:0,2:0:0:0:
418,308,181597,1,10,2:1:0:0:
418,308,181749,1,0,0:0:0:0:
480,223,181900,5,10,2:1:0:0:
335,282,182052,1,0,3:0:0:0:
242,193,182203,1,10,2:0:0:0:
321,360,182355,1,0,3:0:0:0:
382,145,182506,1,14,2:0:0:0:
382,145,182810,6,0,B|341:156|341:156|293:154,1,80,14|4,3:1|2:3,0:0:0:0:
303,154,183113,1,4,2:3:0:0:
107,252,183264,2,0,B|148:263|148:263|196:261,1,80,14|4,3:1|2:3,0:0:0:0:
185,261,183567,1,4,2:3:0:0:
341,300,183719,1,8,2:0:0:0:
176,352,183870,1,2,3:1:0:0:
299,373,184022,2,0,L|296:283,1,80,8|0,2:1|2:0,2:0:0:0:
179,137,184325,5,10,2:0:0:0:
127,213,184476,1,2,2:0:0:0:
7,183,184628,1,10,2:1:0:0:
276,159,185234,6,1,B|321:152|321:152|395:117|395:117|453:103,1,176,6|8,3:1|2:0,2:0:0:0:
479,229,185688,2,1,B|434:224|434:224|374:201,1,88,2|0,2:0|3:0,2:0:0:0:
248,266,185991,2,0,B|251:224|251:224|229:156,1,88,2|8,3:2|2:0,0:0:0:0:
322,44,186294,1,2,2:1:0:0:
322,44,186446,2,0,L|130:73,1,176,0|8,3:0|2:0,0:0:0:0:
147,70,186900,5,0,2:0:0:0:
231,208,187052,1,2,3:1:0:0:
134,165,187203,1,0,0:0:0:0:
225,253,187355,1,8,2:0:0:0:
362,179,187506,1,0,2:0:0:0:
414,69,187658,6,0,B|457:84|457:84|506:119,1,88,2|0,3:1|2:0,0:0:0:0:
512,240,187961,1,8,2:0:0:0:
409,338,188113,2,0,P|389:301|377:236,1,88,2|0,2:1|0:0,2:0:0:0:
266,100,188416,2,0,P|234:130|209:167,1,88,2|8,3:2|2:0,0:0:0:0:
188,367,188719,6,0,P|262:348|243:236,1,176,2|0,3:1|3:0,0:0:0:0:
119,136,189173,2,0,L|109:268,1,132,8|0,2:0|0:0,0:0:0:0:
98,303,189476,2,0,P|142:299|214:269,1,88,2|0,3:2|3:0,0:0:0:0:
375,116,189779,2,0,P|330:119|258:149,1,88,8|0,2:0|2:0,2:0:0:0:
268,240,190082,5,2,3:1:0:0:
127,153,190234,1,0,0:0:0:0:
245,104,190385,1,8,2:0:0:0:
103,229,190537,2,0,B|59:229|59:229|-13:203,1,88,2|0,3:2|3:0,0:0:0:0:
145,50,190840,2,0,L|169:157,1,88,0|10,2:0|3:2,0:0:0:0:
244,313,191143,1,2,2:1:0:0:
244,313,191294,2,0,P|325:316|367:209,1,176,0|8,3:0|2:0,0:0:0:0:
372,242,191749,5,0,2:0:0:0:
251,126,191900,2,0,L|267:213,1,88,2|0,3:1|3:0,0:0:0:0:
424,94,192203,2,0,L|408:7,1,88,8|0,2:0|0:0,2:0:0:0:
308,178,192506,6,0,P|268:202|201:211,1,88,2|2,3:1|2:3,0:0:0:0:
112,166,192810,1,8,2:1:0:0:
41,46,192961,2,0,B|83:56|83:56|140:105,1,88,2|0,2:1|3:0,2:0:0:0:
192,233,193264,1,2,3:2:0:0:
342,270,193416,5,8,2:0:0:0:
467,149,193567,2,0,B|381:146|381:146|267:124,1,176,2|0,3:1|3:0,2:0:0:0:
293,129,194022,2,0,L|269:239,1,88,8|0,2:0|2:0,2:0:0:0:
193,261,194325,1,2,3:1:0:0:
174,277,194400,1,8,2:0:0:0:
150,282,194476,1,8,2:0:0:0:
125,277,194552,1,8,2:0:0:0:
109,259,194628,2,0,L|46:268,1,44,8|8,3:2|2:0,0:0:0:0:
49,309,194779,2,0,L|-12:283,1,44,8|8,2:0|2:0,0:0:0:0:
10,202,194931,6,0,P|2:122|97:83,1,176,6|10,3:1|2:1,2:0:0:0:
170,132,195385,1,0,2:0:0:0:
103,238,195537,2,0,P|149:237|221:217,1,88,2|0,3:2|3:0,2:0:0:0:
302,69,195840,2,0,P|256:68|184:48,1,88,10|0,2:0|2:0,2:0:0:0:
185,148,196143,5,4,3:2:0:0:
383,275,196446,1,10,2:1:0:0:
383,275,196597,1,0,0:0:0:0:
449,135,196749,2,0,L|471:233,1,88,2|0,3:1|3:0,2:0:0:0:
268,342,197052,2,0,L|287:256,1,88,10|0,2:0|2:0,0:0:0:0:
191,266,197355,5,4,3:2:0:0:
361,113,197658,1,10,2:1:0:0:
361,113,197810,1,0,2:0:0:0:
233,160,197961,2,0,B|269:178|269:178|327:186,1,88,2|0,3:1|3:0,0:0:0:0:
387,0,198264,2,0,B|393:47|393:47|411:83,1,88,10|0,2:0|2:0,0:0:0:0:
442,282,198567,2,0,P|509:249|496:148,1,176,4|10,3:2|2:1,2:0:0:0:
505,157,199022,5,0,2:0:0:0:
319,212,199173,1,2,3:1:0:0:
430,130,199325,1,0,3:0:0:0:
334,258,199476,2,0,B|272:275|272:275|175:280,1,132,12|0,2:0|2:0,2:0:0:0:
162,303,199779,2,0,L|137:175,1,88,4|2,3:2|2:3,2:0:0:0:
243,130,200082,6,0,P|255:95|258:38,1,88,10|0,2:1|2:0,0:0:0:0:
151,123,200385,1,2,3:1:0:0:
171,0,200537,1,0,3:0:0:0:
283,128,200688,2,0,L|310:272,1,132,12|0,2:0|2:0,2:0:0:0:
347,276,200991,2,0,B|343:322|343:322|326:380,1,88,4|0,3:2|2:0,2:0:0:0:
148,280,201294,2,0,L|44:295,1,88,10|0,2:1|2:0,0:0:0:0:
320,158,201597,2,0,L|424:173,1,88,2|2,3:2|3:1,0:0:0:0:
191,16,201900,1,12,2:0:0:0:
191,16,202203,6,0,P|154:64|67:58,1,132,4|0,3:2|0:0,2:0:0:0:
82,113,202506,2,0,L|-19:74,1,88,8|0,2:0|2:0,2:0:0:0:
19,240,202810,1,0,3:2:0:0:
168,183,202961,1,2,3:2:0:0:
94,324,203113,5,8,2:0:0:0:
158,146,203264,2,0,P|249:134|283:215,1,176,6|0,3:2|3:0,2:0:0:0:
234,384,203719,6,0,P|220:345|217:279,1,88,10|0,2:1|2:0,2:0:0:0:
418,189,204022,1,10,3:1:0:0:
387,317,204173,1,8,2:0:0:0:
262,219,204325,1,10,3:1:0:0:
454,258,204476,1,8,2:0:0:0:
262,335,204628,6,0,L|175:352,1,88,4|0,3:2|0:0,2:0:0:0:
287,186,204931,2,0,L|200:168,1,88,14|0,2:1|0:0,0:0:0:0:
47,222,205234,1,0,3:0:0:0:
25,313,205385,1,2,3:2:0:0:
170,188,205537,2,0,B|142:128|142:128|130:57,1,132,14|0,2:1|0:0,2:0:0:0:
172,77,205840,2,0,L|289:62,1,88,4|0,3:2|2:0,2:0:0:0:
129,282,206143,2,0,L|216:293,1,88,14|0,2:1|2:0,2:0:0:0:
325,168,206446,1,4,3:2:0:0:
438,231,206597,1,2,3:1:0:0:
512,90,206749,1,8,2:0:0:0:
512,90,207052,6,0,P|473:110|400:113,1,88,4|0,3:1|2:0,0:0:0:0:
234,144,207355,1,10,2:0:0:0:
372,227,207506,1,0,3:0:0:0:
291,84,207658,1,10,2:0:0:0:
305,275,207810,1,0,3:0:0:0:
181,228,207961,5,8,2:0:0:0:
425,149,208113,1,6,3:1:0:0:
283,35,208416,5,0,3:0:0:0:
283,35,208567,2,0,L|187:62,1,88,10|0,2:1|0:0,0:0:0:0:
79,20,208870,1,10,2:1:0:0:
72,177,209022,1,8,2:0:0:0:
133,98,209173,1,8,2:0:0:0:
0,208,209325,1,8,2:0:0:0:
128,269,209476,6,0,B|191:266|241:295|241:295|312:274,1,180,6|0,3:1|0:0,2:0:0:0:
300,277,210082,1,2,2:3:0:0:
300,277,210385,1,2,2:3:0:0:
472,118,210688,6,0,B|409:115|359:144|359:144|288:123,1,180,6|0,3:1|0:0,2:0:0:0:
300,126,211294,1,2,2:3:0:0:
300,126,211597,1,2,2:3:0:0:
105,218,211900,5,6,3:2:0:0:
394,49,216597,5,2,2:0:0:0:
222,143,216749,2,0,L|376:172,1,132,6|0,3:1|0:0,2:0:0:0:
395,158,217052,2,0,B|382:205|382:205|351:259,1,88,8|0,2:0|2:0,0:0:0:0:
197,261,217355,1,2,3:1:0:0:
274,214,217506,1,2,3:2:0:0:
398,270,217658,1,8,2:0:0:0:
280,160,217810,5,0,2:0:0:0:
212,341,217961,2,0,P|127:347|83:264,1,176,2|8,3:1|2:0,2:0:0:0:
216,79,218416,1,2,3:1:0:0:
216,79,218567,1,0,0:0:0:0:
57,201,218719,2,0,L|155:173,1,88,0|8,3:0|2:0,0:0:0:0:
218,204,219022,5,0,2:0:0:0:
322,298,219173,1,2,3:1:0:0:
197,281,219325,1,0,2:0:0:0:
353,207,219476,2,0,P|395:222|467:233,1,88,8|0,2:0|2:0,0:0:0:0:
490,153,219779,1,2,3:1:0:0:
399,122,219931,1,0,0:0:0:0:
313,215,220082,1,8,2:0:0:0:
411,90,220234,5,0,2:0:0:0:
512,246,220385,2,0,P|440:269|390:181,1,176,2|8,3:1|2:0,0:0:0:0:
271,48,220840,1,2,3:1:0:0:
271,48,220991,1,0,2:0:0:0:
153,156,221143,2,0,L|62:171,1,88,2|8,3:2|2:0,2:0:0:0:
6,248,221446,5,0,2:0:0:0:
80,351,221597,2,0,P|122:374|197:386,1,88,6|0,3:1|2:0,0:0:0:0:
351,253,221900,2,0,P|339:210|317:172,1,88,10|2,2:1|2:3,0:0:0:0:
161,60,222203,2,0,P|118:102|120:182,1,132,2|0,3:1|0:0,0:0:0:0:
102,218,222506,2,0,L|221:192,1,88,8|0,2:0|2:0,2:0:0:0:
328,353,222810,6,0,B|280:342|280:342|210:307|210:307|162:298,1,176,2|8,3:1|2:0,2:0:0:0:
162,298,223264,2,0,L|179:385,1,88,2|0,3:1|2:0,2:0:0:0:
331,265,223567,1,2,3:2:0:0:
268,176,223719,1,8,2:0:0:0:
204,217,223870,5,0,2:0:0:0:
400,232,224022,2,0,P|458:199|439:84,1,176,2|8,3:1|2:0,2:0:0:0:
315,0,224476,2,0,L|338:100,1,88,2|0,3:1|2:0,2:0:0:0:
225,156,224779,1,2,3:2:0:0:
149,99,224931,1,8,2:0:0:0:
268,141,225082,5,0,2:0:0:0:
132,230,225234,2,0,P|49:242|0:174,1,176,2|8,3:1|2:0,0:0:0:0:
153,0,225688,2,0,L|168:95,1,88,2|0,3:1|2:0,2:0:0:0:
378,159,225991,2,0,L|363:254,1,88,2|12,3:2|3:0,0:0:0:0:
389,272,226219,1,8,2:3:0:0:
421,287,226294,1,8,2:3:0:0:
448,284,226370,1,8,2:3:0:0:
478,264,226446,6,0,B|464:208|464:208|454:123,1,132,6|0,3:1|0:0,2:0:0:0:
404,126,226749,2,0,P|407:84|427:24,1,88,8|0,2:0|2:0,0:0:0:0:
273,111,227052,1,2,3:1:0:0:
346,1,227203,1,0,3:0:0:0:
221,94,227355,2,0,B|181:115|181:115|108:134,1,88,8|0,2:0|2:0,2:0:0:0:
7,163,227658,5,2,3:1:0:0:
160,224,227810,2,0,L|273:192,1,88,0|8,2:0|2:0,0:0:0:0:
335,289,228113,1,2,3:1:0:0:
335,289,228264,1,0,2:0:0:0:
190,357,228416,2,0,L|94:332,1,88,2|8,3:2|2:0,0:0:0:0:
78,246,228719,5,0,2:0:0:0:
13,156,228870,1,2,3:1:0:0:
43,282,229022,1,2,2:3:0:0:
153,157,229173,1,8,2:0:0:0:
2,201,229325,1,0,2:0:0:0:
161,262,229476,1,2,3:1:0:0:
161,262,229628,1,0,3:0:0:0:
339,197,229779,6,0,B|299:216|299:216|223:214,1,88,8|0,2:0|2:0,0:0:0:0:
91,365,230082,2,0,P|68:286|143:223,1,176,2|8,3:1|2:0,2:0:0:0:
287,119,230537,1,2,3:1:0:0:
287,119,230688,1,0,0:0:0:0:
117,18,230840,2,0,L|136:122,1,88,2|8,3:2|2:0,0:0:0:0:
73,217,231143,5,0,2:0:0:0:
197,252,231294,2,0,P|242:245|303:210,1,88,6|0,3:1|2:0,0:0:0:0:
83,333,231597,2,0,P|43:314|0:308,1,88,10|2,2:1|2:3,0:0:0:0:
284,372,231900,2,0,P|314:321|297:223,1,132,2|0,3:1|0:0,0:0:0:0:
280,227,232203,2,0,P|282:184|303:115,1,88,8|0,2:0|2:0,2:0:0:0:
378,42,232506,6,0,P|435:105|526:69,1,176,2|8,3:1|2:0,2:0:0:0:
512,83,232961,1,2,3:1:0:0:
402,200,233113,1,0,2:0:0:0:
260,113,233264,2,0,L|147:142,1,88,2|8,3:2|2:0,0:0:0:0:
127,201,233567,5,0,2:0:0:0:
0,297,233719,2,0,B|43:310|43:310|116:307,1,88,2|0,3:1|2:0,2:0:0:0:
263,384,234022,2,0,B|276:341|276:341|273:268,1,88,10|0,2:1|2:0,2:0:0:0:
424,164,234325,2,0,B|381:151|381:151|308:154,1,88,2|0,3:1|0:0,2:0:0:0:
175,1,234628,2,0,B|162:44|162:44|165:117,1,88,10|0,2:0|2:0,2:0:0:0:
32,209,234931,5,2,3:1:0:0:
119,249,235082,1,0,2:0:0:0:
229,179,235234,2,0,L|209:321,1,132,10|0,3:1|0:0,2:0:0:0:
177,328,235537,1,8,3:2:0:0:
292,258,235688,1,8,2:0:0:0:
326,365,235840,1,8,3:0:0:0:
380,203,235991,1,4,3:0:0:0:
449,384,236143,1,6,3:1:0:0:
256,192,236219,12,6,245082,3:2:0:0:
256,192,245158,12,0,246597,3:0:0:0:
