osu file format v14

[General]
AudioFilename: audio.mp3
AudioLeadIn: 0
PreviewTime: 59837
Countdown: 0
SampleSet: Soft
StackLeniency: 0.7
Mode: 0
LetterboxInBreaks: 0
WidescreenStoryboard: 1

[Editor]
Bookmarks: 44324
DistanceSpacing: 1.2
BeatDivisor: 4
GridSize: 4
TimelineZoom: 1

[Metadata]
Title:Tenshi ni Fureta yo!
TitleUnicode:天使にふれたよ!
Artist:HTT
ArtistUnicode:HTT
Creator:Snowy Dream
Version:Normal
Source:K-ON!!
Tags:けいおん! Hirasawa Yui 平沢唯 Akiyama Mio 秋山澪 Tainaka Ritsu 田井中律 Kotobuki Tsumugi 琴吹紬 Nakano Azusa 中野梓 Toyosaki Aki 豊崎愛生 Hikasa Youko 日笠陽子 Satou Satomi 佐藤聡美 Kotobuki Minako 寿美菜子 Taketatsu Ayana 竹達彩奈
BeatmapID:1113366
BeatmapSetID:523507

[Difficulty]
HPDrainRate:4
CircleSize:3.6
OverallDifficulty:4.2
ApproachRate:4.5
SliderMultiplier:1.4
SliderTickRate:1

[Events]
//Background and Video events
0,0,"BG.jpg",0,0
//Break Periods
2,92986,99731
2,203755,220757
//Storyboard Layer 0 (Background)
//Storyboard Layer 1 (Fail)
//Storyboard Layer 2 (Pass)
//Storyboard Layer 3 (Foreground)
//Storyboard Sound Samples
Sample,90222,2,"soft-hitclap.wav",75
Sample,171247,2,"soft-hitclap.wav",75
Sample,173299,2,"soft-hitclap.wav",75
Sample,180478,2,"soft-hitclap.wav",75
Sample,252273,2,"soft-hitclap.wav",75

[TimingPoints]
2530,512.820512820513,4,2,1,75,1,0
59965,-100,4,2,1,75,0,1
79837,-100,4,2,1,45,0,1
80094,-100,4,2,1,75,0,1
92786,-100,4,2,1,75,0,0
150222,-100,4,2,1,75,0,1
170606,-100,4,2,1,45,0,1
170863,-100,4,2,1,75,0,1
183042,-100,4,2,1,75,0,0
187145,-100,4,2,1,75,0,1
198299,-100,4,2,1,45,0,1
198555,-100,4,2,1,75,0,1
203555,-100,4,2,1,75,0,0
222017,-100,4,2,1,75,0,1
254837,-100,4,2,1,75,0,0
260735,512.820512820513,4,2,1,75,1,0
262786,512.820512820513,4,2,1,75,1,0
263875,512.820512820513,4,2,1,75,1,0
264131,705.882352941176,4,2,1,75,1,0
264483,652.173913043478,4,2,1,75,1,0
264809,821.917808219178,4,2,1,75,1,0
265219,1034.48275862069,4,2,1,75,1,0
265736,845.070422535211,4,2,1,75,1,0
269116,-100,4,2,1,65,0,0
270383,-100,4,2,1,55,0,0
271651,-100,4,2,1,45,0,0
272496,-100,4,2,1,35,0,0
273341,-100,4,2,1,25,0,0
274186,-100,4,2,1,15,0,0
275031,-100,4,2,0,5,0,0

[Colours]
Combo1 : 255,125,0
Combo2 : 255,0,0
Combo3 : 244,34,176
Combo4 : 52,111,248
Combo5 : 159,37,250

[HitObjects]
136,116,2530,6,0,P|200:88|272:108,1,140,4|8,0:0|0:0,0:0:0:0:
342,138,3299,1,0,0:0:0:0:
347,305,3812,2,0,P|381:305|416:290,2,70,0|8|0,0:0|0:0|0:0,0:0:0:0:
180,327,4837,2,0,P|204:351|239:365,2,70,0|8|0,0:0|0:0|0:0,0:0:0:0:
139,253,5606,2,0,P|119:219|87:195,1,70
45,132,6119,2,0,P|27:97|24:62,1,70,8|0,0:0|0:0,0:0:0:0:
107,75,6632,6,0,P|178:86|225:138,1,140,4|8,0:0|0:0,0:0:0:0:
203,218,7401,2,0,P|272:205|306:145,2,140,4|8|4,0:0|0:0|0:0,0:0:0:0:
386,280,9965,5,8,0:0:0:0:
386,280,10222,1,8,0:0:0:0:
393,112,10735,6,0,B|351:95|351:95|312:127|257:110,1,140,6|0,0:0|0:0,0:0:0:0:
213,42,11504,2,0,P|177:100|201:176,1,140,2|0,0:0|0:0,0:0:0:0:
269,200,12273,2,0,P|277:236|267:273,1,70,8|0,0:0|0:0,0:0:0:0:
187,251,12786,2,0,P|164:277|125:293,2,70,2|0|0,0:0|0:0|0:0,0:0:0:0:
192,166,13555,2,0,P|126:144|94:80,1,140,2|0,0:0|0:0,0:0:0:0:
136,11,14324,2,0,P|172:1|209:6,1,70,8|0,0:0|0:0,0:0:0:0:
276,47,14837,6,0,P|342:67|405:34,1,140,2|0,0:0|0:0,0:0:0:0:
462,97,15606,2,0,B|421:127|421:127|448:168|439:218,1,140
491,278,16376,2,0,L|438:324,1,70,8|0,0:0|0:0,0:0:0:0:
354,327,16888,2,0,P|287:299|217:306,1,140,2|0,0:0|0:0,0:0:0:0:
167,239,17658,2,0,P|181:164|156:104,1,140,2|0,0:0|0:0,0:0:0:0:
77,83,18427,2,0,L|123:20,1,70,8|0,0:0|0:0,0:0:0:0:
202,34,18940,6,0,P|273:50|338:17,1,140,2|0,0:0|0:0,0:0:0:0:
390,84,19709,2,0,B|451:49|451:49|488:111,1,140
421,161,20478,1,8,0:0:0:0:
304,282,20991,2,0,L|269:220,1,70,2|0,0:0|0:0,0:0:0:0:
228,147,21504,1,8,0:0:0:0:
153,185,21760,2,0,P|151:110|202:68,1,140
280,78,22530,2,0,P|305:50|313:15,1,70,8|0,0:0|0:0,0:0:0:0:
396,26,23042,6,0,P|434:85|428:156,1,140,2|0,0:0|0:0,0:0:0:0:
380,221,23812,2,0,P|375:289|413:347,1,140,2|0,0:0|0:0,0:0:0:0:
482,298,24581,2,0,P|478:256|459:229,1,70,8|0,0:0|0:0,0:0:0:0:
380,221,25094,2,0,P|311:241|242:219,1,140,2|0,0:0|0:0,0:0:0:0:
188,162,25863,2,0,L|115:285,1,140,2|8,0:0|0:0,0:0:0:0:
71,353,26632,1,8,0:0:0:0:
31,189,27145,6,0,B|70:128|70:128|29:73,1,140,4|0,0:0|0:0,0:0:0:0:
99,27,27914,2,0,B|143:83|143:83|209:62,1,140
289,87,28683,2,0,P|303:119|297:157,1,70,8|0,0:0|0:0,0:0:0:0:
375,187,29196,2,0,P|418:130|497:131,1,140,2|0,0:0|0:0,0:0:0:0:
457,205,29965,2,0,P|413:261|334:260,1,140,2|0,0:0|0:0,0:0:0:0:
278,314,30735,2,0,P|264:282|266:248,1,70,8|0,0:0|0:0,0:0:0:0:
182,236,31247,6,0,P|127:282|53:288,1,140,2|0,0:0|0:0,0:0:0:0:
24,213,32017,2,0,P|79:167|153:161,1,140
157,76,32786,2,0,P|125:61|102:35,1,70,8|0,0:0|0:0,0:0:0:0:
178,0,33299,2,0,P|249:3|292:57,1,140,2|0,0:0|0:0,0:0:0:0:
287,136,34068,2,0,B|282:180|319:224|319:277,1,140,2|0,0:0|0:0,0:0:0:0:
402,282,34837,2,0,P|409:248|430:219,1,70
476,149,35350,6,0,P|498:117|504:83,1,70,2|0,0:0|0:0,0:0:0:0:
429,47,35863,1,0,0:0:0:0:
347,29,36119,2,0,B|307:22|264:47|264:47|277:79|267:110,1,140
353,109,36888,2,0,B|345:129|358:161|358:161|315:186|275:179,1,140,8|2,0:0|0:0,0:0:0:0:
195,151,37658,2,0,P|158:153|124:168,1,70
176,234,38171,2,0,P|192:302|152:361,1,140
105,287,38940,2,0,L|245:310,1,140,8|2,0:0|0:0,0:0:0:0:
326,324,39709,5,0,0:0:0:0:
387,266,39965,2,0,P|416:241|431:204,2,70,0|2|0,0:0|0:0|0:0,0:0:0:0:
344,193,40735,1,0,0:0:0:0:
266,155,40991,2,0,P|258:188|265:223,2,70,0|0|8,0:0|0:0|0:0,0:0:0:0:
291,74,41760,1,8,0:0:0:0:
366,36,42017,1,8,0:0:0:0:
449,46,42273,2,0,P|481:64|504:93,1,70
407,228,43042,1,8,0:0:0:0:
280,339,43555,6,0,P|230:283|238:219,1,140,4|8,0:0|0:0,0:0:0:0:
310,261,44324,2,0,P|313:193|266:144,1,140
183,161,45094,2,0,P|183:124|197:95,1,70,8|0,0:0|0:0,0:0:0:0:
275,64,45606,2,0,B|308:68|332:85|332:85|350:46|383:28,1,140,0|8,0:0|0:0,0:0:0:0:
467,37,46376,2,0,P|503:98|503:166,1,140
441,223,47145,2,0,L|479:287,1,70,8|0,0:0|0:0,0:0:0:0:
423,348,47658,6,0,P|354:370|289:346,1,140,0|8,0:0|0:0,0:0:0:0:
232,289,48427,1,0,0:0:0:0:
157,250,48683,2,0,P|91:228|26:250,1,140,0|8,0:0|0:0,0:0:0:0:
145,137,49709,2,0,P|219:126|255:70,2,140,0|8|0,0:0|0:0|0:0,0:0:0:0:
172,55,50991,1,0,0:0:0:0:
88,66,51247,2,0,P|90:30|110:0,1,70,8|0,0:0|0:0,0:0:0:0:
172,55,51760,6,0,P|243:77|300:43,1,140,4|8,0:0|0:0,0:0:0:0:
377,21,52530,1,0,0:0:0:0:
411,97,52786,2,0,P|336:93|294:41,1,140,0|8,0:0|0:0,0:0:0:0:
377,21,53555,1,0,0:0:0:0:
411,97,53812,2,0,P|388:168|422:225,1,140,4|8,0:0|0:0,0:0:0:0:
445,302,54582,1,0,0:0:0:0:
369,336,54838,2,0,P|372:261|424:219,1,140,0|8,0:0|0:0,0:0:0:0:
445,302,55606,1,0,0:0:0:0:
498,237,55863,6,0,P|497:198|479:167,1,70,4|0,0:0|0:0,0:0:0:0:
435,102,56376,2,0,P|419:70|420:36,1,70,8|0,0:0|0:0,0:0:0:0:
337,21,56888,2,0,P|325:53|300:77,1,70
231,127,57401,2,0,P|205:150|194:183,1,70,8|0,0:0|0:0,0:0:0:0:
226,261,57914,2,0,P|153:261|111:212,1,140,0|12,0:0|0:0,0:0:0:0:
279,194,58940,2,0,P|315:256|294:317,1,140,8|8,0:0|0:0,0:0:0:0:
194,183,59965,6,0,P|229:120|292:108,1,140,4|8,0:0|0:0,0:0:0:0:
364,148,60735,1,0,0:0:0:0:
444,128,60991,2,0,B|472:108|508:108|508:108|492:72|492:32,1,140,0|8,0:0|0:0,0:0:0:0:
408,52,61760,1,0,0:0:0:0:
328,28,62017,2,0,P|260:56|200:32,1,140,0|8,0:0|0:0,0:0:0:0:
116,32,62786,1,0,0:0:0:0:
50,84,63042,2,0,P|18:147|30:218,1,140,0|8,0:0|0:0,0:0:0:0:
89,273,63812,1,0,0:0:0:0:
166,246,64068,6,0,P|197:182|185:111,1,140,0|8,0:0|0:0,0:0:0:0:
176,32,64837,1,0,0:0:0:0:
251,69,65094,2,0,P|314:100|385:88,1,140,0|8,0:0|0:0,0:0:0:0:
458,59,65863,1,0,0:0:0:0:
454,142,66119,2,0,L|450:288,1,140,0|8,0:0|0:0,0:0:0:0:
387,337,66888,1,0,0:0:0:0:
304,322,67145,2,0,L|308:176,1,140,0|8,0:0|0:0,0:0:0:0:
235,139,67914,1,0,0:0:0:0:
150,141,68171,6,0,L|87:182,1,70,4|0,0:0|0:0,0:0:0:0:
142,246,68684,2,0,L|79:287,1,70,8|4,0:0|0:0,0:0:0:0:
16,130,69453,1,0,0:0:0:0:
16,130,69709,1,8,0:0:0:0:
142,246,70222,2,0,L|205:205,1,70,4|0,0:0|0:0,0:0:0:0:
150,141,70735,2,0,L|213:100,1,70,8|4,0:0|0:0,0:0:0:0:
373,68,71504,1,0,0:0:0:0:
415,140,71760,1,8,0:0:0:0:
422,223,72017,6,0,P|421:260|403:297,1,70,0|4,0:0|0:0,0:0:0:0:
250,347,72786,1,8,0:0:0:0:
172,314,73042,2,0,P|142:294|121:262,2,70
203,235,73812,2,0,P|231:168|204:107,1,140,8|4,0:0|0:0,0:0:0:0:
142,54,74581,1,0,0:0:0:0:
82,112,74837,2,0,L|35:163,1,70,8|0,0:0|0:0,0:0:0:0:
34,247,75350,2,0,L|81:298,2,70,8|0|8,0:0|0:0|0:0,0:0:0:0:
174,154,76376,6,0,B|211:213|211:213|174:276,1,140,4|8,0:0|0:0,0:0:0:0:
235,332,77145,1,0,0:0:0:0:
318,325,77401,2,0,P|375:289|444:304,1,140,0|8,0:0|0:0,0:0:0:0:
394,381,78171,1,0,0:0:0:0:
394,381,78427,2,0,L|361:244,1,140,0|8,0:0|0:0,0:0:0:0:
342,162,79196,1,0,0:0:0:0:
393,95,79453,2,0,P|324:80|269:119,1,140,0|12,0:0|0:0,0:0:0:0:
342,162,80222,1,0,0:0:0:0:
342,162,80478,6,0,P|285:199|219:184,1,140,0|8,0:0|0:0,0:0:0:0:
155,129,81247,1,0,0:0:0:0:
82,171,81504,2,0,P|55:236|73:300,1,140,0|8,0:0|0:0,0:0:0:0:
138,353,82273,1,0,0:0:0:0:
210,313,82530,2,0,P|237:248|219:184,1,140,0|8,0:0|0:0,0:0:0:0:
155,129,83299,1,0,0:0:0:0:
97,67,83555,2,0,B|129:43|166:41|166:41|196:63|231:56,1,140,0|8,0:0|0:0,0:0:0:0:
310,43,84324,1,0,0:0:0:0:
390,66,84581,6,0,L|430:126,1,70,4|0,0:0|0:0,0:0:0:0:
355,166,85094,2,0,L|395:226,1,70,8|4,0:0|0:0,0:0:0:0:
239,291,85863,1,0,0:0:0:0:
266,211,86119,1,8,0:0:0:0:
97,207,86632,2,0,L|61:135,1,70,4|0,0:0|0:0,0:0:0:0:
147,123,87145,2,0,L|172:46,1,70,8|4,0:0|0:0,0:0:0:0:
336,36,87914,1,0,0:0:0:0:
278,97,88171,1,8,0:0:0:0:
414,194,88683,5,4,0:0:0:0:
296,314,89196,1,8,0:0:0:0:
137,258,89709,2,0,P|85:249|39:269,2,105
199,201,90735,2,0,P|177:134|199:67,1,140,0|4,0:0|0:0,0:0:0:0:
324,179,91760,2,0,P|346:246|324:313,1,140,0|8,0:0|0:0,0:0:0:0:
269,372,92530,1,0,0:0:0:0:
269,372,92786,1,0,0:0:0:0:
256,276,100991,5,4,0:0:0:0:
144,152,101504,1,0,0:0:0:0:
168,72,101760,1,0,0:0:0:0:
335,56,102273,2,0,L|307:128,2,70,0|8|0,0:0|0:0|0:0,0:0:0:0:
415,31,103042,2,0,P|461:84|462:156,1,140,2|0,0:0|0:0,0:0:0:0:
433,230,103812,1,2,0:0:0:0:
271,276,104324,2,0,P|301:258|326:226,2,70,0|8|0,0:0|0:0|0:0,0:0:0:0:
186,272,105094,1,2,0:0:0:0:
78,143,105606,5,0,0:0:0:0:
78,143,105863,1,0,0:0:0:0:
243,173,106376,1,0,0:0:0:0:
203,99,106632,1,8,0:0:0:0:
366,58,107145,2,0,P|402:54|428:31,2,70,2|0|0,0:0|0:0|0:0,0:0:0:0:
333,135,107914,2,0,P|334:194|384:259,1,140,2|0,0:0|0:0,0:0:0:0:
461,282,108683,1,8,0:0:0:0:
509,214,108940,2,0,P|518:177|515:142,2,70,0|2|0,0:0|0:0|0:0,0:0:0:0:
505,45,109965,5,0,0:0:0:0:
340,80,110478,1,0,0:0:0:0:
259,54,110735,2,0,P|187:39|122:58,1,140,8|2,0:0|0:0,0:0:0:0:
67,118,111504,1,0,0:0:0:0:
145,266,112017,2,0,P|163:199|145:132,1,140
67,118,112786,1,8,0:0:0:0:
228,72,113299,6,0,P|255:49|288:39,1,70,2|0,0:0|0:0,0:0:0:0:
369,58,113812,2,0,P|406:63|441:55,1,70,0|2,0:0|0:0,0:0:0:0:
495,117,114324,2,0,P|513:185|484:260,1,140,0|8,0:0|0:0,0:0:0:0:
436,313,115094,1,0,0:0:0:0:
358,281,115350,2,0,P|308:231|296:151,1,140,2|0,0:0|0:0,0:0:0:0:
290,80,116119,1,0,0:0:0:0:
124,109,116632,2,0,L|157:41,1,70,0|8,0:0|0:0,0:0:0:0:
84,199,117401,5,4,0:0:0:0:
215,303,117914,1,0,0:0:0:0:
194,221,118171,1,0,0:0:0:0:
333,127,118683,2,0,L|304:193,1,70,0|8,0:0|0:0,0:0:0:0:
462,250,119453,2,0,P|456:181|409:121,1,140,2|0,0:0|0:0,0:0:0:0:
368,55,120222,2,0,B|317:36|317:36|282:62|231:51,1,140,2|0,0:0|0:0,0:0:0:0:
159,87,120991,2,0,P|134:112|121:144,1,70,8|0,0:0|0:0,0:0:0:0:
96,224,121504,1,2,0:0:0:0:
262,203,122017,6,0,L|202:157,1,70
186,327,122786,2,0,L|246:373,1,70,0|8,0:0|0:0,0:0:0:0:
322,346,123299,1,0,0:0:0:0:
395,306,123555,2,0,P|411:271|408:237,2,70,2|0|0,0:0|0:0|0:0,0:0:0:0:
326,256,124324,2,0,P|342:185|398:155,1,140,2|0,0:0|0:0,0:0:0:0:
474,189,125094,2,0,P|480:147|470:119,1,70,8|0,0:0|0:0,0:0:0:0:
405,70,125606,1,2,0:0:0:0:
239,99,126119,6,0,P|269:78|302:74,1,70
169,177,126888,1,0,0:0:0:0:
108,118,127145,2,0,P|86:194|116:243,1,140,8|2,0:0|0:0,0:0:0:0:
176,301,127914,2,0,P|199:237|169:177,1,140,0|2,0:0|0:0,0:0:0:0:
257,33,128940,2,0,L|301:89,1,70,0|8,0:0|0:0,0:0:0:0:
381,111,129453,1,0,0:0:0:0:
458,143,129709,6,0,P|465:106|456:74,2,70,2|0|0,0:0|0:0|0:0,0:0:0:0:
407,210,130478,1,2,0:0:0:0:
360,280,130735,2,0,P|353:317|362:349,2,70,0|0|8,0:0|0:0|0:0,0:0:0:0:
407,210,131504,1,0,0:0:0:0:
329,178,131760,2,0,P|295:165|256:166,1,70,8|8,0:0|0:0,0:0:0:0:
178,177,132273,1,8,0:0:0:0:
14,136,132786,1,0,0:0:0:0:
60,297,133299,1,8,0:0:0:0:
178,177,133812,6,0,P|209:114|194:46,1,140,4|8,0:0|0:0,0:0:0:0:
268,7,134581,2,0,P|336:29|401:14,1,140
482,39,135350,2,0,P|504:66|512:103,1,70,8|0,0:0|0:0,0:0:0:0:
428,104,135863,2,0,P|407:170|430:234,1,140,0|8,0:0|0:0,0:0:0:0:
409,315,136632,2,0,B|344:289|344:289|323:325|281:330,1,140
272,246,137401,2,0,P|234:241|201:251,1,70
176,327,137914,6,0,P|151:353|112:369,1,70
99,285,138427,2,0,P|62:285|24:269,1,70,8|0,0:0|0:0,0:0:0:0:
80,205,138940,2,0,P|71:135|23:89,1,140,0|8,0:0|0:0,0:0:0:0:
187,123,139965,2,0,P|229:179|294:194,2,140,0|8|0,0:0|0:0|0:0,0:0:0:0:
213,43,141247,1,0,0:0:0:0:
292,16,141504,1,8,0:0:0:0:
420,129,142017,6,0,P|401:195|437:253,1,140,4|8,0:0|0:0,0:0:0:0:
484,183,142786,1,0,0:0:0:0:
499,100,143042,2,0,P|451:50|383:52,1,140,0|8,0:0|0:0,0:0:0:0:
307,87,143812,1,0,0:0:0:0:
227,112,144068,2,0,P|158:113|111:64,1,140,4|8,0:0|0:0,0:0:0:0:
191,37,144837,1,0,0:0:0:0:
274,44,145094,2,0,P|309:102|290:167,1,140,0|8,0:0|0:0,0:0:0:0:
227,224,145863,1,0,0:0:0:0:
182,295,146119,6,0,P|174:329|184:367,1,70,4|0,0:0|0:0,0:0:0:0:
258,328,146632,2,0,P|281:302|292:264,1,70,8|0,0:0|0:0,0:0:0:0:
367,233,147145,2,0,P|401:225|436:230,2,70,0|0|8,0:0|0:0|0:0,0:0:0:0:
297,185,147914,1,0,0:0:0:0:
212,182,148171,2,0,P|243:120|310:103,1,140,0|8,0:0|0:0,0:0:0:0:
413,227,149196,2,0,P|343:231|295:181,1,140,8|8,0:0|0:0,0:0:0:0:
356,30,150222,6,0,P|394:87|375:154,1,140,4|8,0:0|0:0,0:0:0:0:
307,102,150991,1,0,0:0:0:0:
226,78,151247,2,0,P|155:84|99:128,1,140,0|8,0:0|0:0,0:0:0:0:
67,201,152017,1,0,0:0:0:0:
125,260,152273,2,0,P|189:290|259:280,1,140,0|8,0:0|0:0,0:0:0:0:
328,239,153042,1,0,0:0:0:0:
411,252,153299,2,0,P|466:293|476:361,1,140,0|8,0:0|0:0,0:0:0:0:
395,336,154068,1,0,0:0:0:0:
395,336,154324,6,0,L|513:257,1,140,0|8,0:0|0:0,0:0:0:0:
472,181,155094,1,0,0:0:0:0:
511,106,155350,2,0,L|395:27,1,140,0|8,0:0|0:0,0:0:0:0:
311,16,156119,1,0,0:0:0:0:
227,26,156376,2,0,B|179:28|179:28|141:61|145:115,1,140,0|8,0:0|0:0,0:0:0:0:
228,107,157145,1,0,0:0:0:0:
228,190,157401,2,0,B|276:188|276:188|314:155|310:101,1,140,0|8,0:0|0:0,0:0:0:0:
374,51,158171,1,0,0:0:0:0:
447,91,158427,6,0,L|495:39,2,70,4|0|8,0:0|0:0|0:0,0:0:0:0:
389,152,159196,1,4,0:0:0:0:
255,254,159709,2,0,L|199:211,1,70,0|8,0:0|0:0,0:0:0:0:
64,111,160478,6,0,L|16:163,2,70,4|0|8,0:0|0:0|0:0,0:0:0:0:
122,50,161247,1,4,0:0:0:0:
279,109,161760,2,0,P|316:113|349:100,1,70,0|8,0:0|0:0,0:0:0:0:
419,60,162273,1,0,0:0:0:0:
497,89,162530,6,0,P|526:153|515:231,1,140,4|8,0:0|0:0,0:0:0:0:
468,287,163299,1,0,0:0:0:0:
389,258,163555,2,0,P|321:240|249:265,1,140,0|8,0:0|0:0,0:0:0:0:
170,114,164581,5,4,0:0:0:0:
137,191,164837,2,0,P|173:199|204:191,2,70,0|8|0,0:0|0:0|0:0,0:0:0:0:
92,119,165606,2,0,P|56:111|25:119,2,70,8|0|8,0:0|0:0|0:0,0:0:0:0:
160,272,166632,6,0,P|186:207|168:134,1,140,4|8,0:0|0:0,0:0:0:0:
152,58,167401,1,0,0:0:0:0:
220,9,167658,2,0,P|291:4|351:33,1,140,0|8,0:0|0:0,0:0:0:0:
405,97,168427,1,0,0:0:0:0:
482,128,168683,2,0,B|461:154|452:189|452:189|415:174|375:176,1,140,0|8,0:0|0:0,0:0:0:0:
298,182,169453,1,0,0:0:0:0:
231,233,169709,2,0,P|213:166|251:108,1,140,0|8,0:0|0:0,0:0:0:0:
207,36,170478,1,0,0:0:0:0:
146,94,170735,6,0,P|70:137|135:60,1,280,4|0,0:0|0:0,0:0:0:0:
116,222,172273,2,0,P|145:247|175:255,1,70,8|0,0:0|0:0,0:0:0:0:
257,239,172786,2,0,B|297:227|336:240|369:278|369:278|445:225,1,210
371,178,173812,2,0,L|371:37,1,140,0|8,0:0|0:0,0:0:0:0:
450,66,174581,1,0,0:0:0:0:
456,149,174837,6,0,L|531:149,2,70,4|0|8,0:0|0:0|0:0,0:0:0:0:
434,232,175606,2,0,P|375:262|308:233,1,140,4|0,0:0|0:0,0:0:0:0:
371,178,176376,1,8,0:0:0:0:
206,211,176888,6,0,L|206:283,2,70,4|0|8,0:0|0:0|0:0,0:0:0:0:
140,157,177658,2,0,P|205:126|267:151,1,140,4|0,0:0|0:0,0:0:0:0:
206,211,178427,1,8,0:0:0:0:
206,42,178940,5,4,0:0:0:0:
372,64,179453,2,0,P|410:56|437:38,1,70,8|0,0:0|0:0,0:0:0:0:
496,97,179965,2,0,P|513:146|498:197,2,105
429,149,180991,2,0,P|417:218|462:272,1,140,0|4,0:0|0:0,0:0:0:0:
290,291,182017,2,0,B|231:284|202:242|202:242|160:267,1,140,0|8,0:0|0:0,0:0:0:0:
114,322,182786,2,0,P|86:259|114:198,1,140
187,158,183555,1,8,0:0:0:0:
60,47,184068,6,0,P|34:74|22:108,2,70,0|0|8,0:0|0:0|0:0,0:0:0:0:
142,64,184837,2,0,P|211:84|283:68,1,140,4|0,0:0|0:0,0:0:0:0:
358,50,185606,1,8,0:0:0:0:
407,118,185863,2,0,P|387:187|403:259,1,140,4|0,0:0|0:0,0:0:0:0:
354,323,186632,2,0,L|312:261,1,70,8|0,0:0|0:0,0:0:0:0:
234,240,187145,5,4,0:0:0:0:
153,263,187401,2,0,L|116:331,2,70,0|8|0,0:0|0:0|0:0,0:0:0:0:
234,240,188171,1,0,0:0:0:0:
200,163,188427,2,0,P|233:156|270:164,1,70,0|8,0:0|0:0,0:0:0:0:
351,169,188940,2,0,P|403:121|411:48,1,140,4|0,0:0|0:0,0:0:0:0:
338,14,189709,2,0,L|260:-1,1,70,8|0,0:0|0:0,0:0:0:0:
190,29,190222,1,0,0:0:0:0:
144,99,190478,6,0,P|135:135|145:169,1,70,0|8,0:0|0:0,0:0:0:0:
222,135,190991,2,0,P|257:198|247:270,1,140,4|0,0:0|0:0,0:0:0:0:
311,321,191760,2,0,L|353:261,1,70,8|0,0:0|0:0,0:0:0:0:
430,293,192273,1,0,0:0:0:0:
497,343,192530,2,0,P|510:306|509:275,1,70,0|8,0:0|0:0,0:0:0:0:
451,215,193042,2,0,P|415:153|417:84,1,140,4|0,0:0|0:0,0:0:0:0:
348,35,193812,2,0,P|286:71|217:69,1,140,8|0,0:0|0:0,0:0:0:0:
51,74,194837,1,8,0:0:0:0:
26,154,195094,1,0,0:0:0:0:
73,223,195350,6,0,P|109:211|136:188,1,70,4|0,0:0|0:0,0:0:0:0:
210,224,195863,2,0,L|286:247,1,70,8|0,0:0|0:0,0:0:0:0:
360,230,196376,2,0,P|396:242|423:265,2,70,4|0|8,0:0|0:0|0:0,0:0:0:0:
307,164,197145,2,0,P|302:96|340:36,1,140,4|0,0:0|0:0,0:0:0:0:
422,25,197914,2,0,P|451:47|467:82,1,70,8|0,0:0|0:0,0:0:0:0:
465,160,198427,2,0,P|449:190|421:211,2,70,4|0|8,0:0|0:0|0:0,0:0:0:0:
256,192,199453,12,0,201504,0:0:0:0:
256,192,201632,12,0,203555,0:0:0:0:
83,268,222017,6,0,P|38:217|45:149,1,140,4|8,0:0|0:0,0:0:0:0:
121,194,222786,1,0,0:0:0:0:
121,194,223042,2,0,P|126:119|85:71,1,140,0|8,0:0|0:0,0:0:0:0:
143,8,223812,1,0,0:0:0:0:
221,36,224068,2,0,P|291:47|351:17,1,140,0|8,0:0|0:0,0:0:0:0:
434,26,224837,1,0,0:0:0:0:
398,101,225094,2,0,P|338:136|310:198,1,140,0|8,0:0|0:0,0:0:0:0:
316,282,225863,1,0,0:0:0:0:
303,364,226119,6,0,B|248:355|248:355|253:308|218:273,1,140,0|8,0:0|0:0,0:0:0:0:
165,339,226888,1,0,0:0:0:0:
81,326,227145,2,0,P|33:273|29:205,1,140,0|8,0:0|0:0,0:0:0:0:
55,127,227914,1,0,0:0:0:0:
133,97,228171,2,0,B|174:117|174:117|201:78|256:69,1,140,0|8,0:0|0:0,0:0:0:0:
336,65,228940,1,0,0:0:0:0:
413,97,229196,2,0,P|431:129|435:162,1,70
435,245,229709,2,0,P|425:280|404:306,1,70,8|0,0:0|0:0,0:0:0:0:
348,243,230222,5,4,0:0:0:0:
281,192,230478,1,0,0:0:0:0:
203,225,230735,1,8,0:0:0:0:
203,308,230991,1,4,0:0:0:0:
154,146,231504,2,0,L|92:100,1,70,0|8,0:0|0:0,0:0:0:0:
265,104,232273,5,4,0:0:0:0:
301,27,232530,1,0,0:0:0:0:
376,62,232786,1,8,0:0:0:0:
341,137,233042,1,4,0:0:0:0:
461,254,233555,2,0,P|465:214|457:180,2,70,0|8|0,0:0|0:0|0:0,0:0:0:0:
383,221,234324,6,0,P|324:261|300:328,1,140,4|8,0:0|0:0,0:0:0:0:
226,363,235094,1,0,0:0:0:0:
147,332,235350,2,0,P|102:278|96:202,1,140,0|8,0:0|0:0,0:0:0:0:
178,64,236376,5,4,0:0:0:0:
207,142,236632,2,0,P|226:175|227:214,2,70,0|8|0,0:0|0:0|0:0,0:0:0:0:
266,81,237401,2,0,P|299:100|338:101,1,70,8|0,0:0|0:0,0:0:0:0:
409,74,237914,1,8,0:0:0:0:
482,225,238427,6,0,P|509:162|480:100,1,140,4|8,0:0|0:0,0:0:0:0:
423,162,239196,1,0,0:0:0:0:
366,224,239453,2,0,P|338:155|368:97,1,140,0|8,0:0|0:0,0:0:0:0:
293,54,240222,1,0,0:0:0:0:
217,91,240478,2,0,P|212:158|158:200,1,140,0|8,0:0|0:0,0:0:0:0:
137,119,241247,1,0,0:0:0:0:
115,38,241504,2,0,P|58:85|58:151,1,140,0|8,0:0|0:0,0:0:0:0:
85,226,242273,1,0,0:0:0:0:
15,273,242530,6,0,P|75:309|138:289,1,140,4|8,0:0|0:0,0:0:0:0:
210,245,243299,1,0,0:0:0:0:
279,200,243555,2,0,P|343:179|401:216,1,140,0|8,0:0|0:0,0:0:0:0:
333,263,244324,1,0,0:0:0:0:
387,327,244581,2,0,P|321:346|264:310,1,140,0|8,0:0|0:0,0:0:0:0:
210,245,245350,1,0,0:0:0:0:
154,182,245606,2,0,P|94:146|31:166,1,140,0|8,0:0|0:0,0:0:0:0:
85,226,246376,1,0,0:0:0:0:
114,304,246632,6,0,P|76:310|45:300,2,70,4|0|8,0:0|0:0|0:0,0:0:0:0:
186,260,247401,1,4,0:0:0:0:
54,155,247914,2,0,L|34:228,1,70,0|8,0:0|0:0,0:0:0:0:
143,94,248683,2,0,P|178:107|200:131,2,70,4|0|8,0:0|0:0|0:0,0:0:0:0:
60,74,249452,1,4,0:0:0:0:
115,236,249965,2,0,L|134:169,1,70,0|8,0:0|0:0,0:0:0:0:
207,210,250478,1,0,0:0:0:0:
279,166,250735,6,0,P|348:186|413:157,1,140,4|8,0:0|0:0,0:0:0:0:
258,245,251760,2,0,P|274:297|259:347,2,105
191,190,252786,2,0,P|142:137|148:72,1,140,8|4,0:0|0:0,0:0:0:0:
305,16,253812,2,0,P|283:84|224:112,1,140,0|8,0:0|0:0,0:0:0:0:
221,28,254581,1,0,0:0:0:0:
221,28,254837,5,2,0:0:0:0:
136,27,255094,2,0,P|100:27|66:41,2,70,0|8|2,0:0|0:0|0:0,0:0:0:0:
148,194,256119,2,0,P|166:225|195:247,2,70,2|8|2,0:0|0:0|0:0,0:0:0:0:
290,105,257145,2,0,P|308:73|312:37,2,70,2|8|2,0:0|0:0|0:0,0:0:0:0:
318,184,257914,2,0,P|349:202|385:206,1,70,2|0,0:0|0:0,0:0:0:0:
391,290,258427,2,0,P|425:280|454:258,1,70,10|0,0:0|0:0,0:0:0:0:
462,177,258940,5,4,0:0:0:0:
351,50,259453,1,8,0:0:0:0:
351,50,259709,1,4,0:0:0:0:
237,174,260222,1,0,0:0:0:0:
237,174,260478,1,8,0:0:0:0:
237,174,260735,1,4,0:0:0:0:
256,192,260991,12,4,262786,0:0:0:0:
256,192,262914,12,4,265736,0:0:0:0:
256,192,265947,12,0,275876,0:0:0:0:
