osu file format v14

[General]
AudioFilename: audio.mp3
AudioLeadIn: 0
PreviewTime: 68391
Countdown: 0
SampleSet: Normal
StackLeniency: 0.7
Mode: 1
LetterboxInBreaks: 0
WidescreenStoryboard: 1

[Editor]
Bookmarks: 6867,13724,20571,27428,34260,41093,47955,54807,61650,68472,75329,82186,89018,95875,102742,109589,116431,123254,130143,136967,143857
DistanceSpacing: 1.5
BeatDivisor: 4
GridSize: 32
TimelineZoom: 2.13688

[Metadata]
Title:BODY NUMB
TitleUnicode:BODY NUMB
Artist:HPSHAWTY
ArtistUnicode:HPSHAWTY
Creator:paz08
Version:ONI
Source:
Tags:ALWAYS PROPER RECORDS phonk tape underground memphis rap bass english hip hop lofi boombap hiphop hip-hop lo-fi trap
BeatmapID:3384738
BeatmapSetID:1658182

[Difficulty]
HPDrainRate:5
CircleSize:4.5
OverallDifficulty:5
ApproachRate:5
SliderMultiplier:2.8
SliderTickRate:1

[Events]
//Background and Video events
0,0,"88150544_p0.jpg",0,-60
//Break Periods
//Storyboard Layer 0 (Background)
//Storyboard Layer 1 (Fail)
//Storyboard Layer 2 (Pass)
//Storyboard Layer 3 (Foreground)
//Storyboard Layer 4 (Overlay)
//Storyboard Sound Samples

[TimingPoints]
15,856.04223141675,4,1,0,70,1,0
15,-105.263157894737,4,1,0,70,0,0
13057,-103.896103896104,4,1,0,70,0,0
13164,-103.225806451613,4,1,0,70,0,0
13271,-102.564102564103,4,1,0,70,0,0
13378,-101.910828025478,4,1,0,70,0,0
13485,-101.26582278481,4,1,0,70,0,0
13711,-100,4,1,0,70,0,1
26753,-98.7697106220759,4,1,0,70,0,1
26860,-98.1630309988519,4,1,0,70,0,1
26967,-97.5637587721801,4,1,0,70,0,1
27074,-96.9717591017353,4,1,0,70,0,1
27181,-96.3869004002029,4,1,0,70,0,1
27395,-95.2380952380952,4,1,0,70,0,1
27610,-100,4,1,0,70,0,1
40451,-101.26582278481,4,1,0,70,0,1
40558,-101.910828025478,4,1,0,70,0,1
40665,-102.564102564103,4,1,0,70,0,1
40772,-103.225806451613,4,1,0,70,0,1
40879,-103.896103896104,4,1,0,70,0,1
41105,-105.263157894737,4,1,0,70,0,0
54148,-103.896103896104,4,1,0,70,0,0
54255,-103.225806451613,4,1,0,70,0,0
54362,-102.564102564103,4,1,0,70,0,0
54469,-101.910828025478,4,1,0,70,0,0
54576,-101.26582278481,4,1,0,70,0,0
54790,-100,4,1,0,70,0,0
55004,-105.263157894737,4,1,0,70,0,0
67845,-103.896103896104,4,1,0,70,0,0
67952,-103.225806451613,4,1,0,70,0,0
68059,-102.564102564103,4,1,0,70,0,0
68166,-101.910828025478,4,1,0,70,0,0
68273,-101.26582278481,4,1,0,70,0,0
68498,-100,4,1,0,70,0,1
81542,-98.7654320987654,4,1,0,70,0,1
81649,-98.159509202454,4,1,0,70,0,1
81756,-97.5609756097561,4,1,0,70,0,1
81863,-96.969696969697,4,1,0,70,0,1
81970,-96.3855421686747,4,1,0,70,0,1
82184,-95.2380952380952,4,1,0,70,0,1
82399,-100,4,1,0,70,0,1
95240,-101.26582278481,4,1,0,70,0,1
95347,-101.910828025478,4,1,0,70,0,1
95454,-102.564102564103,4,1,0,70,0,1
95561,-103.225806451613,4,1,0,70,0,1
95668,-103.896103896104,4,1,0,70,0,1
95891,-105.263157894737,4,1,0,70,0,0
108937,-103.896103896104,4,1,0,70,0,0
109044,-103.225806451613,4,1,0,70,0,0
109151,-102.564102564103,4,1,0,70,0,0
109258,-101.910828025478,4,1,0,70,0,0
109365,-101.26582278481,4,1,0,70,0,0
109579,-100,4,1,0,70,0,0
109793,-105.263157894737,4,1,0,70,0,0
121992,-113.207547169811,4,1,0,63,0,0
122206,-116.129032258065,4,1,0,61,0,0
122420,-119.205298013245,4,1,0,58,0,0
122634,-122.448979591837,4,1,0,56,0,0
122741,-124.137931034483,4,1,0,55,0,0
122848,-125.874125874126,4,1,0,54,0,0
122955,-127.659574468085,4,1,0,53,0,0
123062,-129.496402877698,4,1,0,52,0,0
123285,1141.22681883024,3,1,0,50,1,1
123570,-101.047893144417,3,1,0,50,0,1
123699,-101.580118694362,3,1,0,50,0,1
123842,-102.121788417795,3,1,0,50,0,1
124127,-103.218754711292,3,1,0,50,0,1
124413,-104.343519012421,3,1,0,50,0,1
124698,-105.489002734872,3,1,0,50,0,1
124983,-106.659915874747,3,1,0,50,0,1
125554,-109.085839474208,3,1,0,50,0,1
125839,-110.338436744561,3,1,0,50,0,1
125982,-110.977833610244,3,1,0,50,0,1
126125,-111.624684111845,3,1,0,50,0,1
126410,-112.936615942925,3,1,0,50,0,1
126695,-114.279752962778,3,1,0,50,0,1
127266,-117.069208737657,3,1,0,50,0,1
127408,-117.784181325534,3,1,0,50,0,1
127551,-118.51306906699,3,1,0,50,0,1
127694,-119.251034182452,3,1,0,50,0,1
127836,-119.992989528108,3,1,0,50,0,1
128122,-121.515729688956,3,1,0,50,0,1
128407,-123.072083408233,3,1,0,50,0,1
128692,-124.668821413939,3,1,0,50,0,1
128835,-125.485703812317,3,1,0,50,0,1
128978,-126.3133619298,3,1,0,50,0,1
129263,-127.995887081698,3,1,0,50,0,1
129548,-129.723840651793,3,1,0,50,0,1
130119,-133.330087633885,3,1,0,50,0,1
130404,-135.206121945199,3,1,0,49,0,1
130547,-136.167462211615,3,1,0,48,0,1
130689,-137.135703555333,3,1,0,48,0,1
130975,-139.128225970331,3,1,0,47,0,1
131260,-141.172225372442,3,1,0,46,0,1
131545,-143.277179031077,3,1,0,45,0,1
131831,-145.453579774803,3,1,0,44,0,1
132401,-149.994522948844,3,1,0,42,0,1
132687,-152.381482305809,3,1,0,41,0,1
132829,-153.595064498037,3,1,0,40,0,1
132972,-154.836885848363,3,1,0,40,0,1
133257,-157.372715779795,3,1,0,39,0,1
133543,-160.002336994625,3,1,0,38,0,1
134113,-165.514323703614,3,1,0,36,0,1
134256,-166.957263915137,3,1,0,36,0,1
134398,-168.415226615829,3,1,0,35,0,1
134541,-169.909418041941,3,1,0,35,0,1
134684,-171.430359937402,3,1,0,34,0,1
134969,-174.544295729764,3,1,0,33,0,1
135254,-177.773450178513,3,1,0,32,0,1
135540,-181.136318539586,3,1,0,31,0,1
135682,-182.853709020498,3,1,0,31,0,1
135825,-184.616421733855,3,1,0,30,0,1
136110,-188.232868238367,3,1,0,29,0,1
136396,-192.007291593634,3,1,0,28,0,1
136681,-195.922163399628,3,1,0,27,0,1
136824,-197.947235272859,3,1,0,27,0,1
136979,-200,3,1,0,27,0,0
137122,-208.700952380952,3,1,0,25,0,0
138107,-218.176025487853,3,1,0,23,0,0
138678,-228.571428571429,3,1,0,21,0,0
139249,-240.007009550513,3,1,0,19,0,0
139819,-252.623812597989,3,1,0,17,0,0
140390,-266.666666666667,3,1,0,16,0,0
140961,-282.362643026492,3,1,0,14,0,0
141531,-299.98904829701,3,1,0,12,0,0
142102,-320,3,1,0,10,0,0
142672,-342.828535669587,3,1,0,8,0,0
143243,-369.2141798086,3,1,0,6,0,0
143814,-400,3,1,0,5,0,0

[HitObjects]
256,192,15,5,4,0:0:0:0:
256,192,229,1,0,0:0:0:0:
256,192,657,1,0,0:0:0:0:
256,192,871,1,8,0:0:0:0:
256,192,1299,1,0,0:0:0:0:
256,192,1513,1,0,0:0:0:0:
256,192,1941,1,8,0:0:0:0:
256,192,2155,1,0,0:0:0:0:
256,192,2369,1,0,0:0:0:0:
256,192,2476,1,0,0:0:0:0:
256,192,2583,1,8,0:0:0:0:
256,192,3011,1,0,0:0:0:0:
256,192,3225,1,0,0:0:0:0:
256,192,3439,1,8,0:0:0:0:
256,192,3867,1,0,0:0:0:0:
256,192,4081,1,8,0:0:0:0:
256,192,4188,1,0,0:0:0:0:
256,192,4295,1,8,0:0:0:0:
256,192,4509,1,8,0:0:0:0:
256,192,4723,1,0,0:0:0:0:
256,192,4937,1,0,0:0:0:0:
256,192,5365,1,0,0:0:0:0:
256,192,5579,1,8,0:0:0:0:
256,192,5793,1,0,0:0:0:0:
256,192,6007,1,8,0:0:0:0:
256,192,6221,1,8,0:0:0:0:
256,192,6649,1,8,0:0:0:0:
256,192,6863,1,0,0:0:0:0:
256,192,7077,1,0,0:0:0:0:
256,192,7505,1,0,0:0:0:0:
256,192,7719,1,8,0:0:0:0:
256,192,8147,1,0,0:0:0:0:
256,192,8361,1,0,0:0:0:0:
256,192,8789,1,8,0:0:0:0:
256,192,9003,1,0,0:0:0:0:
256,192,9217,1,0,0:0:0:0:
256,192,9324,1,0,0:0:0:0:
256,192,9431,1,8,0:0:0:0:
256,192,9859,1,0,0:0:0:0:
256,192,10073,1,0,0:0:0:0:
256,192,10287,1,8,0:0:0:0:
256,192,10715,1,0,0:0:0:0:
256,192,10929,1,8,0:0:0:0:
256,192,11036,1,8,0:0:0:0:
256,192,11143,1,0,0:0:0:0:
256,192,11357,1,8,0:0:0:0:
256,192,11571,1,0,0:0:0:0:
256,192,11785,1,0,0:0:0:0:
256,192,12427,1,8,0:0:0:0:
256,192,12641,1,0,0:0:0:0:
256,192,12855,1,8,0:0:0:0:
256,192,13069,1,8,0:0:0:0:
256,192,13176,1,8,0:0:0:0:
256,192,13283,1,8,0:0:0:0:
256,192,13390,1,8,0:0:0:0:
256,192,13497,1,8,0:0:0:0:
256,192,13711,1,4,0:0:0:0:
256,192,13925,1,0,0:0:0:0:
256,192,14032,1,0,0:0:0:0:
256,192,14139,1,8,0:0:0:0:
256,192,14353,1,0,0:0:0:0:
256,192,14567,1,8,0:0:0:0:
256,192,14995,1,0,0:0:0:0:
256,192,15209,1,0,0:0:0:0:
256,192,15316,1,0,0:0:0:0:
256,192,15423,1,8,0:0:0:0:
256,192,15637,1,8,0:0:0:0:
256,192,15851,1,0,0:0:0:0:
256,192,16065,1,0,0:0:0:0:
256,192,16279,1,8,0:0:0:0:
256,192,16386,1,8,0:0:0:0:
256,192,16493,1,0,0:0:0:0:
256,192,16707,1,8,0:0:0:0:
256,192,16921,1,0,0:0:0:0:
256,192,17135,1,8,0:0:0:0:
256,192,17563,1,0,0:0:0:0:
256,192,17670,1,8,0:0:0:0:
256,192,17777,1,0,0:0:0:0:
256,192,17884,1,0,0:0:0:0:
256,192,17991,1,8,0:0:0:0:
256,192,18205,1,0,0:0:0:0:
256,192,18419,1,8,0:0:0:0:
256,192,18633,1,0,0:0:0:0:
256,192,18847,1,8,0:0:0:0:
256,192,18954,1,8,0:0:0:0:
256,192,19061,1,0,0:0:0:0:
256,192,19275,1,8,0:0:0:0:
256,192,19489,1,0,0:0:0:0:
256,192,19703,1,8,0:0:0:0:
256,192,19917,1,8,0:0:0:0:
256,192,20346,1,8,0:0:0:0:
256,192,20560,1,0,0:0:0:0:
256,192,20774,1,0,0:0:0:0:
256,192,20881,1,0,0:0:0:0:
256,192,20988,1,8,0:0:0:0:
256,192,21202,1,0,0:0:0:0:
256,192,21416,1,8,0:0:0:0:
256,192,21844,1,0,0:0:0:0:
256,192,22058,1,0,0:0:0:0:
256,192,22272,1,8,0:0:0:0:
256,192,22486,1,0,0:0:0:0:
256,192,22593,1,8,0:0:0:0:
256,192,22700,1,0,0:0:0:0:
256,192,22914,1,0,0:0:0:0:
256,192,23128,1,8,0:0:0:0:
256,192,23235,1,8,0:0:0:0:
256,192,23342,1,0,0:0:0:0:
256,192,23556,1,8,0:0:0:0:
256,192,23770,1,0,0:0:0:0:
256,192,23984,1,8,0:0:0:0:
256,192,24412,1,8,0:0:0:0:
256,192,24519,1,8,0:0:0:0:
256,192,24626,1,0,0:0:0:0:
256,192,24733,1,0,0:0:0:0:
256,192,24840,1,8,0:0:0:0:
256,192,25054,1,0,0:0:0:0:
256,192,25268,1,8,0:0:0:0:
256,192,25482,1,0,0:0:0:0:
256,192,25696,1,8,0:0:0:0:
256,192,25803,1,8,0:0:0:0:
256,192,25910,1,0,0:0:0:0:
256,192,26124,1,8,0:0:0:0:
256,192,26338,1,0,0:0:0:0:
256,192,26552,1,8,0:0:0:0:
256,192,26766,1,8,0:0:0:0:
256,192,26873,1,8,0:0:0:0:
256,192,26980,1,8,0:0:0:0:
256,192,27087,1,8,0:0:0:0:
256,192,27194,1,8,0:0:0:0:
256,192,27408,1,4,0:0:0:0:
256,192,27622,1,0,0:0:0:0:
256,192,27729,1,0,0:0:0:0:
256,192,27836,1,8,0:0:0:0:
256,192,28050,1,0,0:0:0:0:
256,192,28264,1,8,0:0:0:0:
256,192,28692,1,8,0:0:0:0:
256,192,28906,1,0,0:0:0:0:
256,192,29334,1,8,0:0:0:0:
256,192,29548,1,0,0:0:0:0:
256,192,29762,1,0,0:0:0:0:
256,192,29976,1,8,0:0:0:0:
256,192,30190,1,0,0:0:0:0:
256,192,30297,1,0,0:0:0:0:
256,192,30404,1,0,0:0:0:0:
256,192,30618,1,0,0:0:0:0:
256,192,30832,1,8,0:0:0:0:
256,192,31260,1,0,0:0:0:0:
256,192,31474,1,8,0:0:0:0:
256,192,31581,1,0,0:0:0:0:
256,192,31688,1,8,0:0:0:0:
256,192,31902,1,8,0:0:0:0:
256,192,32116,1,0,0:0:0:0:
256,192,32330,1,0,0:0:0:0:
256,192,32544,1,8,0:0:0:0:
256,192,32758,1,0,0:0:0:0:
256,192,32972,1,8,0:0:0:0:
256,192,33186,1,0,0:0:0:0:
256,192,33293,1,0,0:0:0:0:
256,192,33400,1,8,0:0:0:0:
256,192,33614,1,8,0:0:0:0:
256,192,34042,1,8,0:0:0:0:
256,192,34256,1,0,0:0:0:0:
256,192,34470,1,0,0:0:0:0:
256,192,34577,1,0,0:0:0:0:
256,192,34684,1,8,0:0:0:0:
256,192,34898,1,0,0:0:0:0:
256,192,35112,1,8,0:0:0:0:
256,192,35540,1,8,0:0:0:0:
256,192,35754,1,0,0:0:0:0:
256,192,36182,1,8,0:0:0:0:
256,192,36396,1,0,0:0:0:0:
256,192,36610,1,0,0:0:0:0:
256,192,36824,1,8,0:0:0:0:
256,192,37038,1,0,0:0:0:0:
256,192,37145,1,0,0:0:0:0:
256,192,37252,1,0,0:0:0:0:
256,192,37466,1,0,0:0:0:0:
256,192,37680,1,8,0:0:0:0:
256,192,38108,1,0,0:0:0:0:
256,192,38322,1,8,0:0:0:0:
256,192,38429,1,8,0:0:0:0:
256,192,38536,1,0,0:0:0:0:
256,192,38750,1,8,0:0:0:0:
256,192,38964,1,0,0:0:0:0:
256,192,39178,1,0,0:0:0:0:
256,192,39392,1,8,0:0:0:0:
256,192,39606,1,0,0:0:0:0:
256,192,39820,1,8,0:0:0:0:
256,192,40034,1,0,0:0:0:0:
256,192,40141,1,0,0:0:0:0:
256,192,40248,1,8,0:0:0:0:
256,192,40462,1,8,0:0:0:0:
256,192,40570,1,8,0:0:0:0:
256,192,40677,1,8,0:0:0:0:
256,192,40784,1,8,0:0:0:0:
256,192,40891,1,8,0:0:0:0:
256,192,41105,1,4,0:0:0:0:
256,192,41319,1,0,0:0:0:0:
256,192,41747,1,0,0:0:0:0:
256,192,41961,1,8,0:0:0:0:
256,192,42389,1,0,0:0:0:0:
256,192,42603,1,0,0:0:0:0:
256,192,43031,1,8,0:0:0:0:
256,192,43245,1,0,0:0:0:0:
256,192,43459,1,0,0:0:0:0:
256,192,43566,1,0,0:0:0:0:
256,192,43673,1,8,0:0:0:0:
256,192,44101,1,0,0:0:0:0:
256,192,44315,1,0,0:0:0:0:
256,192,44529,1,8,0:0:0:0:
256,192,44957,1,0,0:0:0:0:
256,192,45171,1,8,0:0:0:0:
256,192,45278,1,0,0:0:0:0:
256,192,45385,1,8,0:0:0:0:
256,192,45599,1,8,0:0:0:0:
256,192,45813,1,0,0:0:0:0:
256,192,46027,1,0,0:0:0:0:
256,192,46455,1,0,0:0:0:0:
256,192,46669,1,8,0:0:0:0:
256,192,46883,1,0,0:0:0:0:
256,192,47097,1,8,0:0:0:0:
256,192,47311,1,8,0:0:0:0:
256,192,47739,1,8,0:0:0:0:
256,192,47953,1,0,0:0:0:0:
256,192,48167,1,0,0:0:0:0:
256,192,48595,1,0,0:0:0:0:
256,192,48809,1,8,0:0:0:0:
256,192,49237,1,0,0:0:0:0:
256,192,49451,1,0,0:0:0:0:
256,192,49879,1,8,0:0:0:0:
256,192,50093,1,0,0:0:0:0:
256,192,50307,1,0,0:0:0:0:
256,192,50414,1,0,0:0:0:0:
256,192,50521,1,8,0:0:0:0:
256,192,50949,1,0,0:0:0:0:
256,192,51163,1,0,0:0:0:0:
256,192,51377,1,8,0:0:0:0:
256,192,51805,1,0,0:0:0:0:
256,192,52019,1,8,0:0:0:0:
256,192,52126,1,8,0:0:0:0:
256,192,52233,1,0,0:0:0:0:
256,192,52447,1,8,0:0:0:0:
256,192,52661,1,0,0:0:0:0:
256,192,52875,1,0,0:0:0:0:
256,192,53517,1,8,0:0:0:0:
256,192,53731,1,0,0:0:0:0:
256,192,53945,1,8,0:0:0:0:
256,192,54159,1,8,0:0:0:0:
256,192,54266,1,8,0:0:0:0:
256,192,54373,1,8,0:0:0:0:
256,192,54480,1,8,0:0:0:0:
256,192,54587,1,8,0:0:0:0:
256,192,54801,1,4,0:0:0:0:
256,192,55015,1,0,0:0:0:0:
256,192,55443,1,0,0:0:0:0:
256,192,55657,1,8,0:0:0:0:
256,192,56085,1,0,0:0:0:0:
256,192,56299,1,0,0:0:0:0:
256,192,56727,1,8,0:0:0:0:
256,192,56941,1,0,0:0:0:0:
256,192,57155,1,0,0:0:0:0:
256,192,57262,1,0,0:0:0:0:
256,192,57369,1,8,0:0:0:0:
256,192,57797,1,0,0:0:0:0:
256,192,58011,1,0,0:0:0:0:
256,192,58225,1,8,0:0:0:0:
256,192,58653,1,0,0:0:0:0:
256,192,58867,1,8,0:0:0:0:
256,192,58974,1,0,0:0:0:0:
256,192,59081,1,8,0:0:0:0:
256,192,59295,1,8,0:0:0:0:
256,192,59509,1,0,0:0:0:0:
256,192,59723,1,0,0:0:0:0:
256,192,60151,1,0,0:0:0:0:
256,192,60365,1,8,0:0:0:0:
256,192,60579,1,0,0:0:0:0:
256,192,60793,1,8,0:0:0:0:
256,192,61008,1,8,0:0:0:0:
256,192,61436,1,8,0:0:0:0:
256,192,61650,1,0,0:0:0:0:
256,192,61864,1,0,0:0:0:0:
256,192,62292,1,0,0:0:0:0:
256,192,62506,1,8,0:0:0:0:
256,192,62934,1,0,0:0:0:0:
256,192,63148,1,0,0:0:0:0:
256,192,63576,1,8,0:0:0:0:
256,192,63790,1,0,0:0:0:0:
256,192,64004,1,0,0:0:0:0:
256,192,64111,1,0,0:0:0:0:
256,192,64218,1,8,0:0:0:0:
256,192,64646,1,0,0:0:0:0:
256,192,64860,1,0,0:0:0:0:
256,192,65074,1,8,0:0:0:0:
256,192,65502,1,0,0:0:0:0:
256,192,65716,1,8,0:0:0:0:
256,192,65823,1,8,0:0:0:0:
256,192,65930,1,0,0:0:0:0:
256,192,66144,1,8,0:0:0:0:
256,192,66358,1,0,0:0:0:0:
256,192,66572,1,0,0:0:0:0:
256,192,67214,1,8,0:0:0:0:
256,192,67428,1,0,0:0:0:0:
256,192,67642,1,8,0:0:0:0:
256,192,67856,1,8,0:0:0:0:
256,192,67963,1,8,0:0:0:0:
256,192,68070,1,8,0:0:0:0:
256,192,68177,1,8,0:0:0:0:
256,192,68284,1,8,0:0:0:0:
256,192,68498,1,4,0:0:0:0:
256,192,68712,1,0,0:0:0:0:
256,192,68819,1,0,0:0:0:0:
256,192,68926,1,8,0:0:0:0:
256,192,69140,1,0,0:0:0:0:
256,192,69354,1,8,0:0:0:0:
256,192,69782,1,0,0:0:0:0:
256,192,69996,1,0,0:0:0:0:
256,192,70103,1,0,0:0:0:0:
256,192,70210,1,8,0:0:0:0:
256,192,70424,1,8,0:0:0:0:
256,192,70638,1,0,0:0:0:0:
256,192,70852,1,0,0:0:0:0:
256,192,71066,1,8,0:0:0:0:
256,192,71173,1,8,0:0:0:0:
256,192,71280,1,0,0:0:0:0:
256,192,71494,1,8,0:0:0:0:
256,192,71708,1,0,0:0:0:0:
256,192,71922,1,8,0:0:0:0:
256,192,72350,1,0,0:0:0:0:
256,192,72457,1,8,0:0:0:0:
256,192,72564,1,0,0:0:0:0:
256,192,72671,1,0,0:0:0:0:
256,192,72778,1,8,0:0:0:0:
256,192,72992,1,0,0:0:0:0:
256,192,73206,1,8,0:0:0:0:
256,192,73420,1,0,0:0:0:0:
256,192,73634,1,8,0:0:0:0:
256,192,73741,1,8,0:0:0:0:
256,192,73848,1,0,0:0:0:0:
256,192,74062,1,8,0:0:0:0:
256,192,74276,1,0,0:0:0:0:
256,192,74490,1,8,0:0:0:0:
256,192,74704,1,8,0:0:0:0:
256,192,75132,1,8,0:0:0:0:
256,192,75346,1,0,0:0:0:0:
256,192,75560,1,0,0:0:0:0:
256,192,75667,1,0,0:0:0:0:
256,192,75774,1,8,0:0:0:0:
256,192,75988,1,0,0:0:0:0:
256,192,76202,1,8,0:0:0:0:
256,192,76630,1,0,0:0:0:0:
256,192,76844,1,0,0:0:0:0:
256,192,77058,1,8,0:0:0:0:
256,192,77272,1,0,0:0:0:0:
256,192,77379,1,8,0:0:0:0:
256,192,77486,1,0,0:0:0:0:
256,192,77700,1,0,0:0:0:0:
256,192,77914,1,8,0:0:0:0:
256,192,78021,1,8,0:0:0:0:
256,192,78128,1,0,0:0:0:0:
256,192,78342,1,8,0:0:0:0:
256,192,78556,1,0,0:0:0:0:
256,192,78770,1,8,0:0:0:0:
256,192,79198,1,8,0:0:0:0:
256,192,79305,1,8,0:0:0:0:
256,192,79412,1,0,0:0:0:0:
256,192,79519,1,0,0:0:0:0:
256,192,79626,1,8,0:0:0:0:
256,192,79840,1,0,0:0:0:0:
256,192,80054,1,8,0:0:0:0:
256,192,80268,1,0,0:0:0:0:
256,192,80482,1,8,0:0:0:0:
256,192,80589,1,8,0:0:0:0:
256,192,80696,1,0,0:0:0:0:
256,192,80910,1,8,0:0:0:0:
256,192,81125,1,0,0:0:0:0:
256,192,81339,1,8,0:0:0:0:
256,192,81553,1,8,0:0:0:0:
256,192,81660,1,8,0:0:0:0:
256,192,81767,1,8,0:0:0:0:
256,192,81874,1,8,0:0:0:0:
256,192,81981,1,8,0:0:0:0:
256,192,82195,1,4,0:0:0:0:
256,192,82409,1,0,0:0:0:0:
256,192,82516,1,0,0:0:0:0:
256,192,82623,1,8,0:0:0:0:
256,192,82837,1,0,0:0:0:0:
256,192,83051,1,8,0:0:0:0:
256,192,83479,1,8,0:0:0:0:
256,192,83693,1,0,0:0:0:0:
256,192,84121,1,8,0:0:0:0:
256,192,84335,1,0,0:0:0:0:
256,192,84549,1,0,0:0:0:0:
256,192,84763,1,8,0:0:0:0:
256,192,84977,1,0,0:0:0:0:
256,192,85084,1,0,0:0:0:0:
256,192,85191,1,0,0:0:0:0:
256,192,85405,1,0,0:0:0:0:
256,192,85619,1,8,0:0:0:0:
256,192,86047,1,0,0:0:0:0:
256,192,86261,1,8,0:0:0:0:
256,192,86368,1,0,0:0:0:0:
256,192,86475,1,8,0:0:0:0:
256,192,86689,1,8,0:0:0:0:
256,192,86903,1,0,0:0:0:0:
256,192,87117,1,0,0:0:0:0:
256,192,87331,1,8,0:0:0:0:
256,192,87545,1,0,0:0:0:0:
256,192,87759,1,8,0:0:0:0:
256,192,87973,1,0,0:0:0:0:
256,192,88080,1,0,0:0:0:0:
256,192,88187,1,8,0:0:0:0:
256,192,88401,1,8,0:0:0:0:
256,192,88829,1,8,0:0:0:0:
256,192,89043,1,0,0:0:0:0:
256,192,89257,1,0,0:0:0:0:
256,192,89364,1,0,0:0:0:0:
256,192,89471,1,8,0:0:0:0:
256,192,89685,1,0,0:0:0:0:
256,192,89899,1,8,0:0:0:0:
256,192,90327,1,8,0:0:0:0:
256,192,90541,1,0,0:0:0:0:
256,192,90969,1,8,0:0:0:0:
256,192,91183,1,0,0:0:0:0:
256,192,91397,1,0,0:0:0:0:
256,192,91611,1,8,0:0:0:0:
256,192,91825,1,0,0:0:0:0:
256,192,91932,1,0,0:0:0:0:
256,192,92039,1,0,0:0:0:0:
256,192,92253,1,0,0:0:0:0:
256,192,92467,1,8,0:0:0:0:
256,192,92895,1,0,0:0:0:0:
256,192,93109,1,8,0:0:0:0:
256,192,93216,1,8,0:0:0:0:
256,192,93323,1,0,0:0:0:0:
256,192,93537,1,8,0:0:0:0:
256,192,93751,1,0,0:0:0:0:
256,192,93965,1,0,0:0:0:0:
256,192,94179,1,8,0:0:0:0:
256,192,94393,1,0,0:0:0:0:
256,192,94607,1,8,0:0:0:0:
256,192,94821,1,0,0:0:0:0:
256,192,94928,1,0,0:0:0:0:
256,192,95035,1,8,0:0:0:0:
256,192,95249,1,8,0:0:0:0:
256,192,95356,1,8,0:0:0:0:
256,192,95463,1,8,0:0:0:0:
256,192,95570,1,8,0:0:0:0:
256,192,95677,1,8,0:0:0:0:
256,192,95891,1,4,0:0:0:0:
256,192,96105,1,0,0:0:0:0:
256,192,96533,1,0,0:0:0:0:
256,192,96747,1,8,0:0:0:0:
256,192,97175,1,0,0:0:0:0:
256,192,97389,1,0,0:0:0:0:
256,192,97817,1,8,0:0:0:0:
256,192,98031,1,0,0:0:0:0:
256,192,98245,1,0,0:0:0:0:
256,192,98352,1,0,0:0:0:0:
256,192,98459,1,8,0:0:0:0:
256,192,98887,1,0,0:0:0:0:
256,192,99101,1,0,0:0:0:0:
256,192,99315,1,8,0:0:0:0:
256,192,99743,1,0,0:0:0:0:
256,192,99957,1,8,0:0:0:0:
256,192,100064,1,0,0:0:0:0:
256,192,100171,1,8,0:0:0:0:
256,192,100385,1,8,0:0:0:0:
256,192,100599,1,0,0:0:0:0:
256,192,100813,1,0,0:0:0:0:
256,192,101241,1,0,0:0:0:0:
256,192,101456,1,8,0:0:0:0:
256,192,101670,1,0,0:0:0:0:
256,192,101884,1,8,0:0:0:0:
256,192,102098,1,8,0:0:0:0:
256,192,102526,1,8,0:0:0:0:
256,192,102740,1,0,0:0:0:0:
256,192,102954,1,0,0:0:0:0:
256,192,103382,1,0,0:0:0:0:
256,192,103596,1,8,0:0:0:0:
256,192,104024,1,0,0:0:0:0:
256,192,104238,1,0,0:0:0:0:
256,192,104666,1,8,0:0:0:0:
256,192,104880,1,0,0:0:0:0:
256,192,105094,1,0,0:0:0:0:
256,192,105201,1,0,0:0:0:0:
256,192,105308,1,8,0:0:0:0:
256,192,105736,1,0,0:0:0:0:
256,192,105950,1,0,0:0:0:0:
256,192,106164,1,8,0:0:0:0:
256,192,106592,1,0,0:0:0:0:
256,192,106806,1,8,0:0:0:0:
256,192,106913,1,8,0:0:0:0:
256,192,107020,1,0,0:0:0:0:
256,192,107234,1,8,0:0:0:0:
256,192,107448,1,0,0:0:0:0:
256,192,107662,1,0,0:0:0:0:
256,192,108304,1,8,0:0:0:0:
256,192,108518,1,0,0:0:0:0:
256,192,108732,1,8,0:0:0:0:
256,192,108946,1,8,0:0:0:0:
256,192,109053,1,8,0:0:0:0:
256,192,109160,1,8,0:0:0:0:
256,192,109267,1,8,0:0:0:0:
256,192,109374,1,8,0:0:0:0:
256,192,109588,1,4,0:0:0:0:
256,192,109802,1,0,0:0:0:0:
256,192,110230,1,0,0:0:0:0:
256,192,110444,1,8,0:0:0:0:
256,192,110872,1,0,0:0:0:0:
256,192,111086,1,0,0:0:0:0:
256,192,111514,1,8,0:0:0:0:
256,192,111728,1,0,0:0:0:0:
256,192,111942,1,0,0:0:0:0:
256,192,112049,1,0,0:0:0:0:
256,192,112156,1,8,0:0:0:0:
256,192,112584,1,0,0:0:0:0:
256,192,112798,1,0,0:0:0:0:
256,192,113012,1,8,0:0:0:0:
256,192,113440,1,0,0:0:0:0:
256,192,113654,1,8,0:0:0:0:
256,192,113761,1,0,0:0:0:0:
256,192,113868,1,8,0:0:0:0:
256,192,114082,1,8,0:0:0:0:
256,192,114296,1,0,0:0:0:0:
256,192,114510,1,0,0:0:0:0:
256,192,114938,1,0,0:0:0:0:
256,192,115152,1,8,0:0:0:0:
256,192,115366,1,0,0:0:0:0:
256,192,115580,1,8,0:0:0:0:
256,192,115794,1,8,0:0:0:0:
256,192,116222,1,8,0:0:0:0:
256,192,116436,1,0,0:0:0:0:
256,192,116650,1,0,0:0:0:0:
256,192,117078,1,0,0:0:0:0:
256,192,117292,1,8,0:0:0:0:
256,192,117720,1,0,0:0:0:0:
256,192,117934,1,0,0:0:0:0:
256,192,118362,1,8,0:0:0:0:
256,192,118576,1,0,0:0:0:0:
256,192,118790,1,0,0:0:0:0:
256,192,118897,1,0,0:0:0:0:
256,192,119004,1,8,0:0:0:0:
256,192,119432,1,0,0:0:0:0:
256,192,119646,1,0,0:0:0:0:
256,192,119860,1,8,0:0:0:0:
256,192,120288,1,0,0:0:0:0:
256,192,120502,1,8,0:0:0:0:
256,192,120609,1,8,0:0:0:0:
256,192,120716,1,0,0:0:0:0:
256,192,120930,1,8,0:0:0:0:
256,192,121144,1,0,0:0:0:0:
256,192,121358,1,0,0:0:0:0:
256,192,122001,1,8,0:0:0:0:
256,192,122215,1,0,0:0:0:0:
256,192,122429,1,8,0:0:0:0:
256,192,122643,1,8,0:0:0:0:
256,192,122750,1,8,0:0:0:0:
256,192,122857,1,8,0:0:0:0:
256,192,122964,1,8,0:0:0:0:
256,192,123071,1,8,0:0:0:0:
256,192,123285,1,4,0:0:0:0:
256,192,123570,1,0,0:0:0:0:
256,192,123712,1,0,0:0:0:0:
256,192,123855,1,8,0:0:0:0:
256,192,124140,1,0,0:0:0:0:
256,192,124426,1,8,0:0:0:0:
256,192,124711,1,8,0:0:0:0:
256,192,124996,1,0,0:0:0:0:
256,192,125567,1,0,0:0:0:0:
256,192,125852,1,8,0:0:0:0:
256,192,125995,1,0,0:0:0:0:
256,192,126138,1,8,0:0:0:0:
256,192,126423,1,8,0:0:0:0:
256,192,126708,1,0,0:0:0:0:
256,192,127279,1,0,0:0:0:0:
256,192,127421,1,8,0:0:0:0:
256,192,127564,1,0,0:0:0:0:
256,192,127707,1,0,0:0:0:0:
256,192,127849,1,8,0:0:0:0:
256,192,128135,1,0,0:0:0:0:
256,192,128420,1,8,0:0:0:0:
256,192,128705,1,0,0:0:0:0:
256,192,128848,1,0,0:0:0:0:
256,192,128991,1,8,0:0:0:0:
256,192,129276,1,0,0:0:0:0:
256,192,129561,1,8,0:0:0:0:
256,192,130132,1,0,0:0:0:0:
256,192,130417,1,0,0:0:0:0:
256,192,130560,1,0,0:0:0:0:
256,192,130702,1,8,0:0:0:0:
256,192,130988,1,0,0:0:0:0:
256,192,131273,1,8,0:0:0:0:
256,192,131558,1,8,0:0:0:0:
256,192,131844,1,0,0:0:0:0:
256,192,132414,1,0,0:0:0:0:
256,192,132700,1,8,0:0:0:0:
256,192,132842,1,0,0:0:0:0:
256,192,132985,1,8,0:0:0:0:
256,192,133270,1,8,0:0:0:0:
256,192,133556,1,0,0:0:0:0:
256,192,134126,1,8,0:0:0:0:
256,192,134269,1,8,0:0:0:0:
256,192,134411,1,0,0:0:0:0:
256,192,134554,1,0,0:0:0:0:
256,192,134697,1,8,0:0:0:0:
256,192,134982,1,0,0:0:0:0:
256,192,135267,1,8,0:0:0:0:
256,192,135553,1,0,0:0:0:0:
256,192,135695,1,0,0:0:0:0:
256,192,135838,1,8,0:0:0:0:
256,192,136123,1,0,0:0:0:0:
256,192,136409,1,8,0:0:0:0:
256,192,136694,1,8,0:0:0:0:
256,192,136837,1,8,0:0:0:0:
256,192,136979,1,0,0:0:0:0:
256,192,137122,8,0,143827,0:0:0:0:
