osu file format v14

[General]
AudioFilename: audio.mp3
AudioLeadIn: 0
PreviewTime: 68391
Countdown: 0
SampleSet: Normal
StackLeniency: 0.7
Mode: 1
LetterboxInBreaks: 0
WidescreenStoryboard: 1

[Editor]
Bookmarks: 1290,8147,18433,25290,28714,35546,42383,49240,56093,62925,73191,80048,83472,86888,90308,97165,104023,110875,117707,128456,135258
DistanceSpacing: 1.5
BeatDivisor: 4
GridSize: 32
TimelineZoom: 1.168

[Metadata]
Title:BODY NUMB
TitleUnicode:BODY NUMB
Artist:HPSHAWTY
ArtistUnicode:HPSHAWTY
Creator:paz08
Version:KANTAN
Source:
Tags:ALWAYS PROPER RECORDS phonk tape underground memphis rap bass english hip hop lofi boombap hiphop hip-hop lo-fi trap
BeatmapID:3384736
BeatmapSetID:1658182

[Difficulty]
HPDrainRate:8
CircleSize:6
OverallDifficulty:2
ApproachRate:2
SliderMultiplier:2.8
SliderTickRate:1

[Events]
//Background and Video events
0,0,"88150544_p0.jpg",0,-60
//Break Periods
//Storyboard Layer 0 (Background)
//Storyboard Layer 1 (Fail)
//Storyboard Layer 2 (Pass)
//Storyboard Layer 3 (Foreground)
//Storyboard Layer 4 (Overlay)
//Storyboard Sound Samples

[TimingPoints]
15,856.04223141675,4,1,0,70,1,0
15,-105.263157894737,4,1,0,70,0,0
12415,-103.0913,4,1,0,70,0,0
12843,-102.039856,4,1,0,70,0,0
13711,-100,4,1,0,70,0,1
26540,-97.08738,4,1,0,70,0,1
27396,-95.2381,4,1,0,70,0,1
27610,-100,4,1,0,70,0,1
40237,-102.56411,4,1,0,70,0,1
41105,-105.26317,4,1,0,70,0,0
53506,-103.0928,4,1,0,70,0,0
53934,-102.04082,4,1,0,70,0,0
54790,-100,4,1,0,70,0,0
55004,-105.263157894737,4,1,0,70,0,0
67203,-103.0928,4,1,0,70,0,0
67631,-102.04082,4,1,0,70,0,0
68498,-100,4,1,0,70,0,1
81328,-97.08738,4,1,0,70,0,1
82184,-95.2381,4,1,0,70,0,1
82399,-100,4,1,0,70,0,1
95026,-102.56411,4,1,0,70,0,1
95891,-105.26317,4,1,0,70,0,0
108295,-103.0928,4,1,0,70,0,0
108723,-102.04082,4,1,0,70,0,0
109579,-100,4,1,0,70,0,0
109793,-105.263157894737,4,1,0,70,0,0
120708,-111.111111111111,4,1,0,70,0,0
121136,-114.285714285714,4,1,0,67,0,0
121572,-117.711771177118,4,1,0,67,0,0
121992,-121.212121212121,4,1,0,60,0,0
122420,-125,4,1,0,56,0,0
123285,1141.22681883024,3,1,0,50,1,1
123855,-100.417980494244,3,1,0,50,0,1
124140,-100.628283793217,3,1,0,50,0,1
124413,-100.830559891615,3,1,0,50,0,1
124983,-101.255527129146,3,1,0,50,0,1
125564,-101.692397947438,3,1,0,50,0,1
126125,-102.117822520507,3,1,0,50,0,1
126695,-102.553733243466,3,1,0,50,0,1
127266,-102.994156093232,3,1,0,50,0,1
127836,-103.437596779189,3,1,0,50,0,1
128407,-103.885660531946,3,1,0,50,0,1
129548,-104.792733227729,3,1,0,50,0,1
130119,-105.252640154951,3,1,0,50,0,1
130689,-105.715785573123,3,1,0,48,0,1
130988,-105.960367387049,3,1,0,50,0,1
131260,-106.183848330942,3,1,0,46,0,1
131831,-106.656074271383,3,1,0,44,0,1
132411,-107.140062903907,3,1,0,42,0,1
132972,-107.612394206816,3,1,0,40,0,1
133543,-108.097440836109,3,1,0,38,0,1
134113,-108.58601877696,3,1,0,36,0,1
134684,-109.07990218335,3,1,0,34,0,1
135254,-109.577421961895,3,1,0,32,0,1
136396,-110.587988274152,3,1,0,28,0,1
136979,-111.111111111111,3,1,0,27,0,0
137122,-115.839604094638,3,1,0,25,0,0
138107,-121.104200995765,3,1,0,23,0,0
138678,-126.8807024383,3,1,0,21,0,0
139249,-133.235867446394,3,1,0,19,0,0
139819,-140.24828152252,3,1,0,17,0,0
140390,-148.054282960219,3,1,0,16,0,0
140961,-156.780438572346,3,1,0,14,0,0
141531,-166.581365309156,3,1,0,12,0,0
142102,-177.710177710178,3,1,0,10,0,0
142672,-190.408535651108,3,1,0,8,0,0
143243,-205.088966903712,3,1,0,6,0,0
143814,-222.222222222222,3,1,0,5,0,0

[HitObjects]
256,192,15,5,4,0:0:0:0:
256,192,871,1,8,0:0:0:0:
256,192,1299,1,0,0:0:0:0:
256,192,2583,1,8,0:0:0:0:
256,192,3439,1,0,0:0:0:0:
256,192,4295,1,8,0:0:0:0:
256,192,4723,1,0,0:0:0:0:
256,192,5579,1,0,0:0:0:0:
256,192,6007,1,8,0:0:0:0:
256,192,6863,1,0,0:0:0:0:
256,192,7719,1,8,0:0:0:0:
256,192,8147,1,0,0:0:0:0:
256,192,9431,1,8,0:0:0:0:
256,192,10287,1,0,0:0:0:0:
256,192,11143,1,8,0:0:0:0:
256,192,11571,1,0,0:0:0:0:
256,192,12427,1,0,0:0:0:0:
256,192,12855,1,8,0:0:0:0:
256,192,13711,1,4,0:0:0:0:
256,192,14139,1,8,0:0:0:0:
256,192,14567,1,8,0:0:0:0:
256,192,15423,1,0,0:0:0:0:
256,192,15851,1,0,0:0:0:0:
256,192,16279,1,8,0:0:0:0:
256,192,17135,1,8,0:0:0:0:
256,192,17563,1,0,0:0:0:0:
256,192,17991,1,8,0:0:0:0:
256,192,18419,1,0,0:0:0:0:
256,192,19703,1,8,0:0:0:0:
256,192,20560,1,0,0:0:0:0:
256,192,20988,1,8,0:0:0:0:
256,192,21416,1,8,0:0:0:0:
256,192,22272,1,0,0:0:0:0:
256,192,22700,1,0,0:0:0:0:
256,192,23128,1,8,0:0:0:0:
256,192,23984,1,8,0:0:0:0:
256,192,24412,1,0,0:0:0:0:
256,192,24840,1,8,0:0:0:0:
256,192,25268,1,0,0:0:0:0:
256,192,26552,1,8,0:0:0:0:
256,192,27408,1,4,0:0:0:0:
256,192,28264,1,8,0:0:0:0:
256,192,28692,1,0,0:0:0:0:
256,192,29976,1,8,0:0:0:0:
256,192,30404,1,0,0:0:0:0:
256,192,30832,1,8,0:0:0:0:
256,192,31688,1,8,0:0:0:0:
256,192,32116,1,0,0:0:0:0:
256,192,32544,1,0,0:0:0:0:
256,192,33400,1,8,0:0:0:0:
256,192,34256,1,0,0:0:0:0:
256,192,35112,1,8,0:0:0:0:
256,192,35540,1,0,0:0:0:0:
256,192,36824,1,8,0:0:0:0:
256,192,37252,1,0,0:0:0:0:
256,192,37680,1,8,0:0:0:0:
256,192,38536,1,8,0:0:0:0:
256,192,38964,1,0,0:0:0:0:
256,192,39392,1,0,0:0:0:0:
256,192,40248,1,8,0:0:0:0:
256,192,41105,1,4,0:0:0:0:
256,192,41961,1,8,0:0:0:0:
256,192,42389,1,0,0:0:0:0:
256,192,43673,1,8,0:0:0:0:
256,192,44529,1,0,0:0:0:0:
256,192,45385,1,8,0:0:0:0:
256,192,45813,1,0,0:0:0:0:
256,192,46669,1,0,0:0:0:0:
256,192,47097,1,8,0:0:0:0:
256,192,47953,1,0,0:0:0:0:
256,192,48809,1,8,0:0:0:0:
256,192,49237,1,0,0:0:0:0:
256,192,50521,1,8,0:0:0:0:
256,192,51377,1,0,0:0:0:0:
256,192,52233,1,8,0:0:0:0:
256,192,52661,1,0,0:0:0:0:
256,192,53517,1,0,0:0:0:0:
256,192,53945,1,8,0:0:0:0:
256,192,54801,1,4,0:0:0:0:
256,192,55657,1,8,0:0:0:0:
256,192,56085,1,0,0:0:0:0:
256,192,57369,1,8,0:0:0:0:
256,192,58225,1,0,0:0:0:0:
256,192,59081,1,8,0:0:0:0:
256,192,59509,1,0,0:0:0:0:
256,192,60365,1,0,0:0:0:0:
256,192,60793,1,8,0:0:0:0:
256,192,61650,1,0,0:0:0:0:
256,192,62506,1,8,0:0:0:0:
256,192,62934,1,0,0:0:0:0:
256,192,64218,1,8,0:0:0:0:
256,192,65074,1,0,0:0:0:0:
256,192,65930,1,8,0:0:0:0:
256,192,66358,1,0,0:0:0:0:
256,192,67214,1,0,0:0:0:0:
256,192,67642,1,8,0:0:0:0:
256,192,68498,1,4,0:0:0:0:
256,192,68926,1,8,0:0:0:0:
256,192,69354,1,8,0:0:0:0:
256,192,70210,1,0,0:0:0:0:
256,192,70638,1,0,0:0:0:0:
256,192,71066,1,8,0:0:0:0:
256,192,71922,1,8,0:0:0:0:
256,192,72350,1,0,0:0:0:0:
256,192,72778,1,8,0:0:0:0:
256,192,73206,1,0,0:0:0:0:
256,192,74490,1,8,0:0:0:0:
256,192,75346,1,0,0:0:0:0:
256,192,75774,1,8,0:0:0:0:
256,192,76202,1,8,0:0:0:0:
256,192,77058,1,0,0:0:0:0:
256,192,77486,1,0,0:0:0:0:
256,192,77914,1,8,0:0:0:0:
256,192,78770,1,8,0:0:0:0:
256,192,79198,1,0,0:0:0:0:
256,192,79626,1,8,0:0:0:0:
256,192,80054,1,0,0:0:0:0:
256,192,81339,1,8,0:0:0:0:
256,192,82195,1,4,0:0:0:0:
256,192,83051,1,8,0:0:0:0:
256,192,83479,1,0,0:0:0:0:
256,192,84763,1,8,0:0:0:0:
256,192,85191,1,0,0:0:0:0:
256,192,85619,1,8,0:0:0:0:
256,192,86475,1,8,0:0:0:0:
256,192,86903,1,0,0:0:0:0:
256,192,87331,1,0,0:0:0:0:
256,192,88187,1,8,0:0:0:0:
256,192,89043,1,0,0:0:0:0:
256,192,89899,1,8,0:0:0:0:
256,192,90327,1,0,0:0:0:0:
256,192,91611,1,8,0:0:0:0:
256,192,92039,1,0,0:0:0:0:
256,192,92467,1,8,0:0:0:0:
256,192,93323,1,8,0:0:0:0:
256,192,93751,1,0,0:0:0:0:
256,192,94179,1,0,0:0:0:0:
256,192,95035,1,8,0:0:0:0:
256,192,95891,1,4,0:0:0:0:
256,192,96747,1,8,0:0:0:0:
256,192,97175,1,0,0:0:0:0:
256,192,98459,1,8,0:0:0:0:
256,192,99315,1,0,0:0:0:0:
256,192,100171,1,8,0:0:0:0:
256,192,100599,1,0,0:0:0:0:
256,192,101456,1,0,0:0:0:0:
256,192,101884,1,8,0:0:0:0:
256,192,102740,1,0,0:0:0:0:
256,192,103596,1,8,0:0:0:0:
256,192,104024,1,0,0:0:0:0:
256,192,105308,1,8,0:0:0:0:
256,192,106164,1,0,0:0:0:0:
256,192,107020,1,8,0:0:0:0:
256,192,107448,1,0,0:0:0:0:
256,192,108304,1,0,0:0:0:0:
256,192,108732,1,8,0:0:0:0:
256,192,109588,1,4,0:0:0:0:
256,192,110444,1,8,0:0:0:0:
256,192,110872,1,0,0:0:0:0:
256,192,112156,1,8,0:0:0:0:
256,192,113012,1,0,0:0:0:0:
256,192,113868,1,8,0:0:0:0:
256,192,114296,1,0,0:0:0:0:
256,192,115152,1,0,0:0:0:0:
256,192,115580,1,8,0:0:0:0:
256,192,116436,1,0,0:0:0:0:
256,192,117292,1,8,0:0:0:0:
256,192,117720,1,0,0:0:0:0:
256,192,119004,1,8,0:0:0:0:
256,192,119860,1,0,0:0:0:0:
256,192,120716,1,8,0:0:0:0:
256,192,121144,1,0,0:0:0:0:
256,192,122001,1,0,0:0:0:0:
256,192,122429,1,8,0:0:0:0:
256,192,123285,1,4,0:0:0:0:
256,192,123855,1,8,0:0:0:0:
256,192,124140,1,8,0:0:0:0:
256,192,124426,1,8,0:0:0:0:
256,192,124996,1,0,0:0:0:0:
256,192,126138,1,8,0:0:0:0:
256,192,126708,1,0,0:0:0:0:
256,192,127279,1,0,0:0:0:0:
256,192,127849,1,8,0:0:0:0:
256,192,128420,1,0,0:0:0:0:
256,192,129561,1,8,0:0:0:0:
256,192,130132,1,0,0:0:0:0:
256,192,130702,1,8,0:0:0:0:
256,192,130988,1,8,0:0:0:0:
256,192,131273,1,8,0:0:0:0:
256,192,131844,1,0,0:0:0:0:
256,192,132985,1,8,0:0:0:0:
256,192,133556,1,0,0:0:0:0:
256,192,134126,1,0,0:0:0:0:
256,192,134697,1,8,0:0:0:0:
256,192,135267,1,0,0:0:0:0:
256,192,136409,1,8,0:0:0:0:
256,192,136979,1,0,0:0:0:0:
256,192,137122,8,0,143827,0:0:0:0:
