osu file format v14

[General]
AudioFilename: audio.mp3
AudioLeadIn: 0
PreviewTime: 68391
Countdown: 0
SampleSet: Normal
StackLeniency: 0.7
Mode: 1
LetterboxInBreaks: 0
WidescreenStoryboard: 1

[Editor]
Bookmarks: 6005,12862,19719,26576,33411,40244,47098,53955,60790,67623,74477,81334,88169,95023,101880,108737,115572,122405
DistanceSpacing: 1.5
BeatDivisor: 1
GridSize: 32
TimelineZoom: 1.519999

[Metadata]
Title:BODY NUMB
TitleUnicode:BODY NUMB
Artist:HPSHAWTY
ArtistUnicode:HPSHAWTY
Creator:paz08
Version:FUTSUU
Source:
Tags:ALWAYS PROPER RECORDS phonk tape underground memphis rap bass english hip hop lofi boombap hiphop hip-hop lo-fi trap
BeatmapID:3384735
BeatmapSetID:1658182

[Difficulty]
HPDrainRate:7
CircleSize:5.5
OverallDifficulty:3
ApproachRate:3
SliderMultiplier:2.8
SliderTickRate:1

[Events]
//Background and Video events
0,0,"88150544_p0.jpg",0,-60
//Break Periods
//Storyboard Layer 0 (Background)
//Storyboard Layer 1 (Fail)
//Storyboard Layer 2 (Pass)
//Storyboard Layer 3 (Foreground)
//Storyboard Layer 4 (Overlay)
//Storyboard Sound Samples

[TimingPoints]
15,856.04223141675,4,1,0,70,1,0
15,-105.263157894737,4,1,0,70,0,0
12415,-103.44828,4,1,0,70,0,0
12629,-102.85715,4,1,0,70,0,0
12843,-102.272736,4,1,0,70,0,0
13711,-100,4,1,0,70,0,1
25684,-99.0099,4,1,0,70,0,1
25898,-98.52217,4,1,0,70,0,1
26112,-98.039215,4,1,0,70,0,1
26540,-97.08738,4,1,0,70,0,1
27396,-95.2381,4,1,0,70,0,1
27610,-100,4,1,0,70,0,1
39381,-101.0101,4,1,0,70,0,1
39595,-101.52285,4,1,0,70,0,1
39809,-102.04082,4,1,0,70,0,1
40023,-102.56411,4,1,0,70,0,1
40237,-103.0928,4,1,0,70,0,1
41105,-105.26317,4,1,0,70,0,0
53506,-103.44828,4,1,0,70,0,0
53720,-102.85715,4,1,0,70,0,0
53934,-102.272736,4,1,0,70,0,0
54790,-100,4,1,0,70,0,0
55004,-105.263157894737,4,1,0,70,0,0
67203,-103.44828,4,1,0,70,0,0
67417,-102.85715,4,1,0,70,0,0
67631,-102.272736,4,1,0,70,0,0
68498,-100,4,1,0,70,0,1
80472,-99.0099,4,1,0,70,0,1
80686,-98.52217,4,1,0,70,0,1
80900,-98.039215,4,1,0,70,0,1
81328,-97.08738,4,1,0,70,0,1
82184,-95.2381,4,1,0,70,0,1
82356,-100,4,1,0,70,0,1
94170,-101.01201,4,1,0,70,0,1
94384,-101.52453,4,1,0,70,0,1
94598,-102.04228,4,1,0,70,0,1
94812,-102.56533,4,1,0,70,0,1
95026,-103.09377,4,1,0,70,0,1
95891,-105.26317,4,1,0,70,0,0
108295,-103.44828,4,1,0,70,0,0
108509,-102.85715,4,1,0,70,0,0
108723,-102.272736,4,1,0,70,0,0
109579,-100,4,1,0,70,0,0
109793,-105.263157894737,4,1,0,70,0,0
120708,-111.111111111111,4,1,0,70,0,0
121136,-114.285714285714,4,1,0,70,0,0
121350,-115.942028985507,4,1,0,67,0,0
121572,-117.711771177118,4,1,0,67,0,0
121992,-121.212121212121,4,1,0,61,0,0
122206,-123.076923076923,4,1,0,59,0,0
122420,-125,4,1,0,57,0,0
123285,1141.22681883024,3,1,0,50,1,1
123855,-101.051544109508,3,1,0,50,0,1
124127,-101.56116735269,3,1,0,50,0,1
124413,-102.102594691321,3,1,0,50,0,1
124983,-103.199065526207,3,1,0,50,0,1
125554,-104.32132858476,3,1,0,50,0,1
125839,-104.890659109188,3,1,0,50,0,1
126125,-105.468268638324,3,1,0,50,0,1
126410,-106.050221680122,3,1,0,50,0,1
126695,-106.638632558502,3,1,0,50,0,1
127266,-107.837385569446,3,1,0,50,0,1
127551,-108.445852306474,3,1,0,50,0,1
127836,-109.061224489796,3,1,0,50,0,1
128122,-109.68581669637,3,1,0,50,0,1
128407,-110.31538244653,3,1,0,50,0,1
128978,-111.598720534605,3,1,0,50,0,1
129263,-112.250502069757,3,1,0,50,0,1
129548,-112.909941665121,3,1,0,50,0,1
130119,-114.254724458721,3,1,0,50,0,1
130689,-115.629485772186,3,1,0,48,0,1
130975,-116.331818374889,3,1,0,47,0,1
131260,-117.04023418303,3,1,0,46,0,1
131831,-118.48583171101,3,1,0,44,0,1
132401,-119.964958388086,3,1,0,42,0,1
132687,-120.721117820778,3,1,0,41,0,1
132972,-121.484175741312,3,1,0,40,0,1
133257,-122.256941344523,3,1,0,39,0,1
133543,-123.042364886113,3,1,0,38,0,1
134113,-124.638208792209,3,1,0,36,0,1
134398,-125.451755490919,3,1,0,35,0,1
134684,-126.278903566406,3,1,0,34,0,1
134969,-127.114081500046,3,1,0,33,0,1
135254,-127.960380311631,3,1,0,32,0,1
135825,-129.690311582536,3,1,0,30,0,1
136110,-130.571380896761,3,1,0,29,0,1
136396,-131.467658706348,3,1,0,28,0,1
136681,-132.373127114548,3,1,0,27,0,1
136979,-133.333333333333,3,1,0,27,0,0
137122,-139.007524913565,3,1,0,25,0,0
138107,-145.325041194918,3,1,0,23,0,0
138678,-152.25684292596,3,1,0,21,0,0
139249,-159.883040935673,3,1,0,19,0,0
139819,-168.297937827024,3,1,0,17,0,0
140390,-177.665139552263,3,1,0,16,0,0
140961,-188.136526286815,3,1,0,14,0,0
141531,-199.897638370988,3,1,0,12,0,0
142102,-213.252213252213,3,1,0,10,0,0
142672,-228.49024278133,3,1,0,8,0,0
143243,-246.106760284454,3,1,0,6,0,0
143814,-266.666666666667,3,1,0,5,0,0

[HitObjects]
256,192,15,5,4,0:0:0:0:
256,192,657,1,0,0:0:0:0:
256,192,871,1,8,0:0:0:0:
256,192,1299,1,0,0:0:0:0:
256,192,1941,1,8,0:0:0:0:
256,192,2369,1,0,0:0:0:0:
256,192,2583,1,8,0:0:0:0:
256,192,3011,1,0,0:0:0:0:
256,192,3439,1,8,0:0:0:0:
256,192,4295,1,8,0:0:0:0:
256,192,4723,1,0,0:0:0:0:
256,192,4937,1,0,0:0:0:0:
256,192,5579,1,0,0:0:0:0:
256,192,6007,1,8,0:0:0:0:
256,192,6863,1,0,0:0:0:0:
256,192,7505,1,0,0:0:0:0:
256,192,7719,1,8,0:0:0:0:
256,192,8147,1,0,0:0:0:0:
256,192,8789,1,8,0:0:0:0:
256,192,9217,1,0,0:0:0:0:
256,192,9431,1,8,0:0:0:0:
256,192,9859,1,0,0:0:0:0:
256,192,10287,1,8,0:0:0:0:
256,192,11143,1,8,0:0:0:0:
256,192,11571,1,0,0:0:0:0:
256,192,11785,1,0,0:0:0:0:
256,192,12427,1,8,0:0:0:0:
256,192,12641,1,0,0:0:0:0:
256,192,12855,1,8,0:0:0:0:
256,192,13711,1,4,0:0:0:0:
256,192,14139,1,8,0:0:0:0:
256,192,14353,1,0,0:0:0:0:
256,192,14567,1,8,0:0:0:0:
256,192,14995,1,0,0:0:0:0:
256,192,15423,1,8,0:0:0:0:
256,192,15851,1,0,0:0:0:0:
256,192,16065,1,0,0:0:0:0:
256,192,16279,1,8,0:0:0:0:
256,192,16707,1,0,0:0:0:0:
256,192,17135,1,8,0:0:0:0:
256,192,17563,1,0,0:0:0:0:
256,192,17777,1,0,0:0:0:0:
256,192,17991,1,8,0:0:0:0:
256,192,18419,1,8,0:0:0:0:
256,192,18847,1,8,0:0:0:0:
256,192,19061,1,8,0:0:0:0:
256,192,19275,1,0,0:0:0:0:
256,192,19703,1,8,0:0:0:0:
256,192,20560,1,0,0:0:0:0:
256,192,20988,1,8,0:0:0:0:
256,192,21202,1,0,0:0:0:0:
256,192,21416,1,8,0:0:0:0:
256,192,21844,1,0,0:0:0:0:
256,192,22272,1,8,0:0:0:0:
256,192,22700,1,0,0:0:0:0:
256,192,22914,1,0,0:0:0:0:
256,192,23128,1,8,0:0:0:0:
256,192,23556,1,0,0:0:0:0:
256,192,23984,1,8,0:0:0:0:
256,192,24412,1,0,0:0:0:0:
256,192,24626,1,0,0:0:0:0:
256,192,24840,1,8,0:0:0:0:
256,192,25054,1,0,0:0:0:0:
256,192,25268,1,8,0:0:0:0:
256,192,25696,1,8,0:0:0:0:
256,192,25910,1,8,0:0:0:0:
256,192,26124,1,0,0:0:0:0:
256,192,26552,1,8,0:0:0:0:
256,192,27408,1,4,0:0:0:0:
256,192,28050,1,0,0:0:0:0:
256,192,28264,1,8,0:0:0:0:
256,192,28692,1,8,0:0:0:0:
256,192,28906,1,0,0:0:0:0:
256,192,29334,1,8,0:0:0:0:
256,192,29548,1,0,0:0:0:0:
256,192,29762,1,0,0:0:0:0:
256,192,29976,1,8,0:0:0:0:
256,192,30404,1,0,0:0:0:0:
256,192,30618,1,0,0:0:0:0:
256,192,30832,1,8,0:0:0:0:
256,192,31260,1,0,0:0:0:0:
256,192,31688,1,8,0:0:0:0:
256,192,31902,1,8,0:0:0:0:
256,192,32116,1,0,0:0:0:0:
256,192,32544,1,8,0:0:0:0:
256,192,32758,1,0,0:0:0:0:
256,192,32972,1,8,0:0:0:0:
256,192,33400,1,8,0:0:0:0:
256,192,34256,1,0,0:0:0:0:
256,192,34898,1,0,0:0:0:0:
256,192,35112,1,8,0:0:0:0:
256,192,35540,1,8,0:0:0:0:
256,192,35754,1,0,0:0:0:0:
256,192,36182,1,8,0:0:0:0:
256,192,36396,1,0,0:0:0:0:
256,192,36610,1,0,0:0:0:0:
256,192,36824,1,8,0:0:0:0:
256,192,37252,1,0,0:0:0:0:
256,192,37466,1,0,0:0:0:0:
256,192,37680,1,8,0:0:0:0:
256,192,38108,1,0,0:0:0:0:
256,192,38536,1,8,0:0:0:0:
256,192,38750,1,8,0:0:0:0:
256,192,38964,1,0,0:0:0:0:
256,192,39392,1,8,0:0:0:0:
256,192,39606,1,0,0:0:0:0:
256,192,39820,1,8,0:0:0:0:
256,192,40034,1,0,0:0:0:0:
256,192,40248,1,8,0:0:0:0:
256,192,41105,1,4,0:0:0:0:
256,192,41747,1,0,0:0:0:0:
256,192,41961,1,8,0:0:0:0:
256,192,42389,1,0,0:0:0:0:
256,192,43031,1,8,0:0:0:0:
256,192,43459,1,0,0:0:0:0:
256,192,43673,1,8,0:0:0:0:
256,192,44101,1,0,0:0:0:0:
256,192,44529,1,8,0:0:0:0:
256,192,45385,1,8,0:0:0:0:
256,192,45813,1,0,0:0:0:0:
256,192,46027,1,0,0:0:0:0:
256,192,46669,1,0,0:0:0:0:
256,192,47097,1,8,0:0:0:0:
256,192,47953,1,0,0:0:0:0:
256,192,48595,1,0,0:0:0:0:
256,192,48809,1,8,0:0:0:0:
256,192,49237,1,0,0:0:0:0:
256,192,49879,1,8,0:0:0:0:
256,192,50307,1,0,0:0:0:0:
256,192,50521,1,8,0:0:0:0:
256,192,50949,1,0,0:0:0:0:
256,192,51377,1,8,0:0:0:0:
256,192,52233,1,8,0:0:0:0:
256,192,52661,1,0,0:0:0:0:
256,192,52875,1,0,0:0:0:0:
256,192,53517,1,8,0:0:0:0:
256,192,53731,1,0,0:0:0:0:
256,192,53945,1,8,0:0:0:0:
256,192,54801,1,4,0:0:0:0:
256,192,55443,1,0,0:0:0:0:
256,192,55657,1,8,0:0:0:0:
256,192,56085,1,0,0:0:0:0:
256,192,56727,1,8,0:0:0:0:
256,192,57155,1,0,0:0:0:0:
256,192,57369,1,8,0:0:0:0:
256,192,57797,1,0,0:0:0:0:
256,192,58225,1,8,0:0:0:0:
256,192,59081,1,8,0:0:0:0:
256,192,59509,1,0,0:0:0:0:
256,192,59723,1,0,0:0:0:0:
256,192,60365,1,0,0:0:0:0:
256,192,60793,1,8,0:0:0:0:
256,192,61650,1,0,0:0:0:0:
256,192,62292,1,0,0:0:0:0:
256,192,62506,1,8,0:0:0:0:
256,192,62934,1,0,0:0:0:0:
256,192,63576,1,8,0:0:0:0:
256,192,64004,1,0,0:0:0:0:
256,192,64218,1,8,0:0:0:0:
256,192,64646,1,0,0:0:0:0:
256,192,65074,1,8,0:0:0:0:
256,192,65930,1,8,0:0:0:0:
256,192,66358,1,0,0:0:0:0:
256,192,66572,1,0,0:0:0:0:
256,192,67214,1,8,0:0:0:0:
256,192,67428,1,0,0:0:0:0:
256,192,67642,1,8,0:0:0:0:
256,192,68498,1,4,0:0:0:0:
256,192,68926,1,8,0:0:0:0:
256,192,69140,1,0,0:0:0:0:
256,192,69354,1,8,0:0:0:0:
256,192,69782,1,0,0:0:0:0:
256,192,70210,1,8,0:0:0:0:
256,192,70638,1,0,0:0:0:0:
256,192,70852,1,0,0:0:0:0:
256,192,71066,1,8,0:0:0:0:
256,192,71494,1,0,0:0:0:0:
256,192,71922,1,8,0:0:0:0:
256,192,72350,1,0,0:0:0:0:
256,192,72564,1,0,0:0:0:0:
256,192,72778,1,8,0:0:0:0:
256,192,72992,1,0,0:0:0:0:
256,192,73206,1,8,0:0:0:0:
256,192,73634,1,8,0:0:0:0:
256,192,73848,1,8,0:0:0:0:
256,192,74062,1,0,0:0:0:0:
256,192,74490,1,8,0:0:0:0:
256,192,75346,1,0,0:0:0:0:
256,192,75774,1,8,0:0:0:0:
256,192,75988,1,0,0:0:0:0:
256,192,76202,1,8,0:0:0:0:
256,192,76630,1,0,0:0:0:0:
256,192,77058,1,8,0:0:0:0:
256,192,77486,1,0,0:0:0:0:
256,192,77700,1,0,0:0:0:0:
256,192,77914,1,8,0:0:0:0:
256,192,78342,1,0,0:0:0:0:
256,192,78770,1,8,0:0:0:0:
256,192,79198,1,0,0:0:0:0:
256,192,79412,1,0,0:0:0:0:
256,192,79626,1,8,0:0:0:0:
256,192,79840,1,0,0:0:0:0:
256,192,80054,1,8,0:0:0:0:
256,192,80482,1,8,0:0:0:0:
256,192,80696,1,8,0:0:0:0:
256,192,80910,1,0,0:0:0:0:
256,192,81339,1,8,0:0:0:0:
256,192,82195,1,4,0:0:0:0:
256,192,82837,1,0,0:0:0:0:
256,192,83051,1,8,0:0:0:0:
256,192,83479,1,8,0:0:0:0:
256,192,83693,1,0,0:0:0:0:
256,192,84121,1,8,0:0:0:0:
256,192,84335,1,0,0:0:0:0:
256,192,84549,1,0,0:0:0:0:
256,192,84763,1,8,0:0:0:0:
256,192,85191,1,0,0:0:0:0:
256,192,85405,1,0,0:0:0:0:
256,192,85619,1,8,0:0:0:0:
256,192,86047,1,0,0:0:0:0:
256,192,86475,1,8,0:0:0:0:
256,192,86689,1,8,0:0:0:0:
256,192,86903,1,0,0:0:0:0:
256,192,87331,1,8,0:0:0:0:
256,192,87545,1,0,0:0:0:0:
256,192,87759,1,8,0:0:0:0:
256,192,88187,1,8,0:0:0:0:
256,192,89043,1,0,0:0:0:0:
256,192,89685,1,0,0:0:0:0:
256,192,89899,1,8,0:0:0:0:
256,192,90327,1,8,0:0:0:0:
256,192,90541,1,0,0:0:0:0:
256,192,90969,1,8,0:0:0:0:
256,192,91183,1,0,0:0:0:0:
256,192,91397,1,0,0:0:0:0:
256,192,91611,1,8,0:0:0:0:
256,192,92039,1,0,0:0:0:0:
256,192,92253,1,0,0:0:0:0:
256,192,92467,1,8,0:0:0:0:
256,192,92895,1,0,0:0:0:0:
256,192,93323,1,8,0:0:0:0:
256,192,93537,1,8,0:0:0:0:
256,192,93751,1,0,0:0:0:0:
256,192,94179,1,8,0:0:0:0:
256,192,94393,1,0,0:0:0:0:
256,192,94607,1,8,0:0:0:0:
256,192,94821,1,0,0:0:0:0:
256,192,95035,1,8,0:0:0:0:
256,192,95891,1,4,0:0:0:0:
256,192,96533,1,0,0:0:0:0:
256,192,96747,1,8,0:0:0:0:
256,192,97175,1,0,0:0:0:0:
256,192,97817,1,8,0:0:0:0:
256,192,98245,1,0,0:0:0:0:
256,192,98459,1,8,0:0:0:0:
256,192,98887,1,0,0:0:0:0:
256,192,99315,1,8,0:0:0:0:
256,192,100171,1,8,0:0:0:0:
256,192,100599,1,0,0:0:0:0:
256,192,100813,1,0,0:0:0:0:
256,192,101456,1,0,0:0:0:0:
256,192,101884,1,8,0:0:0:0:
256,192,102740,1,0,0:0:0:0:
256,192,103382,1,0,0:0:0:0:
256,192,103596,1,8,0:0:0:0:
256,192,104024,1,0,0:0:0:0:
256,192,104666,1,8,0:0:0:0:
256,192,105094,1,0,0:0:0:0:
256,192,105308,1,8,0:0:0:0:
256,192,105736,1,0,0:0:0:0:
256,192,106164,1,8,0:0:0:0:
256,192,107020,1,8,0:0:0:0:
256,192,107448,1,0,0:0:0:0:
256,192,107662,1,0,0:0:0:0:
256,192,108304,1,8,0:0:0:0:
256,192,108518,1,0,0:0:0:0:
256,192,108732,1,8,0:0:0:0:
256,192,109588,1,4,0:0:0:0:
256,192,110230,1,0,0:0:0:0:
256,192,110444,1,8,0:0:0:0:
256,192,110872,1,0,0:0:0:0:
256,192,111514,1,8,0:0:0:0:
256,192,111942,1,0,0:0:0:0:
256,192,112156,1,8,0:0:0:0:
256,192,112584,1,0,0:0:0:0:
256,192,113012,1,8,0:0:0:0:
256,192,113868,1,8,0:0:0:0:
256,192,114296,1,0,0:0:0:0:
256,192,114510,1,0,0:0:0:0:
256,192,115152,1,0,0:0:0:0:
256,192,115580,1,8,0:0:0:0:
256,192,116436,1,0,0:0:0:0:
256,192,117078,1,0,0:0:0:0:
256,192,117292,1,8,0:0:0:0:
256,192,117720,1,0,0:0:0:0:
256,192,118362,1,8,0:0:0:0:
256,192,118790,1,0,0:0:0:0:
256,192,119004,1,8,0:0:0:0:
256,192,119432,1,0,0:0:0:0:
256,192,119860,1,8,0:0:0:0:
256,192,120716,1,8,0:0:0:0:
256,192,121144,1,0,0:0:0:0:
256,192,121358,1,0,0:0:0:0:
256,192,122001,1,8,0:0:0:0:
256,192,122215,1,0,0:0:0:0:
256,192,122429,1,8,0:0:0:0:
256,192,123285,1,4,0:0:0:0:
256,192,123855,1,8,0:0:0:0:
256,192,124140,1,0,0:0:0:0:
256,192,124426,1,8,0:0:0:0:
256,192,124996,1,0,0:0:0:0:
256,192,125567,1,0,0:0:0:0:
256,192,125852,1,0,0:0:0:0:
256,192,126138,1,8,0:0:0:0:
256,192,126423,1,8,0:0:0:0:
256,192,126708,1,0,0:0:0:0:
256,192,127279,1,0,0:0:0:0:
256,192,127564,1,0,0:0:0:0:
256,192,127849,1,8,0:0:0:0:
256,192,128135,1,0,0:0:0:0:
256,192,128420,1,8,0:0:0:0:
256,192,128991,1,0,0:0:0:0:
256,192,129276,1,0,0:0:0:0:
256,192,129561,1,8,0:0:0:0:
256,192,130132,1,0,0:0:0:0:
256,192,130702,1,8,0:0:0:0:
256,192,130988,1,0,0:0:0:0:
256,192,131273,1,8,0:0:0:0:
256,192,131844,1,0,0:0:0:0:
256,192,132414,1,0,0:0:0:0:
256,192,132700,1,0,0:0:0:0:
256,192,132985,1,8,0:0:0:0:
256,192,133270,1,8,0:0:0:0:
256,192,133556,1,0,0:0:0:0:
256,192,134126,1,0,0:0:0:0:
256,192,134411,1,0,0:0:0:0:
256,192,134697,1,8,0:0:0:0:
256,192,134982,1,0,0:0:0:0:
256,192,135267,1,8,0:0:0:0:
256,192,135838,1,0,0:0:0:0:
256,192,136123,1,0,0:0:0:0:
256,192,136409,1,8,0:0:0:0:
256,192,136694,1,8,0:0:0:0:
256,192,136979,1,0,0:0:0:0:
256,192,137122,8,0,143827,0:0:0:0:
