osu file format v14

[General]
AudioFilename: audio.mp3
AudioLeadIn: 0
PreviewTime: -1
Countdown: 1
SampleSet: None
StackLeniency: 0.7
Mode: 0
LetterboxInBreaks: 0
WidescreenStoryboard: 0

[Editor]
DistanceSpacing: 0.8
BeatDivisor: 1
GridSize: 32
TimelineZoom: 3.95

[Metadata]
Title:O amor
TitleUnicode:O amor é assim
Artist:HPM
ArtistUnicode:HPM
Creator:gabforce22
Version:INSANITY
Source:
Tags:
BeatmapID:1468812
BeatmapSetID:694242

[Difficulty]
HPDrainRate:3
CircleSize:5
OverallDifficulty:6
ApproachRate:8
SliderMultiplier:2.5
SliderTickRate:3

[Events]
//Background and Video events
0,0,"screenshot005 - Cópia.jpg",0,0
//Break Periods
2,44210,67342
2,71692,77212
2,78162,85712
2,86662,100301
2,112772,166698
//Storyboard Layer 0 (Background)
//Storyboard Layer 1 (Fail)
//Storyboard Layer 2 (Pass)
//Storyboard Layer 3 (Foreground)
//Storyboard Sound Samples

[TimingPoints]
9261,4000,4,2,0,0,1,0

[HitObjects]
84,85,923,5,0,0:0:0:0:
350,353,1271,1,0,0:0:0:0:
340,66,1678,1,0,0:0:0:0:
178,220,2051,1,0,0:0:0:0:
171,36,2298,1,0,0:0:0:0:
373,252,2633,1,0,0:0:0:0:
371,110,2933,1,0,0:0:0:0:
370,185,3168,1,0,0:0:0:0:
307,189,3468,1,0,0:0:0:0:
447,189,3648,1,0,0:0:0:0:
372,122,3936,1,0,0:0:0:0:
368,246,4128,1,0,0:0:0:0:
268,119,4288,1,0,0:0:0:0:
449,240,4426,1,0,0:0:0:0:
417,102,4536,1,0,0:0:0:0:
310,247,4648,1,0,0:0:0:0:
350,82,4778,1,0,0:0:0:0:
378,256,4888,1,0,0:0:0:0:
273,175,4988,1,0,0:0:0:0:
449,174,5083,1,0,0:0:0:0:
271,94,5191,1,0,0:0:0:0:
470,281,5283,1,0,0:0:0:0:
445,94,5378,1,0,0:0:0:0:
312,268,5461,1,0,0:0:0:0:
340,65,5568,1,0,0:0:0:0:
376,264,5653,1,0,0:0:0:0:
278,187,5736,1,0,0:0:0:0:
475,187,5816,1,0,0:0:0:0:
438,89,5896,1,0,0:0:0:0:
280,287,5971,1,0,0:0:0:0:
333,27,6061,1,0,0:0:0:0:
507,326,6148,1,0,0:0:0:0:
239,182,6228,1,0,0:0:0:0:
454,188,6303,1,0,0:0:0:0:
326,100,6378,1,0,0:0:0:0:
364,238,6446,1,0,0:0:0:0:
31,32,7543,1,0,0:0:0:0:
255,161,8113,1,0,0:0:0:0:
255,192,9578,1,0,0:0:0:0:
511,3,10306,1,0,0:0:0:0:
6,382,10716,1,0,0:0:0:0:
258,168,11118,1,0,0:0:0:0:
258,168,11156,1,0,0:0:0:0:
258,168,11193,1,0,0:0:0:0:
258,168,11236,1,0,0:0:0:0:
258,168,11276,1,0,0:0:0:0:
258,168,11321,1,0,0:0:0:0:
258,168,11363,1,0,0:0:0:0:
258,168,11408,1,0,0:0:0:0:
258,168,11458,1,0,0:0:0:0:
258,168,11503,1,0,0:0:0:0:
258,168,11553,1,0,0:0:0:0:
258,168,11603,1,0,0:0:0:0:
258,168,11648,1,0,0:0:0:0:
258,168,11698,1,0,0:0:0:0:
258,168,11748,1,0,0:0:0:0:
258,168,11791,1,0,0:0:0:0:
258,168,11836,1,0,0:0:0:0:
258,168,11886,1,0,0:0:0:0:
258,168,11936,1,0,0:0:0:0:
258,168,11983,1,0,0:0:0:0:
258,168,12026,1,0,0:0:0:0:
258,168,12071,1,0,0:0:0:0:
258,168,12111,1,0,0:0:0:0:
258,168,12153,1,0,0:0:0:0:
258,168,12198,1,0,0:0:0:0:
258,168,12241,1,0,0:0:0:0:
258,168,12286,1,0,0:0:0:0:
258,168,12336,1,0,0:0:0:0:
258,168,12386,1,0,0:0:0:0:
258,168,12428,1,0,0:0:0:0:
379,86,12781,5,0,0:0:0:0:
424,292,13003,1,0,0:0:0:0:
143,242,13236,1,0,0:0:0:0:
204,31,13441,1,0,0:0:0:0:
318,213,13633,1,0,0:0:0:0:
408,34,16863,1,0,0:0:0:0:
323,105,16931,1,0,0:0:0:0:
103,132,17776,1,0,0:0:0:0:
129,61,17988,1,0,0:0:0:0:
255,212,18221,1,0,0:0:0:0:
373,82,18461,1,0,0:0:0:0:
141,252,18678,1,0,0:0:0:0:
394,234,19016,1,0,0:0:0:0:
156,129,19303,2,0,B|408:193|236:283|243:51|457:189|321:51|277:45|237:42|194:38|158:39|121:52|115:62|106:74|101:77|95:84|83:112|82:127|82:159|99:180|111:204|123:213|139:226|154:239|168:251|186:260|220:276|263:284|317:286|388:111|314:256,2,750
237,146,26361,1,0,0:0:0:0:
407,65,26498,1,0,0:0:0:0:
425,233,26618,1,0,0:0:0:0:
255,23,26731,1,0,0:0:0:0:
328,196,26816,1,0,0:0:0:0:
123,156,26888,1,0,0:0:0:0:
173,279,26958,1,0,0:0:0:0:
199,80,27028,1,0,0:0:0:0:
273,246,27101,1,0,0:0:0:0:
211,101,30640,1,0,0:0:0:0:
352,286,31480,1,0,0:0:0:0:
329,79,31880,1,0,0:0:0:0:
36,360,32120,1,0,0:0:0:0:
272,224,32630,1,0,0:0:0:0:
268,218,32930,1,0,0:0:0:0:
268,218,33160,1,0,0:0:0:0:
268,218,33330,1,0,0:0:0:0:
268,218,33500,1,0,0:0:0:0:
268,218,33670,1,0,0:0:0:0:
268,218,33830,1,0,0:0:0:0:
268,218,34010,1,0,0:0:0:0:
268,218,34190,1,0,0:0:0:0:
268,218,34340,1,0,0:0:0:0:
268,218,34520,1,0,0:0:0:0:
259,217,34690,1,0,0:0:0:0:
259,216,34890,1,0,0:0:0:0:
260,212,35080,1,0,0:0:0:0:
265,210,35260,1,0,0:0:0:0:
267,221,35440,1,0,0:0:0:0:
263,224,35640,1,0,0:0:0:0:
260,218,35840,1,0,0:0:0:0:
267,221,36160,1,0,0:0:0:0:
259,224,36320,1,0,0:0:0:0:
368,121,36840,1,0,0:0:0:0:
340,96,36990,1,0,0:0:0:0:
319,88,37160,1,0,0:0:0:0:
294,87,37340,1,0,0:0:0:0:
255,94,37520,1,0,0:0:0:0:
216,108,37690,1,0,0:0:0:0:
206,132,37880,1,0,0:0:0:0:
205,151,38040,1,0,0:0:0:0:
218,186,38220,1,0,0:0:0:0:
263,208,38410,1,0,0:0:0:0:
297,208,38570,1,0,0:0:0:0:
317,192,38730,1,0,0:0:0:0:
330,153,38900,1,0,0:0:0:0:
329,124,39070,1,0,0:0:0:0:
303,106,39250,1,0,0:0:0:0:
274,121,39430,1,0,0:0:0:0:
288,140,39590,1,0,0:0:0:0:
282,145,39740,1,0,0:0:0:0:
285,134,39920,1,0,0:0:0:0:
277,146,40130,1,0,0:0:0:0:
271,143,40300,1,0,0:0:0:0:
280,136,40470,1,0,0:0:0:0:
282,140,40630,1,0,0:0:0:0:
279,138,40800,1,0,0:0:0:0:
286,139,40960,1,0,0:0:0:0:
283,140,41140,1,0,0:0:0:0:
287,140,41330,1,0,0:0:0:0:
292,143,41500,1,0,0:0:0:0:
295,140,41670,1,0,0:0:0:0:
298,143,41870,1,0,0:0:0:0:
298,146,42210,1,0,0:0:0:0:
295,145,42400,1,0,0:0:0:0:
296,145,42560,1,0,0:0:0:0:
297,147,42720,1,0,0:0:0:0:
298,146,42890,1,0,0:0:0:0:
297,155,43090,1,0,0:0:0:0:
297,155,43270,1,0,0:0:0:0:
295,155,43440,1,0,0:0:0:0:
299,155,43620,1,0,0:0:0:0:
297,155,43810,1,0,0:0:0:0:
297,155,44010,1,0,0:0:0:0:
242,97,68092,5,0,0:0:0:0:
142,72,68412,1,0,0:0:0:0:
201,154,68612,1,0,0:0:0:0:
201,154,68812,1,0,0:0:0:0:
211,139,68982,1,0,0:0:0:0:
227,141,69142,1,0,0:0:0:0:
223,158,69322,1,0,0:0:0:0:
228,149,69502,1,0,0:0:0:0:
234,138,69682,1,0,0:0:0:0:
231,144,69852,1,0,0:0:0:0:
231,148,70042,1,0,0:0:0:0:
241,151,70252,1,0,0:0:0:0:
235,149,70432,1,0,0:0:0:0:
237,150,70702,1,0,0:0:0:0:
232,154,70902,1,0,0:0:0:0:
235,149,71082,1,0,0:0:0:0:
237,150,71282,1,0,0:0:0:0:
237,150,71492,1,0,0:0:0:0:
240,153,77962,5,0,0:0:0:0:
256,169,86462,5,0,0:0:0:0:
190,201,101051,5,0,0:0:0:0:
306,234,101342,1,0,0:0:0:0:
196,297,101702,1,0,0:0:0:0:
267,69,102032,1,0,0:0:0:0:
370,267,102312,1,0,0:0:0:0:
80,142,102562,1,0,0:0:0:0:
374,142,102802,1,0,0:0:0:0:
152,298,103042,1,0,0:0:0:0:
190,91,103272,1,0,0:0:0:0:
273,255,103662,1,0,0:0:0:0:
116,169,104102,1,0,0:0:0:0:
188,170,104402,1,0,0:0:0:0:
188,170,104582,1,0,0:0:0:0:
188,170,104742,1,0,0:0:0:0:
188,170,104892,1,0,0:0:0:0:
188,170,105042,1,0,0:0:0:0:
188,170,105222,1,0,0:0:0:0:
188,170,105392,1,0,0:0:0:0:
188,170,105572,1,0,0:0:0:0:
304,171,105902,5,0,0:0:0:0:
292,89,106182,1,0,0:0:0:0:
275,147,106372,1,0,0:0:0:0:
320,109,106622,1,0,0:0:0:0:
300,139,106872,1,0,0:0:0:0:
287,105,107102,1,0,0:0:0:0:
337,159,107322,1,0,0:0:0:0:
300,139,107522,1,0,0:0:0:0:
307,150,107732,1,0,0:0:0:0:
305,144,108052,1,0,0:0:0:0:
306,143,108362,1,0,0:0:0:0:
307,150,108552,1,0,0:0:0:0:
305,144,108712,1,0,0:0:0:0:
306,147,108872,1,0,0:0:0:0:
306,143,109072,1,0,0:0:0:0:
307,150,109242,1,0,0:0:0:0:
305,144,109422,1,0,0:0:0:0:
306,147,109602,1,0,0:0:0:0:
306,155,109802,1,0,0:0:0:0:
306,155,109982,1,0,0:0:0:0:
471,138,110672,1,6,0:0:0:0:
345,291,111062,1,6,0:0:0:0:
273,221,111622,1,6,0:0:0:0:
123,209,112142,1,6,0:0:0:0:
203,68,112572,1,6,0:0:0:0:
255,196,167448,5,6,0:0:0:0:
188,244,169261,5,0,0:0:0:0:
103,182,169261,1,0,0:0:0:0:
156,152,169261,1,0,0:0:0:0:
192,102,169261,1,0,0:0:0:0:
219,46,169261,1,0,0:0:0:0:
279,55,169261,1,0,0:0:0:0:
333,26,169261,1,0,0:0:0:0:
333,26,169261,1,0,0:0:0:0:
393,35,169261,1,0,0:0:0:0:
440,73,169261,1,0,0:0:0:0:
467,128,169261,1,0,0:0:0:0:
453,187,169261,1,0,0:0:0:0:
419,238,169261,1,0,0:0:0:0:
366,205,169261,1,0,0:0:0:0:
304,208,169261,1,0,0:0:0:0:
250,238,169261,1,0,0:0:0:0:
240,177,169261,1,0,0:0:0:0:
297,197,169261,1,0,0:0:0:0:
251,155,169261,1,0,0:0:0:0:
298,194,169261,1,0,0:0:0:0:
258,146,169261,1,0,0:0:0:0:
220,97,169261,1,0,0:0:0:0:
220,97,169261,1,0,0:0:0:0:
220,97,169261,1,0,0:0:0:0:
220,97,169261,1,0,0:0:0:0:
220,97,169261,1,0,0:0:0:0:
280,84,169261,1,0,0:0:0:0:
336,60,169261,1,0,0:0:0:0:
374,108,169261,1,0,0:0:0:0:
433,121,169261,1,0,0:0:0:0:
392,167,169261,1,0,0:0:0:0:
392,167,169261,1,0,0:0:0:0:
392,167,169261,1,0,0:0:0:0:
361,131,171758,1,6,0:0:0:0:
326,173,172228,1,6,0:0:0:0:
270,87,172638,1,6,0:0:0:0:
364,138,172928,1,6,0:0:0:0:
290,144,173228,1,6,0:0:0:0:
290,144,173418,1,6,0:0:0:0:
290,144,173598,1,6,0:0:0:0:
290,144,173778,1,6,0:0:0:0:
322,81,174028,1,6,0:0:0:0:
326,151,174288,1,0,0:0:0:0:
245,97,174518,1,0,0:0:0:0:
361,152,174768,1,0,0:0:0:0:
265,131,175028,1,0,0:0:0:0:
305,207,175288,1,0,0:0:0:0:
283,109,175568,1,0,0:0:0:0:
286,205,175818,1,0,0:0:0:0:
219,169,176058,1,0,0:0:0:0:
332,187,176298,1,0,0:0:0:0:
256,153,176548,1,0,0:0:0:0:
277,188,176778,1,0,0:0:0:0:
263,179,176998,1,0,0:0:0:0:
263,179,177328,1,0,0:0:0:0:
263,179,177498,1,0,0:0:0:0:
263,179,177668,1,0,0:0:0:0:
263,179,177798,1,0,0:0:0:0:
263,179,177968,1,0,0:0:0:0:
263,179,178208,1,0,0:0:0:0:
263,179,178378,1,0,0:0:0:0:
263,179,178708,1,0,0:0:0:0:
263,179,178898,1,0,0:0:0:0:
263,179,179048,1,0,0:0:0:0:
263,179,179228,1,0,0:0:0:0:
263,179,179448,1,0,0:0:0:0:
263,179,179768,1,0,0:0:0:0:
263,179,179998,1,0,0:0:0:0:
263,179,180168,1,0,0:0:0:0:
263,179,180328,1,0,0:0:0:0:
263,179,180468,1,0,0:0:0:0:
263,179,180608,1,0,0:0:0:0:
263,179,180768,1,0,0:0:0:0:
263,179,180918,1,0,0:0:0:0:
263,179,181058,1,0,0:0:0:0:
263,179,181358,1,0,0:0:0:0:
263,179,181498,1,0,0:0:0:0:
263,179,181718,1,0,0:0:0:0:
263,179,181878,1,0,0:0:0:0:
263,179,182018,1,0,0:0:0:0:
263,179,182178,1,0,0:0:0:0:
263,179,182328,1,0,0:0:0:0:
263,179,182468,1,0,0:0:0:0:
263,179,182598,1,0,0:0:0:0:
263,179,182728,1,0,0:0:0:0:
263,179,182888,1,0,0:0:0:0:
263,179,183048,1,0,0:0:0:0:
263,179,183198,1,0,0:0:0:0:
263,179,183358,1,0,0:0:0:0:
263,179,183538,1,0,0:0:0:0:
263,179,183708,1,0,0:0:0:0:
263,179,183878,1,0,0:0:0:0:
263,179,184038,1,0,0:0:0:0:
263,179,184188,1,0,0:0:0:0:
263,179,184348,1,0,0:0:0:0:
263,179,184498,1,0,0:0:0:0:
263,179,184678,1,0,0:0:0:0:
263,179,184878,1,0,0:0:0:0:
263,179,185048,1,0,0:0:0:0:
263,179,185218,1,0,0:0:0:0:
263,179,185388,1,0,0:0:0:0:
263,179,185548,1,0,0:0:0:0:
263,179,185718,1,0,0:0:0:0:
263,179,185888,1,0,0:0:0:0:
263,179,185988,1,0,0:0:0:0:
263,179,186188,1,0,0:0:0:0:
263,179,186338,1,0,0:0:0:0:
263,179,186478,1,0,0:0:0:0:
263,179,186668,1,0,0:0:0:0:
263,179,186848,1,0,0:0:0:0:
263,179,187008,1,0,0:0:0:0:
263,179,187178,1,0,0:0:0:0:
263,179,187338,1,0,0:0:0:0:
263,179,187498,1,0,0:0:0:0:
263,179,187688,1,0,0:0:0:0:
263,179,187858,1,0,0:0:0:0:
263,179,188048,1,0,0:0:0:0:
263,179,188218,1,0,0:0:0:0:
263,179,188368,1,0,0:0:0:0:
263,179,188548,1,0,0:0:0:0:
263,179,188778,5,0,0:0:0:0:
263,179,189038,5,0,0:0:0:0:
263,179,189338,1,0,0:0:0:0:
263,179,189528,1,0,0:0:0:0:
263,179,189708,1,0,0:0:0:0:
263,179,189878,1,0,0:0:0:0:
263,179,190178,5,0,0:0:0:0:
263,179,190438,1,0,0:0:0:0:
263,179,190638,1,0,0:0:0:0:
263,179,190828,1,0,0:0:0:0:
263,179,190998,1,0,0:0:0:0:
263,179,191178,1,0,0:0:0:0:
263,179,191348,1,0,0:0:0:0:
263,179,191528,1,0,0:0:0:0:
263,179,191728,1,0,0:0:0:0:
263,179,191908,1,0,0:0:0:0:
263,179,192108,1,0,0:0:0:0:
263,179,192308,1,0,0:0:0:0:
263,179,192468,1,0,0:0:0:0:
263,179,192618,1,0,0:0:0:0:
263,179,192768,1,0,0:0:0:0:
263,179,192908,1,0,0:0:0:0:
263,179,193088,1,0,0:0:0:0:
263,179,193248,1,0,0:0:0:0:
263,179,193428,1,0,0:0:0:0:
263,179,193578,1,0,0:0:0:0:
263,179,193748,1,0,0:0:0:0:
263,179,193928,1,0,0:0:0:0:
263,179,194128,1,0,0:0:0:0:
263,179,194298,1,0,0:0:0:0:
263,179,194478,1,0,0:0:0:0:
263,179,194658,1,0,0:0:0:0:
263,179,194838,1,0,0:0:0:0:
263,179,195028,1,0,0:0:0:0:
263,179,195248,1,0,0:0:0:0:
266,175,195448,1,0,0:0:0:0:
267,175,195638,1,0,0:0:0:0:
268,174,195848,1,0,0:0:0:0:
268,177,196048,1,0,0:0:0:0:
270,191,196278,1,0,0:0:0:0:
270,193,196508,1,0,0:0:0:0:
270,193,196698,1,0,0:0:0:0:
255,168,200768,1,0,0:0:0:0:
246,137,203518,2,0,B|321:396|313:111|425:112|446:297|195:334|171:199|275:65|300:53|325:46|347:40|367:35|385:30|394:28|401:26|416:19|422:16|422:16|407:31|408:37|398:132|436:92|403:161,11,500
389,96,226308,2,0,B|104:159|288:60|147:267|326:259|311:84|334:40|271:71|258:50|276:94|238:33|204:32|178:31|135:37|132:38|132:38|70:133,5,500
154,127,237538,1,0,0:0:0:0:
241,211,237968,1,0,0:0:0:0:
290,110,238328,1,0,0:0:0:0:
324,200,238598,1,0,0:0:0:0:
214,142,238848,1,0,0:0:0:0:
278,237,239158,1,0,0:0:0:0:
191,200,239478,1,0,0:0:0:0:
96,160,241261,1,0,0:0:0:0:
338,197,241868,1,0,0:0:0:0:
256,169,247918,5,0,0:0:0:0:
263,156,251768,1,0,0:0:0:0:
265,155,256189,1,0,0:0:0:0:
308,110,256859,1,0,0:0:0:0:
360,162,257169,1,0,0:0:0:0:
239,129,257469,1,0,0:0:0:0:
177,250,257769,1,0,0:0:0:0:
424,233,258079,1,0,0:0:0:0:
362,118,258369,1,0,0:0:0:0:
288,276,258659,1,0,0:0:0:0:
118,91,258949,1,0,0:0:0:0:
400,168,259259,1,0,0:0:0:0:
120,241,259519,1,0,0:0:0:0:
205,11,259789,1,0,0:0:0:0:
387,266,260059,1,0,0:0:0:0:
208,249,260859,1,0,0:0:0:0:
157,56,261109,1,0,0:0:0:0:
375,173,261319,1,0,0:0:0:0:
166,229,261559,1,0,0:0:0:0:
249,81,261839,1,0,0:0:0:0:
299,221,262069,1,0,0:0:0:0:
133,124,262299,1,0,0:0:0:0:
343,115,262529,1,0,0:0:0:0:
182,222,262749,1,0,0:0:0:0:
241,71,262959,1,0,0:0:0:0:
341,164,263179,1,0,0:0:0:0:
