osu file format v14

[General]
AudioFilename: audio.ogg
AudioLeadIn: 0
PreviewTime:49588
Countdown: 0
SampleSet: Soft
StackLeniency: 0.7
Mode: 0
LetterboxInBreaks: 0
WidescreenStoryboard: 1

[Editor]
Bookmarks: 6730,20445,34159,49587,54730
DistanceSpacing: 0.4
BeatDivisor: 4
GridSize: 4
TimelineZoom: 2.2

[Metadata]
Title:Interstellar Journey
TitleUnicode:Interstellar Journey
Artist:HOYO-MiX feat. Lea Sirk
ArtistUnicode:HOYO-MiX feat. Lea Sirk
Creator:Anxient
Version:Ayesha's Insane
Source:Honkai: Star Rail
Tags:崩坏: 星穹铁道 王可鑫 苑迪萌 黑金雨 文驰 宫奇 星间旅行 崩坏:星穹铁道 mihoyo hoyoverse houkai 崩壊:スターレイル 붕괴: 스타레일 benghuai xingqiong tiedao bunggoe seutaleil video_game video game english trailer vgm female vocals vocalist Ayesha Altugle Shizuku-Shikibe Mayu pop
BeatmapID:4124380
BeatmapSetID:1985095

[Difficulty]
HPDrainRate:5
CircleSize:4
OverallDifficulty:7.5
ApproachRate:8.5
SliderMultiplier:2.4
SliderTickRate:1

[Events]
//Background and Video events
0,0,"bg.jpg",0,0
Video,-455,"honkai the star rail.mp4"
//Break Periods
//Storyboard Layer 0 (Background)
//Storyboard Layer 1 (Fail)
//Storyboard Layer 2 (Pass)
//Storyboard Layer 3 (Foreground)
//Storyboard Layer 4 (Overlay)
//Storyboard Sound Samples

[TimingPoints]
1588,428.571428571429,4,2,1,70,1,0
20445,-100,4,2,1,40,0,0
22159,-166.666666666667,4,2,1,40,0,0
27302,-166.666666666667,4,2,1,50,0,0
34159,-125,4,2,1,55,0,0
44445,-125,4,2,1,60,0,0
51302,-100,4,2,1,70,0,1
78730,-100,4,2,1,65,0,0
89016,-100,4,2,1,15,0,0

[Colours]
Combo1 : 254,235,1
Combo2 : 192,192,192
Combo3 : 217,0,0
Combo4 : 61,186,254
Combo5 : 194,108,213
Combo6 : 48,196,11
Combo7 : 149,43,255

[HitObjects]
371,383,6730,6,0,P|392:325|340:219,1,180,6|0,1:0|0:0,0:0:0:0:
448,83,7159,2,0,P|430:160|467:221,2,120,8|2|2,2:0|3:0|3:0,0:0:0:0:
301,312,7802,6,0,P|253:274|187:269,1,120,2|8,1:0|1:0,0:0:0:0:
137,318,8123,1,2,1:0:0:0:
238,171,8338,5,0,0:0:0:0:
238,171,8445,2,0,P|137:239|48:207,1,180,2|0,1:0|0:0,0:0:0:0:
23,177,8873,2,0,P|23:97|-30:52,2,120,8|2|2,2:0|3:0|3:0,0:0:0:0:
44,384,9516,6,0,P|9:311|36:239,1,120,4|8,2:0|1:0,0:0:0:0:
85,230,9838,2,0,P|137:264|222:244,1,120,6|0,1:0|0:0,0:0:0:0:
290,313,10159,6,0,P|232:259|262:127,1,180,6|0,1:0|0:0,0:0:0:0:
133,13,10588,2,0,P|164:75|144:133,1,120,8|2,2:0|3:0,0:0:0:0:
152,121,10909,1,2,3:0:0:0:
152,121,11016,1,2,3:0:0:0:
314,214,11230,6,0,P|361:178|449:188,1,120,2|8,1:0|1:0,0:0:0:0:
512,39,11552,2,0,P|465:75|377:65,1,120,2|0,1:0|0:0,0:0:0:0:
324,32,11873,6,0,L|204:57,1,120,2|8,1:0|2:0,0:0:0:0:
134,23,12195,1,2,1:0:0:0:
273,145,12409,5,8,1:0:0:0:
273,145,12516,2,0,B|198:95|198:95|93:129,1,180,2|2,1:0|3:0,0:0:0:0:
33,99,12945,5,8,2:0:0:0:
15,88,13052,2,0,L|1:24|1:24,1,60,0|8,0:0|1:0,0:0:0:0:
0,250,13266,2,0,B|61:238|61:238|116:280,1,120,2|8,1:0|1:0,0:0:0:0:
168,212,13588,6,0,P|267:219|342:181,1,180,6|0,1:0|0:0,0:0:0:0:
375,265,14016,2,0,P|441:260|502:304,1,120,8|2,2:0|3:0,0:0:0:0:
487,286,14338,1,2,3:0:0:0:
487,286,14445,1,2,3:0:0:0:
467,111,14659,2,0,L|452:178,1,60,2|0,1:0|0:0,0:0:0:0:
423,346,14873,5,8,1:0:0:0:
423,346,14980,2,0,B|369:320|369:320|300:338,1,120,2|0,1:0|0:0,0:0:0:0:
254,284,15302,6,0,P|191:312|73:276,1,180,2|2,1:0|2:0,0:0:0:0:
14,330,15730,2,0,P|11:268|-12:198,1,120,10|2,2:0|3:0,0:0:0:0:
13,181,16052,1,2,3:0:0:0:
0,141,16159,1,2,3:0:0:0:
103,13,16373,6,0,B|72:68|72:68|99:134,1,120,6|10,2:0|1:0,0:0:0:0:
122,197,16695,2,0,B|173:167|173:167|258:185,1,120,6|0,1:0|0:0,0:0:0:0:
281,112,17016,6,0,P|369:112|445:66,1,180,6|0,1:0|0:0,0:0:0:0:
512,117,17445,2,0,L|485:249,1,120,8|2,2:0|3:0,0:0:0:0:
487,234,17766,1,2,3:0:0:0:
487,234,17873,1,2,3:0:0:0:
249,370,18088,6,0,B|233:342|233:342|242:306,1,60,2|0,1:0|0:0,0:0:0:0:
314,280,18302,1,8,1:0:0:0:
280,208,18409,2,0,B|332:233|332:233|398:212,1,120,2|0,1:0|0:0,0:0:0:0:
437,119,18730,6,0,P|421:60|414:0,1,120,2|8,1:0|2:0,0:0:0:0:
322,21,19052,2,0,P|338:80|345:140,1,120,2|8,1:0|1:0,0:0:0:0:
403,197,19373,1,2,1:0:0:0:
75,265,19802,6,0,P|91:324|98:384,1,120,12|0,2:0|0:0,0:0:0:0:
190,363,20124,2,0,P|174:304|167:244,1,120,8|0,1:0|0:0,0:0:0:0:
109,187,20445,1,2,1:0:0:0:
246,32,21945,5,2,1:0:0:0:
313,83,22159,2,0,B|378:118|378:118|468:77,1,143.999995605469,2|2,1:0|3:0,0:0:0:0:
512,0,22802,2,0,P|498:143|514:296,1,287.999991210938,2|0,1:0|0:0,0:0:0:0:
464,368,23873,1,2,1:0:0:0:
191,68,25588,6,0,B|129:102|129:102|51:87,1,143.999995605469,2|2,1:0|3:0,0:0:0:0:
0,13,26230,2,0,P|12:132|7:259,1,215.999993408203,2|2,1:0|1:0,0:0:0:0:
8,338,27088,5,2,1:0:0:0:
8,338,27195,1,2,1:0:0:0:
8,338,27302,2,0,B|54:313|54:313|119:329,1,107.999996704102,2|2,1:0|3:0,0:0:0:0:
196,258,27945,2,0,P|286:291|413:264,1,215.999993408203,2|0,1:0|0:0,0:0:0:0:
512,384,29016,1,2,1:0:0:0:
431,11,30730,6,0,B|371:55|371:55|277:26,1,143.999995605469,2|0,1:0|0:0,0:0:0:0:
235,99,31373,2,0,P|133:83|59:180,1,215.999993408203,2|2,1:0|1:0,0:0:0:0:
3,228,32230,1,0,0:0:0:0:
3,228,32338,1,0,0:0:0:0:
3,228,32445,2,0,P|19:283|31:349,1,107.999996704102,2|2,1:0|3:0,0:0:0:0:
136,371,33088,1,2,1:0:0:0:
136,371,33195,2,0,P|157:308|223:287,1,107.999996704102,2|2,3:0|3:0,0:0:0:0:
261,234,33730,5,2,3:0:0:0:
264,244,33838,1,2,3:0:0:0:
269,258,33945,1,2,3:0:0:0:
273,268,34052,1,2,3:0:0:0:
276,277,34159,2,0,P|346:275|424:305,1,144,2|2,1:0|3:0,0:0:0:0:
472,235,34588,2,0,P|490:204|469:131,1,96,8|2,2:0|3:0,0:0:0:0:
275,13,35016,6,0,P|252:83|284:153,1,144,2|2,1:0|2:0,0:0:0:0:
250,219,35445,2,0,L|147:238,1,96,8|2,1:0|3:0,0:0:0:0:
0,140,35873,6,0,B|29:205|29:205|12:294,1,144,2|2,1:0|3:0,0:0:0:0:
0,352,36302,1,8,2:0:0:0:
132,378,36516,1,2,3:0:0:0:
132,378,36623,1,2,3:0:0:0:
132,378,36730,2,0,P|191:344|290:361,1,144,2|2,1:0|2:0,0:0:0:0:
328,291,37159,2,0,P|387:331|448:317,1,96,8|2,1:0|3:0,0:0:0:0:
409,331,37480,1,2,3:0:0:0:
409,331,37588,1,2,1:0:0:0:
144,220,37909,5,2,3:0:0:0:
144,220,38016,2,0,L|39:245,1,96,8|2,2:0|3:0,0:0:0:0:
0,78,38445,2,0,B|88:121|88:121|180:86,1,192,2|8,1:0|1:0,0:0:0:0:
295,160,39088,5,2,3:0:0:0:
295,160,39195,1,0,0:0:0:0:
295,160,39302,2,0,P|346:136|402:149,1,96,2|2,1:0|3:0,0:0:0:0:
384,140,39623,1,2,3:0:0:0:
384,140,39730,2,0,L|420:27,1,96,8|2,2:0|3:0,0:0:0:0:
495,186,40159,2,0,B|469:256|469:256|500:327,1,144,2|2,1:0|2:0,0:0:0:0:
423,377,40588,5,8,1:0:0:0:
423,377,40695,2,0,P|378:368|327:377,1,96,2|0,1:0|0:0,0:0:0:0:
278,310,41016,6,0,P|215:353|136:348,1,144,2|2,1:0|3:0,0:0:0:0:
79,383,41445,2,0,L|60:280,1,96,8|2,2:0|3:0,0:0:0:0:
61,288,41766,1,0,0:0:0:0:
61,288,41873,1,2,1:0:0:0:
96,139,42088,2,0,B|55:161|55:161|-6:152,1,96,2|8,2:0|1:0,0:0:0:0:
6,153,42409,1,2,1:0:0:0:
188,218,42623,5,0,0:0:0:0:
188,218,42730,2,0,B|251:184|251:184|335:199,1,144,2|2,1:0|3:0,0:0:0:0:
383,149,43159,1,8,2:0:0:0:
263,274,43373,6,0,B|355:254|355:254|447:322,1,192,2|2,3:0|2:0,0:0:0:0:
503,265,44016,1,8,1:0:0:0:
503,265,44123,2,0,L|488:158,1,96,2|2,1:0|3:0,0:0:0:0:
512,90,44445,6,0,P|458:130|381:130,1,144,6|0,1:0|0:0,0:0:0:0:
319,87,44873,1,8,2:0:0:0:
330,278,45088,6,0,P|247:258|149:336,1,192,2|2,1:0|1:0,0:0:0:0:
111,375,45623,1,0,0:0:0:0:
111,375,45730,2,0,P|84:340|106:262,1,96,8|2,1:0|1:0,0:0:0:0:
0,180,46159,6,0,P|49:183|109:150,1,96,2|2,1:0|3:0,0:0:0:0:
142,103,46480,1,8,2:0:0:0:
238,272,46695,5,0,0:0:0:0:
161,311,46802,2,0,P|234:311|316:360,1,144,2|0,1:0|0:0,0:0:0:0:
359,384,47230,1,2,1:0:0:0:
483,321,47445,1,8,1:0:0:0:
483,321,47552,2,0,L|460:183,1,96,2|2,1:0|3:0,0:0:0:0:
256,192,47873,12,2,49588,1:0:0:0:
504,4,51302,6,0,P|443:66|488:164,1,180,6|0,1:0|0:0,0:0:0:0:
389,282,51730,2,0,P|405:230|352:177,1,120,8|2,2:0|3:0,0:0:0:0:
306,134,52052,1,2,3:0:0:0:
239,173,52159,2,0,L|47:211,1,180,2|2,1:0|3:0,0:0:0:0:
3,148,52588,1,8,1:0:0:0:
108,296,52802,5,2,2:0:0:0:
68,360,52909,1,0,0:0:0:0:
0,336,53016,2,0,P|96:330|181:382,1,180,2|0,1:0|0:0,0:0:0:0:
227,314,53445,2,0,P|280:352|336:347,1,120,8|2,2:0|3:0,0:0:0:0:
404,383,53766,1,0,0:0:0:0:
472,340,53873,6,0,L|498:214,1,120,2|2,1:0|3:0,0:0:0:0:
434,57,54195,1,2,3:0:0:0:
365,88,54302,2,0,P|329:143|345:198,1,120,2|2,1:0|3:0,0:0:0:0:
342,193,54730,6,0,P|255:194|202:95,1,180,2|0,1:0|0:0,0:0:0:0:
132,168,55159,2,0,P|86:164|12:240,1,120,8|2,2:0|3:0,0:0:0:0:
160,376,55588,5,2,1:0:0:0:
176,300,55695,1,0,0:0:0:0:
328,184,55909,5,2,3:0:0:0:
344,108,56016,2,0,P|336:76|280:44,1,60,8|0,1:0|0:0,0:0:0:0:
392,240,56230,2,0,P|416:260|464:264,1,60,2|0,2:0|0:0,0:0:0:0:
260,124,56445,6,0,P|180:160|80:144,1,180,2|2,1:0|3:0,0:0:0:0:
20,112,56873,1,8,2:0:0:0:
283,373,57088,6,0,P|231:337|155:349,1,120,2|2,3:0|1:0,0:0:0:0:
106,368,57409,1,0,0:0:0:0:
30,352,57516,1,2,3:0:0:0:
1,281,57623,1,2,3:0:0:0:
17,207,57730,2,0,P|33:151|14:84,1,120,10|2,1:0|1:0,0:0:0:0:
46,19,58052,1,2,1:0:0:0:
110,63,58159,6,0,P|202:55|250:139,1,180,2|0,1:0|0:0,0:0:0:0:
339,99,58588,2,0,P|324:160|335:228,1,120,8|2,2:0|3:0,0:0:0:0:
330,216,58909,1,2,3:0:0:0:
330,216,59016,1,2,1:0:0:0:
204,283,59230,1,2,3:0:0:0:
190,363,59338,1,2,3:0:0:0:
122,315,59445,2,0,P|112:284|48:251,1,60,8|0,1:0|0:0,0:0:0:0:
271,337,59659,2,0,P|291:314|294:265,1,60,2|0,2:0|0:0,0:0:0:0:
164,112,59873,6,0,P|200:193|204:283,1,180,2|2,1:0|2:0,0:0:0:0:
34,378,60302,2,0,P|9:323|7:263,1,120,8|2,2:0|3:0,0:0:0:0:
59,202,60623,1,0,0:0:0:0:
129,234,60730,2,0,P|191:236|252:200,1,120,2|2,1:0|3:0,0:0:0:0:
456,384,61159,2,0,P|379:323|284:338,1,180,8|0,1:0|0:0,0:0:0:0:
227,379,61588,6,0,P|196:335|209:252,1,120,2|2,1:0|3:0,0:0:0:0:
251,210,61909,1,2,3:0:0:0:
195,154,62016,2,0,P|275:160|350:74,1,180,8|0,2:0|0:0,0:0:0:0:
491,223,62445,6,0,P|444:180|368:197,1,120,2|2,1:0|3:0,0:0:0:0:
329,230,62766,1,0,0:0:0:0:
251,210,62873,2,0,P|194:238|50:228,1,180,8|0,1:0|0:0,0:0:0:0:
29,306,63302,6,0,P|21:246|10:187,1,120,6|0,2:0|0:0,0:0:0:0:
30,144,63623,1,2,3:0:0:0:
9,100,63730,1,2,1:0:0:0:
184,48,63945,6,0,L|167:119,1,60,2|2,3:0|3:0,0:0:0:0:
212,249,64159,1,2,1:0:0:0:
285,217,64266,2,0,P|350:217|409:284,1,120,8|0,2:0|0:0,0:0:0:0:
505,93,64588,2,0,P|456:154|478:221,1,120,2|2,3:0|3:0,0:0:0:0:
459,191,65016,6,0,P|368:181|337:69,1,180,6|0,1:0|0:0,0:0:0:0:
258,179,65445,2,0,P|202:169|143:206,1,120,8|2,1:0|3:0,0:0:0:0:
96,256,65766,1,2,3:0:0:0:
23,231,65873,2,0,L|-1:46,1,180,2|0,1:0|0:0,0:0:0:0:
61,0,66302,1,8,2:0:0:0:
111,23,66409,1,0,0:0:0:0:
99,72,66516,1,2,3:0:0:0:
212,251,66730,6,0,P|301:225|394:236,1,180,2|0,1:0|0:0,0:0:0:0:
458,200,67159,1,8,1:0:0:0:
357,65,67373,5,2,3:0:0:0:
310,76,67480,1,0,0:0:0:0:
279,113,67588,1,2,1:0:0:0:
270,160,67695,1,0,0:0:0:0:
291,202,67802,1,2,3:0:0:0:
408,0,68016,2,0,P|332:40|220:29,1,180,8|0,2:0|0:0,0:0:0:0:
17,47,68445,6,0,P|104:42|167:103,1,180,2|0,1:0|0:0,0:0:0:0:
228,153,68873,2,0,L|345:127,1,120,8|2,1:0|3:0,0:0:0:0:
427,142,69195,1,2,3:0:0:0:
505,96,69302,2,0,P|473:182|484:278,1,180,2|0,1:0|0:0,0:0:0:0:
495,349,69730,2,0,P|462:304|399:297,1,120,8|2,2:0|3:0,0:0:0:0:
350,238,70052,1,2,3:0:0:0:
412,191,70159,6,0,B|319:173|340:252|234:231,1,180,2|0,1:0|0:0,0:0:0:0:
207,305,70587,1,8,1:0:0:0:
151,294,70695,1,2,3:0:0:0:
106,321,70802,1,2,3:0:0:0:
57,350,70909,1,0,0:0:0:0:
4,339,71016,1,2,1:0:0:0:
84,172,71230,6,0,L|76:132,2,40,2|2|2,3:0|3:0|3:0,0:0:0:0:
8,226,71445,5,8,2:0:0:0:
7,230,71516,1,0,0:0:0:0:
6,234,71588,1,0,0:0:0:0:
5,237,71659,5,10,1:0:0:0:
3,241,71730,1,2,3:0:0:0:
2,245,71802,1,2,3:0:0:0:
0,251,71873,6,0,P|84:213|180:224,1,180,4|0,1:0|0:0,0:0:0:0:
243,145,72302,2,0,P|264:85|251:28,1,120,8|2,1:0|3:0,0:0:0:0:
184,2,72623,1,2,3:0:0:0:
131,59,72730,2,0,L|66:74,1,60,2|0,1:0|0:0,0:0:0:0:
339,223,72945,5,2,3:0:0:0:
339,223,73052,1,2,3:0:0:0:
339,223,73159,2,0,L|456:248,1,120,8|2,2:0|3:0,0:0:0:0:
508,186,73480,1,2,3:0:0:0:
479,115,73588,6,0,P|397:93|364:-2,1,180,2|2,1:0|3:0,0:0:0:0:
288,56,74016,2,0,P|235:87|167:70,1,120,8|2,1:0|3:0,0:0:0:0:
171,167,74338,1,2,3:0:0:0:
100,150,74445,1,2,1:0:0:0:
32,174,74552,1,0,0:0:0:0:
0,240,74659,2,0,L|20:321,1,60,2|0,3:0|0:0,0:0:0:0:
233,325,74873,2,0,P|167:244|83:243,1,180,8|0,2:0|0:0,0:0:0:0:
32,176,75302,6,0,B|50:115|50:115|21:45,1,120,4|2,1:0|3:0,0:0:0:0:
86,10,75623,1,0,0:0:0:0:
158,38,75730,2,0,P|222:56|329:-13,1,180,8|2,1:0|3:0,0:0:0:0:
495,131,76159,2,0,P|435:89|377:99,1,120,2|2,1:0|3:0,0:0:0:0:
332,141,76480,1,8,1:0:0:0:
258,123,76588,2,0,P|251:93|243:63,1,60,2|0,1:0|0:0,0:0:0:0:
139,133,76802,2,0,L|153:191,1,60,8|0,2:0|0:0,0:0:0:0:
20,124,77016,6,0,B|43:71|43:71|23:-9,1,120,4|0,1:0|0:0,0:0:0:0:
171,81,77338,2,0,B|148:134|148:134|168:214,1,120,2|0,1:0|0:0,0:0:0:0:
59,326,77659,2,0,L|45:266,1,60,2|10,1:0|1:0,0:0:0:0:
46,268,78302,2,0,B|135:257|119:331|225:315,1,180,2|0,2:0|0:0,0:0:0:0:
271,255,78730,6,0,P|327:287|389:263,1,120,6|0,1:0|0:0,0:0:0:0:
378,274,79052,1,0,0:0:0:0:
378,274,79159,1,8,1:0:0:0:
512,384,79373,1,2,3:0:0:0:
463,353,79480,1,2,3:0:0:0:
443,311,79588,1,2,1:0:0:0:
443,254,79695,1,8,2:0:0:0:
469,207,79802,1,0,0:0:0:0:
328,4,80016,6,0,P|319:68|360:116,1,120,8|2,1:0|2:0,0:0:0:0:
402,169,80338,1,0,0:0:0:0:
352,231,80445,6,0,B|292:221|292:221|242:240|242:240|141:223,1,180,2|2,1:0|2:0,0:0:0:0:
133,302,80873,2,0,B|74:292|74:292|8:332,1,120,8|2,2:0|3:0,0:0:0:0:
0,199,81195,2,0,B|59:209|59:209|125:169,1,120
110,177,81516,1,2,3:0:0:0:
255,368,81730,1,8,1:0:0:0:
313,320,81838,2,0,P|329:262|311:202,1,120,2|0,3:0|0:0,0:0:0:0:
348,133,82159,6,0,P|450:119|502:205,1,180,6|0,2:0|0:0,0:0:0:0:
458,244,82588,2,0,P|401:237|327:287,1,120,8|2,1:0|3:0,0:0:0:0:
272,238,82909,1,2,3:0:0:0:
234,292,83016,1,2,1:0:0:0:
174,310,83123,1,0,0:0:0:0:
107,300,83230,1,2,2:0:0:0:
32,88,83445,5,2,1:0:0:0:
32,88,83552,2,0,B|59:146|59:146|41:213,1,120,8|0,2:0|0:0,0:0:0:0:
139,240,83873,6,0,P|203:237|253:202,1,120,10|0,1:0|0:0,0:0:0:0:
395,0,84195,2,0,P|344:40|325:97,1,120,8|0,1:0|0:0,0:0:0:0:
328,344,84516,2,0,P|344:282|327:223,1,120,8|2,1:0|1:0,0:0:0:0:
377,158,84838,1,0,0:0:0:0:
325,91,84945,2,0,P|311:62|319:8,1,60,8|8,1:0|1:0,0:0:0:0:
214,47,85159,5,8,1:0:0:0:
145,14,85266,1,0,0:0:0:0:
72,17,85373,1,2,1:0:0:0:
14,68,85480,1,0,0:0:0:0:
0,144,85587,1,12,1:0:0:0:
256,192,85695,12,0,89016,0:0:0:0:
