osu file format v14

[General]
AudioFilename: audio.mp3
AudioLeadIn: 0
PreviewTime: 104763
Countdown: 0
SampleSet: Soft
StackLeniency: 0.7
Mode: 0
LetterboxInBreaks: 0
WidescreenStoryboard: 1

[Editor]
Bookmarks: 15025,41651,68316,143790,152597,170212,208271
DistanceSpacing: 1.1
BeatDivisor: 8
GridSize: 32
TimelineZoom: 1

[Metadata]
Title:Wildfire
TitleUnicode:野火
Artist:HOYO-MiX feat. Jonathan Steingard
ArtistUnicode:HOYO-MiX feat. Jonathan Steingard
Creator:AirinCat
Version:Normal
Source:Honkai: Star Rail
Tags:崩坏:星穹铁道 雪融于烬 ye huo nobi TetraCalyx Gon 宫奇 Of Snow and Ember original soundtrack hsr english rock video game gacha ost boss battle theme cocolia houkai starrail bronya hoyoverse 崩壊:スターレイル - 雪は灰燼に融ける mihoyo
BeatmapID:4126010
BeatmapSetID:1986333

[Difficulty]
HPDrainRate:3
CircleSize:3
OverallDifficulty:4
ApproachRate:5
SliderMultiplier:2
SliderTickRate:1

[Events]
//Background and Video events
0,0,"bronyaaa.jpg",0,0
//Break Periods
2,95172,104972
2,138474,142579
2,170400,172053
2,173453,175356
//Storyboard Layer 0 (Background)
//Storyboard Layer 1 (Fail)
//Storyboard Layer 2 (Pass)
//Storyboard Layer 3 (Foreground)
//Storyboard Layer 4 (Overlay)
//Storyboard Sound Samples

[TimingPoints]
1639,833.333333333333,4,2,2,50,1,0
30805,-100,4,2,2,50,0,0
31638,-100,4,2,2,50,0,0
38305,-100,4,2,2,40,0,0
39972,-100,4,2,2,50,0,0
40597,-100,4,2,2,60,0,0
41222,-100,4,2,2,60,0,0
41638,-90.9090909090909,4,3,2,70,0,0
68305,-100,4,2,1,50,0,0
94972,-100,4,2,1,30,0,0
107888,-100,4,2,1,70,0,0
108305,-90.9090909090909,4,3,1,70,0,1
134972,550.45871559633,4,2,1,50,1,0
134972,-100,4,2,1,50,0,0
143779,-100,4,2,1,60,0,0
152581,-100,4,3,1,70,0,0
169645,-100,4,3,1,70,0,0
170201,857.142857142857,4,2,1,70,1,0
170201,-166.666666666667,4,2,1,70,0,0
171903,821.917808219178,4,2,1,70,1,0
172450,857.142857142857,4,2,1,70,1,0
172878,750,4,2,1,70,1,0
173253,825.877494838266,4,2,2,50,1,0
178208,833.333333333333,4,2,2,70,1,0
178208,-100,4,2,2,70,0,0
178833,-125,4,2,1,70,0,0
181124,-100,4,2,1,70,0,0
181541,-90.9090909090909,4,3,1,70,0,1
208208,-100,4,2,1,70,0,0

[Colours]
Combo1 : 182,206,220
Combo2 : 151,169,255
Combo3 : 222,173,241

[HitObjects]
0,355,14972,5,4,0:3:0:0:
0,355,16638,2,0,L|195:313,1,200,8|0,0:1|0:3,0:3:0:0:
360,167,18305,1,12,0:3:0:0:
360,167,19972,2,0,P|404:226|405:299,2,150,8|8|4,0:1|0:3|0:3,0:3:0:0:
254,135,21638,6,0,P|157:162|56:186,1,200,4|0,0:3|0:3,0:3:0:0:
194,359,23305,2,0,P|281:317|308:223,1,200,8|0,0:1|0:3,0:3:0:0:
176,47,24972,1,4,0:3:0:0:
176,47,26638,2,0,P|103:67|31:88,2,150,8|8|4,0:1|0:3|0:3,0:3:0:0:
282,73,28305,2,0,P|364:124|460:103,1,200,12|0,0:3|0:3,0:3:0:0:
379,308,29972,2,0,P|299:328|224:355,1,150,8|0,0:3|0:3,0:3:0:0:
185,328,30805,2,0,P|104:313|63:254,1,150,2|0,0:2|0:3,0:3:0:0:
70,207,31638,5,2,1:2:0:0:
69,207,33305,2,0,P|46:132|81:61,1,150,8|8,0:1|0:1,0:3:0:0:
170,15,34347,1,8,0:3:0:0:
170,15,34555,1,4,0:3:0:0:
247,92,34972,2,0,P|331:112|444:140,1,200,4|0,0:3|0:3,0:3:0:0:
355,341,36638,1,8,0:1:0:0:
355,341,38305,1,4,0:3:0:0:
42,384,39972,6,0,B|12:344|12:344|30:287,1,100,8|0,0:1|0:3,0:3:0:0:
71,262,40597,2,0,P|127:273|191:289,1,100,12|8,0:3|0:3,0:3:0:0:
206,322,41222,1,4,0:3:0:0:
320,283,41638,6,0,P|346:235|341:181,1,110.000003356934,4|0,1:1|0:2,0:2:0:0:
247,103,42472,2,0,L|187:118,2,55.0000016784668,0|0|0,0:2|0:2|0:2,0:2:0:0:
335,20,43305,2,0,P|382:32|447:52,1,110.000003356934,8|0,0:1|0:2,0:2:0:0:
499,36,43930,2,0,P|478:92|464:153,1,110.000003356934,2|0,0:2|0:2,0:2:0:0:
453,205,44555,1,2,0:2:0:0:
453,205,44763,1,0,0:2:0:0:
453,205,44972,6,0,L|476:312,1,110.000003356934,6|0,1:2|0:2,0:2:0:0:
366,363,45805,2,0,L|305:376,2,55.0000016784668,0|0|0,0:2|0:2|0:2,0:2:0:0:
324,249,46638,2,0,P|273:260|210:277,1,110.000003356934,14|0,1:1|0:2,0:2:0:0:
176,320,47263,2,0,P|124:303|62:285,1,110.000003356934,6|0,1:2|0:2,0:2:0:0:
39,235,47888,2,0,L|54:177,1,55.0000016784668,8|8,0:2|0:2,0:0:0:0:
18,131,48305,5,6,1:2:0:0:
133,94,48722,2,0,P|129:40|94:-1,2,110.000003356934,2|2|2,0:2|0:2|0:2,0:2:0:0:
245,151,49972,1,8,0:1:0:0:
245,151,50180,2,0,P|303:135|368:118,1,110.000003356934,8|0,0:1|0:2,0:0:0:0:
394,80,50805,1,2,0:2:0:0:
491,151,51222,2,0,L|481:208,1,55.0000016784668,2|8,0:2|0:2,0:2:0:0:
429,235,51638,5,4,1:2:0:0:
400,352,52055,1,2,1:2:0:0:
281,374,52472,1,2,1:2:0:0:
190,293,52888,1,2,1:2:0:0:
251,188,53305,2,0,L|263:126,1,55.0000016784668,8|8,0:1|0:1,0:0:0:0:
302,89,53722,2,0,L|289:31,1,55.0000016784668,8|0,0:2|1:2,0:0:0:0:
234,11,54138,2,0,B|139:21|167:48|78:77,1,165.000005035401,8|8,0:2|0:2,0:0:0:0:
27,53,54972,6,0,P|39:95|58:172,1,110.000003356934,4|0,1:1|0:2,0:2:0:0:
53,280,55805,2,0,P|23:286|-7:295,2,55.0000016784668,0|0|0,0:2|0:2|0:2,0:2:0:0:
169,245,56638,2,0,P|215:259|278:280,1,110.000003356934,8|2,0:1|0:2,0:0:0:0:
317,320,57263,2,0,P|370:298|431:284,1,110.000003356934,2|0,0:2|0:2,0:2:0:0:
488,283,57888,1,2,0:2:0:0:
488,283,58097,1,2,0:2:0:0:
488,283,58305,6,0,P|508:233|511:170,1,110.000003356934,4|0,1:2|0:2,0:2:0:0:
431,86,59138,2,0,P|432:58|444:31,2,55.0000016784668,0|0|0,0:2|0:2|0:2,0:2:0:0:
321,137,59972,2,0,P|263:137|206:116,1,110.000003356934,8|8,0:1|0:2,0:0:0:0:
173,75,60597,2,0,P|119:86|62:114,1,110.000003356934,6|8,1:2|0:3,0:2:0:0:
17,139,61222,2,0,P|24:168|29:199,1,55.0000016784668,8|8,0:3|0:2,0:0:0:0:
9,250,61638,5,6,1:2:0:0:
110,315,62055,2,0,P|161:296|223:286,1,110.000003356934,2|0,0:2|0:2,0:2:0:0:
298,198,62888,2,0,P|296:173|285:144,1,55.0000016784668,2|0,0:2|0:2,0:2:0:0:
312,90,63305,2,0,P|364:76|414:96,1,110.000003356934,8|2,0:1|0:2,0:2:0:0:
474,85,63930,2,0,P|465:141|459:194,1,110.000003356934,2|0,0:2|0:2,0:0:0:0:
495,255,64555,1,2,0:2:0:0:
495,255,64763,1,2,0:2:0:0:
495,255,64972,5,0,1:2:0:0:
421,351,65388,1,2,0:2:0:0:
421,351,65597,2,0,P|359:339|297:329,1,110.000003356934,2|0,0:2|0:2,0:0:0:0:
263,296,66222,2,0,L|204:308,1,55.0000016784668,2|2,0:2|0:2,0:0:0:0:
163,346,66638,2,0,P|111:331|43:311,1,110.000003356934,12|0,0:1|0:2,0:2:0:0:
18,268,67263,2,0,B|19:209|19:209|63:161,1,110.000003356934,12|8,0:3|0:2,0:2:0:0:
122,176,67888,1,4,0:3:0:0:
122,176,68097,1,8,0:2:0:0:
122,176,68305,5,0,1:2:0:0:
230,197,68722,1,0,0:2:0:0:
303,116,69138,1,8,0:2:0:0:
303,116,69347,2,0,L|407:145,1,100,8|0,0:2|0:2,0:2:0:0:
439,180,69972,1,2,1:2:0:0:
417,287,70388,1,2,0:2:0:0:
318,336,70805,2,0,P|263:318|200:304,1,100,8|0,0:2|0:2,0:2:0:0:
193,267,71430,1,8,0:3:0:0:
193,267,71638,6,0,L|222:148,1,100,0|0,1:2|0:2,0:2:0:0:
114,144,72472,1,8,0:2:0:0:
114,144,72680,2,0,P|98:200|89:263,1,100,8|0,0:2|0:2,0:2:0:0:
56,284,73305,1,0,1:2:0:0:
56,284,73513,1,8,0:3:0:0:
136,366,73930,1,0,1:2:0:0:
136,366,74138,1,8,0:2:0:0:
235,319,74555,2,0,P|243:287|254:256,1,50,0|8,1:2|0:3,0:0:0:0:
225,220,74972,6,0,P|215:168|197:105,1,100,0|0,1:2|0:2,0:2:0:0:
253,26,75805,1,8,0:2:0:0:
253,26,76013,2,0,P|309:15|358:-6,1,100,8|0,0:2|0:2,0:2:0:0:
394,29,76638,2,0,P|443:41|506:64,1,100,2|2,1:2|0:2,0:0:0:0:
511,165,77472,2,0,P|491:215|482:266,1,100,10|0,0:2|0:2,0:2:0:0:
438,290,78097,1,2,0:2:0:0:
438,290,78305,6,0,P|384:280|336:263,1,100,0|0,1:2|0:2,0:2:0:0:
258,201,79138,1,8,0:2:0:0:
258,201,79347,2,0,P|204:208|152:223,1,100,8|8,0:2|0:3,0:2:0:0:
130,266,79972,1,2,1:2:0:0:
130,266,80180,1,2,0:2:0:0:
32,226,80597,1,0,1:2:0:0:
32,226,80805,2,0,P|3:158|27:89,1,150,10|8,0:2|0:2,0:2:0:0:
74,60,81638,6,0,L|57:-1,2,50,2|0|2,1:2|1:2|0:2,0:0:0:0:
185,90,82472,1,8,0:2:0:0:
185,90,82680,2,0,P|235:80|288:59,1,100,8|0,0:2|0:2,0:2:0:0:
313,18,83305,1,2,1:2:0:0:
422,26,83722,1,2,0:2:0:0:
477,120,84138,2,0,P|463:170|452:231,1,100,10|0,0:2|0:2,0:2:0:0:
407,241,84763,1,2,0:2:0:0:
407,241,84972,6,0,P|416:283|428:344,1,100,0|0,1:2|0:2,0:2:0:0:
324,369,85805,1,8,0:2:0:0:
324,369,86013,2,0,P|314:326|303:266,1,100,8|2,0:2|0:2,0:2:0:0:
255,245,86638,1,2,1:2:0:0:
166,310,87055,2,0,P|133:315|96:326,1,50,0|2,0:2|1:2,0:0:0:0:
64,302,87472,2,0,L|8:288,2,50,8|8|2,0:2|0:2|1:2,0:0:0:0:
129,213,88305,6,0,P|126:163|112:115,1,100,2|0,1:2|0:2,0:2:0:0:
138,8,89138,2,0,P|88:9|31:31,1,100,8|0,0:2|0:2,0:2:0:0:
9,131,89972,1,2,1:2:0:0:
103,186,90388,1,2,0:2:0:0:
190,118,90805,2,0,P|233:126|311:144,1,100,10|0,0:2|0:2,0:2:0:0:
335,175,91430,1,2,0:2:0:0:
335,175,91638,6,0,P|380:162|439:146,1,100,0|0,1:2|0:2,0:2:0:0:
468,252,92472,2,0,P|416:265|370:279,1,100,10|0,0:2|0:2,0:2:0:0:
288,349,93305,1,2,1:2:0:0:
288,349,93513,2,0,P|239:333|184:321,1,100,2|8,0:2|0:3,0:2:0:0:
145,293,94138,2,0,P|115:302|83:313,2,50,8|4|6,0:2|0:3|1:2,0:0:0:0:
183,189,94972,1,4,1:3:0:0:
290,361,107888,6,0,P|297:340|306:304,1,50,2|2,0:3|0:3,0:0:0:0:
273,260,108305,2,0,P|202:221|124:241,1,165.000005035401,6|0,1:1|1:2,0:2:0:0:
73,274,109138,1,10,0:2:0:0:
12,169,109555,1,2,0:2:0:0:
118,108,109972,1,2,0:2:0:0:
118,108,110180,2,0,P|161:119|235:142,1,110.000003356934,2|2,1:2|0:2,0:0:0:0:
275,169,110805,2,0,L|349:152,1,55.0000016784668,8|2,0:2|1:2,0:0:0:0:
363,107,111222,2,0,P|390:115|425:124,1,55.0000016784668,2|10,1:2|0:2,0:0:0:0:
469,94,111638,6,0,P|448:186|440:221,1,110.000003356934,4|0,1:2|0:2,0:2:0:0:
464,330,112472,1,8,0:2:0:0:
464,330,112680,1,8,0:2:0:0:
464,330,112888,1,8,0:2:0:0:
355,379,113305,1,2,0:2:0:0:
355,379,113513,1,2,1:2:0:0:
236,354,113930,2,0,L|225:278,1,55.0000016784668,2|8,1:2|0:2,0:0:0:0:
268,254,114347,2,0,P|276:215|284:185,1,55.0000016784668,0|4,1:2|0:3,0:0:0:0:
254,151,114763,1,4,1:3:0:0:
254,151,114972,6,0,P|189:137|136:123,2,110.000003356934,2|2|10,1:1|0:2|0:2,0:2:0:0:
371,104,116222,2,0,L|385:46,1,55.0000016784668,2|2,0:1|1:1,0:0:0:0:
353,0,116638,1,0,0:0:0:0:
235,28,117055,1,2,1:2:0:0:
116,3,117472,1,10,0:2:0:0:
55,107,117888,2,0,L|72:166,1,55.0000016784668,2|0,0:2|1:2,0:0:0:0:
133,193,118305,5,4,1:2:0:0:
133,193,118513,1,2,1:1:0:0:
133,193,118722,2,0,P|183:170|237:165,1,110.000003356934,2|8,0:1|0:2,0:2:0:0:
340,101,119555,2,0,P|348:66|347:38,2,55.0000016784668,8|8|12,0:3|0:3|0:3,0:0:0:0:
409,200,120388,2,0,P|445:207|474:219,1,55.0000016784668,12|8,0:3|0:3,0:0:0:0:
512,185,120805,2,0,B|506:255|467:260|469:359,1,165.000005035401,8|8,0:2|0:2,0:0:0:0:
415,370,121638,5,4,1:1:0:0:
321,293,122055,2,0,P|296:299|261:311,1,55.0000016784668,0|0,1:2|1:2,0:0:0:0:
219,344,122472,2,0,P|160:326|98:310,1,110.000003356934,8|2,0:2|0:2,0:2:0:0:
24,231,123305,2,0,P|23:170|58:129,1,110.000003356934,2|2,0:2|1:2,0:0:0:0:
115,122,123930,1,2,0:2:0:0:
115,122,124138,2,0,L|170:145,1,55.0000016784668,8|2,0:2|1:2,0:0:0:0:
208,185,124555,2,0,L|274:175,1,55.0000016784668,2|8,0:2|0:2,0:0:0:0:
309,138,124972,6,0,P|365:149|435:161,1,110.000003356934,4|0,1:2|0:2,0:2:0:0:
498,262,125805,1,8,0:2:0:0:
498,262,126013,1,8,0:2:0:0:
498,262,126222,1,8,0:2:0:0:
426,359,126638,2,0,P|365:369|314:386,1,110.000003356934,2|2,0:2|1:2,0:0:0:0:
261,365,127263,2,0,P|252:325|241:299,1,55.0000016784668,2|8,0:2|0:2,0:2:0:0:
280,261,127680,2,0,B|307:214|307:214|288:147,1,110.000003356934,2|2,1:2|1:1,0:2:0:0:
248,117,128305,5,4,1:2:0:0:
140,171,128722,2,0,L|30:149,1,110.000003356934,2|8,0:2|0:2,0:2:0:0:
45,32,129555,1,2,0:1:0:0:
45,32,129763,2,0,L|175:54,1,110.000003356934,2|8,1:1|0:2,0:2:0:0:
209,72,130388,2,0,P|239:62|270:56,1,55.0000016784668,0|2,1:2|1:2,0:0:0:0:
310,21,130805,2,0,P|361:31|422:48,1,110.000003356934,8|2,0:2|0:2,0:0:0:0:
456,100,131430,1,0,1:2:0:0:
456,100,131638,5,12,0:2:0:0:
370,185,132055,1,8,0:2:0:0:
370,185,132263,2,0,P|379:242|391:302,1,110.000003356934,8|0,0:2|1:2,0:0:0:0:
354,344,132888,1,10,0:2:0:0:
354,344,133097,2,0,P|299:351|247:369,1,110.000003356934,10|8,0:3|0:2,0:2:0:0:
205,327,133722,2,0,L|137:314,1,55.0000016784668,4|4,0:3|0:3,0:0:0:0:
94,338,134138,2,0,B|44:333|37:308|-12:305,2,110.000003356934,8|8|8,0:2|0:2|0:2,0:0:0:0:
256,192,135109,12,0,138274,0:2:0:0:
215,352,143779,6,0,P|163:364|115:378,1,100,4|0,1:2|1:2,0:2:0:0:
21,325,144329,1,10,0:2:0:0:
10,215,144605,1,2,0:2:0:0:
100,153,144880,2,0,P|85:98|73:49,2,100,2|2|2,0:2|0:2|0:2,0:2:0:0:
202,193,145705,2,0,P|259:173|304:157,1,100,2|0,0:2|1:2,0:0:0:0:
460,305,146531,2,0,P|412:317|354:339,1,100,8|8,0:2|0:2,0:0:0:0:
265,286,147082,5,0,1:2:0:0:
359,229,147357,1,0,1:2:0:0:
360,119,147632,1,8,0:2:0:0:
277,46,147907,2,0,P|227:62|159:78,1,100,0|2,1:2|1:2,0:0:0:0:
7,209,148733,2,0,P|25:256|41:319,1,100,10|2,0:2|0:2,0:2:0:0:
121,375,149283,6,0,P|134:322|152:265,1,100,0|0,1:2|1:2,0:0:0:0:
241,220,149834,1,8,0:2:0:0:
313,302,150109,2,0,P|355:312|414:340,1,100,2|4,0:2|1:3,0:0:0:0:
502,280,150660,1,2,0:2:0:0:
431,195,150935,1,10,0:2:0:0:
503,112,151210,1,8,0:3:0:0:
397,80,151485,2,0,B|328:61|328:35|251:29,2,150,2|4|4,1:2|1:3|0:3,0:2:0:0:
418,188,152586,6,0,P|367:245|371:321,1,150,4|0,1:2|1:2,0:2:0:0:
341,363,153137,2,0,P|300:351|237:340,1,100,10|2,0:2|0:2,0:2:0:0:
158,271,153687,1,2,1:2:0:0:
52,300,153962,1,2,1:2:0:0:
0,196,154238,1,8,0:2:0:0:
89,132,154513,1,2,0:2:0:0:
194,162,154788,6,0,P|251:180|347:206,1,150,4|0,1:3|1:2,0:2:0:0:
388,181,155338,2,0,P|408:132|414:79,1,100,10|8,0:2|0:3,0:2:0:0:
332,11,155889,1,2,1:2:0:0:
241,73,156164,1,2,1:2:0:0:
149,11,156439,1,8,0:2:0:0:
48,55,156715,1,6,1:3:0:0:
10,158,156990,6,0,P|30:223|49:308,1,150,4|0,1:1|1:2,0:2:0:0:
40,357,157540,2,0,P|92:338|139:328,1,100,10|2,0:2|0:2,0:2:0:0:
193,234,158091,2,0,P|188:204|176:173,2,50,2|8|2,0:2|0:2|1:2,0:0:0:0:
298,265,158641,1,8,0:2:0:0:
403,233,158916,6,0,P|411:183|425:135,1,100,2|4,0:2|1:3,0:0:0:0:
356,49,159467,1,2,0:2:0:0:
252,85,159742,2,0,P|201:71|149:47,2,100,10|8|2,0:2|0:3|1:2,0:2:0:0:
310,178,160568,1,2,0:2:0:0:
230,254,160843,2,0,P|154:227|79:219,1,150,8|4,0:2|0:3,0:0:0:0:
30,224,161394,6,0,P|10:170|26:124,1,100,6|2,1:1|1:2,0:2:0:0:
110,66,161944,2,0,P|154:80|215:99,1,100,10|0,0:2|0:2,0:2:0:0:
268,185,162494,1,2,1:2:0:0:
377,194,162770,1,2,1:2:0:0:
436,101,163045,1,10,0:2:0:0:
362,19,163320,1,2,0:2:0:0:
253,23,163595,6,0,P|176:45|106:66,1,150,4|0,1:3|1:2,0:0:0:0:
54,53,164146,2,0,L|43:4,2,50,8|8|8,0:2|0:2|0:2,0:0:0:0:
9,153,164696,2,0,P|19:202|30:258,1,100,2|2,0:2|1:2,0:2:0:0:
123,307,165247,1,8,0:2:0:0:
203,232,165522,1,4,0:3:0:0:
302,278,165797,6,0,P|386:274|441:224,1,150,4|0,1:2|1:2,0:2:0:0:
490,230,166348,2,0,P|478:178|470:126,1,100,10|2,0:2|0:2,0:2:0:0:
388,58,166898,2,0,L|402:3,2,50,2|8|0,0:2|0:2|1:2,0:0:0:0:
294,117,167449,1,10,0:2:0:0:
203,54,167724,2,0,B|151:48|151:48|107:78,1,100,8|6,0:3|1:2,0:0:0:0:
34,153,168274,2,0,P|47:200|56:259,1,100,2|8,0:2|0:2,0:2:0:0:
50,360,168825,2,0,P|108:344|152:335,1,100,8|4,0:3|0:3,0:0:0:0:
235,270,169375,1,0,0:2:0:0:
318,341,169650,2,0,P|362:350|423:368,2,100,4|2|2,0:3|0:2|0:3,0:2:0:0:
47,211,173253,5,6,0:3:0:0:
467,337,176556,5,4,0:3:0:0:
13,370,178208,2,0,L|-1:320,1,50,12|12,0:3|0:3,0:0:0:0:
9,282,178624,1,12,0:3:0:0:
9,282,178833,2,0,P|48:268|94:257,1,80,2|2,0:1|0:1,0:1:0:0:
144,324,179666,2,0,P|186:332|231:345,1,80,2|2,0:1|0:1,0:0:0:0:
284,280,180499,2,0,P|323:267|369:258,1,80,2|2,0:1|0:1,0:0:0:0:
401,298,181124,2,0,P|428:304|455:312,1,50,8|8,0:2|0:0,0:0:0:0:
491,348,181541,6,0,P|502:287|515:228,1,110.000003356934,6|0,1:1|1:2,0:2:0:0:
485,192,182166,1,0,1:2:0:0:
485,192,182374,1,10,0:2:0:0:
376,137,182791,1,2,0:2:0:0:
288,220,183208,1,2,0:2:0:0:
288,220,183416,2,0,P|237:235|176:253,1,110.000003356934,2|2,1:2|1:2,0:0:0:0:
125,245,184041,2,0,L|106:186,1,55.0000016784668,8|2,0:2|1:2,0:0:0:0:
61,153,184458,2,0,L|69:95,1,55.0000016784668,2|8,0:2|0:2,0:0:0:0:
96,45,184874,6,0,P|135:58|213:67,1,110.000003356934,4|0,1:2|0:2,0:2:0:0:
302,155,185708,1,8,0:2:0:0:
302,155,185916,1,8,0:2:0:0:
302,155,186124,1,8,0:2:0:0:
416,109,186541,1,2,0:2:0:0:
416,109,186749,1,2,1:2:0:0:
488,205,187166,2,0,P|480:235|477:273,1,55.0000016784668,2|8,1:2|0:2,0:0:0:0:
446,310,187583,2,0,P|413:301|374:294,1,55.0000016784668,4|4,1:3|0:3,0:0:0:0:
351,341,187999,1,2,1:1:0:0:
351,341,188208,6,0,P|292:352|237:373,2,110.000003356934,6|2|10,1:1|0:2|0:2,0:2:0:0:
323,228,189458,1,2,0:1:0:0:
323,228,189666,2,0,P|268:235|215:249,1,110.000003356934,2|8,1:1|0:2,0:0:0:0:
157,228,190291,1,2,1:2:0:0:
67,309,190708,1,10,0:2:0:0:
7,203,191124,2,0,P|12:172|13:140,1,55.0000016784668,2|2,0:2|1:2,0:0:0:0:
52,104,191541,5,4,1:1:0:0:
52,104,191749,1,2,1:1:0:0:
52,104,191958,2,0,P|113:111|168:114,1,110.000003356934,2|8,0:1|0:2,0:2:0:0:
268,170,192791,2,0,P|344:158|403:92,1,165.000005035401,8|0,0:2|1:2,0:0:0:0:
413,35,193624,1,10,0:2:0:0:
504,114,194041,2,0,P|478:201|468:300,1,165.000005035401,8|8,0:2|0:2,0:0:0:0:
468,335,194874,5,4,1:1:0:0:
357,289,195291,2,0,P|327:285|288:279,1,55.0000016784668,0|0,1:2|1:2,0:0:0:0:
252,316,195708,2,0,P|188:329|142:341,1,110.000003356934,10|2,0:2|0:2,0:2:0:0:
47,268,196541,2,0,P|59:204|73:151,1,110.000003356934,2|2,0:2|1:2,0:0:0:0:
132,148,197166,1,2,0:2:0:0:
132,148,197374,2,0,L|193:162,1,55.0000016784668,8|2,0:2|1:2,0:0:0:0:
224,206,197791,2,0,L|290:196,1,55.0000016784668,2|8,0:2|0:2,0:0:0:0:
332,170,198208,6,0,P|342:112|357:61,1,110.000003356934,4|0,1:2|0:2,0:2:0:0:
264,5,199041,1,8,0:2:0:0:
264,5,199249,1,8,0:2:0:0:
264,5,199458,1,8,0:2:0:0:
172,84,199874,2,0,P|111:94|60:111,1,110.000003356934,2|2,1:2|1:2,0:0:0:0:
45,166,200499,2,0,P|53:192|58:219,1,55.0000016784668,2|8,1:2|0:2,0:2:0:0:
102,261,200916,2,0,B|155:269|155:269|200:235,1,110.000003356934,2|2,1:2|1:1,0:2:0:0:
239,189,201541,5,6,1:1:0:0:
340,255,201958,2,0,L|450:277,1,110.000003356934,2|8,0:2|0:2,0:2:0:0:
480,162,202791,1,2,0:1:0:0:
480,162,202999,2,0,L|350:140,1,110.000003356934,2|8,1:1|0:2,0:2:0:0:
336,93,203624,2,0,P|308:97|281:99,1,55.0000016784668,0|0,1:2|1:2,0:0:0:0:
225,122,204041,2,0,P|171:107|118:96,1,110.000003356934,8|0,0:2|1:2,0:0:0:0:
71,134,204666,1,2,1:1:0:0:
71,134,204874,5,4,1:1:0:0:
158,225,205291,1,8,0:2:0:0:
158,225,205499,2,0,P|148:282|137:342,1,110.000003356934,8|8,0:2|0:2,0:0:0:0:
192,372,206124,1,10,1:2:0:0:
192,372,206333,2,0,B|241:341|241:341|307:363,1,110.000003356934,8|4,0:3|1:3,0:0:0:0:
353,377,206958,1,4,1:3:0:0:
353,377,207166,2,0,P|405:358|466:343,1,110.000003356934,8|8,0:3|0:2,0:0:0:0:
479,288,207791,2,0,B|482:232|482:232|435:177,1,110.000003356934,8|8,0:2|0:2,0:0:0:0:
256,192,208416,12,0,211541,0:2:0:0:
