osu file format v14

[General]
AudioFilename: audio.mp3
AudioLeadIn: 0
PreviewTime: 104763
Countdown: 0
SampleSet: Soft
StackLeniency: 0.7
Mode: 0
LetterboxInBreaks: 0
WidescreenStoryboard: 1

[Editor]
Bookmarks: 15025,41651,68316,143790,152597,170212,208271
DistanceSpacing: 2.2
BeatDivisor: 8
GridSize: 32
TimelineZoom: 1

[Metadata]
Title:Wildfire
TitleUnicode:野火
Artist:HOYO-MiX feat. Jonathan Steingard
ArtistUnicode:HOYO-MiX feat. Jonathan Steingard
Creator:AirinCat
Version:Insane
Source:Honkai: Star Rail
Tags:崩坏:星穹铁道 雪融于烬 ye huo nobi TetraCalyx Gon 宫奇 Of Snow and Ember original soundtrack hsr english rock video game gacha ost boss battle theme cocolia houkai starrail bronya hoyoverse 崩壊:スターレイル - 雪は灰燼に融ける mihoyo
BeatmapID:4126009
BeatmapSetID:1986333

[Difficulty]
HPDrainRate:5
CircleSize:3.6
OverallDifficulty:7
ApproachRate:8.6
SliderMultiplier:2.2
SliderTickRate:1

[Events]
//Background and Video events
0,0,"bronyaaa.jpg",0,0
//Break Periods
2,95171,104313
2,138474,143120
2,173453,175897
//Storyboard Layer 0 (Background)
//Storyboard Layer 1 (Fail)
//Storyboard Layer 2 (Pass)
//Storyboard Layer 3 (Foreground)
//Storyboard Layer 4 (Overlay)
//Storyboard Sound Samples

[TimingPoints]
1639,833.333333333333,4,2,2,50,1,0
30800,-83.3333333333333,4,2,2,50,0,0
31633,-100,4,2,2,50,0,0
38300,-100,4,2,2,40,0,0
39972,-100,4,2,2,50,0,0
40592,-83.3333333333333,4,2,2,50,0,0
41217,-71.4285714285714,4,2,2,60,0,0
41633,-66.6666666666667,4,3,2,70,0,0
68300,-76.9230769230769,4,2,1,50,0,0
94967,-100,4,2,1,30,0,0
107883,-66.6666666666667,4,2,1,70,0,0
108305,-58.8235294117647,4,3,1,70,0,1
134972,550.45871559633,4,2,1,50,1,0
134972,-100,4,2,1,50,0,0
143779,-66.6666666666667,4,2,1,60,0,0
152581,-66.6666666666667,4,3,1,70,0,0
169650,-83.3333333333333,4,3,1,70,0,0
170201,857.142857142857,4,2,1,70,1,0
170201,-166.666666666667,4,2,1,70,0,0
171903,821.917808219178,4,2,1,70,1,0
171903,-100,4,2,1,70,0,0
172450,857.142857142857,4,2,1,70,1,0
172450,-100,4,2,1,70,0,0
172878,750,4,2,1,70,1,0
173253,825.877494838266,4,2,2,50,1,0
173253,-100,4,2,2,50,0,0
178208,833.333333333333,4,2,2,70,1,0
178833,-250,4,2,1,70,0,0
181124,-66.6666666666667,4,2,1,70,0,0
181541,-58.8235294117647,4,3,1,70,0,1
208208,-100,4,2,1,70,0,0

[Colours]
Combo1 : 182,206,220
Combo2 : 151,169,255
Combo3 : 222,173,241

[HitObjects]
18,240,14972,5,4,0:3:0:0:
18,240,16638,2,0,P|123:226|197:302,1,220,8|0,0:1|0:3,0:3:0:0:
512,181,18305,1,12,0:3:0:0:
512,181,19972,2,0,P|408:180|363:131,2,165,8|8|4,0:1|0:3|0:3,0:3:0:0:
263,11,21638,6,0,P|242:107|217:241,1,220,4|0,0:3|0:3,0:3:0:0:
0,237,23305,2,0,L|35:355,1,110,8|0,0:1|0:3,0:3:0:0:
330,384,24138,2,0,L|358:270,1,110,0|0,0:3|0:3,0:3:0:0:
279,222,24763,1,0,0:3:0:0:
335,143,24972,6,0,P|440:156|489:250,1,220,4|0,0:3|0:3,0:3:0:0:
124,366,26638,2,0,L|94:248,1,110,8|0,0:1|0:3,0:3:0:0:
186,202,27263,2,0,L|218:84,1,110,8|0,0:3|0:3,0:3:0:0:
124,52,27888,2,0,L|104:-11,1,55,4|0,0:3|0:3,0:3:0:0:
341,135,28305,6,0,P|446:112|511:26,1,220,12|0,0:3|0:3,0:3:0:0:
180,119,29972,2,0,L|211:281,1,165,8|0,0:3|0:3,0:3:0:0:
126,338,30805,2,0,P|33:322|4:232,1,197.99999395752,2|0,0:2|0:3,0:3:0:0:
60,156,31638,1,2,1:2:0:0:
60,156,33305,2,0,L|173:197,1,110,8|0,0:1|0:3,0:3:0:0:
271,291,33930,2,0,L|343:275,1,55,8|0,0:1|0:3,0:3:0:0:
406,116,34347,1,8,0:3:0:0:
299,101,34555,2,0,L|315:164,1,55,4|0,0:3|0:3,0:3:0:0:
460,378,34972,6,0,L|516:150,1,220,4|0,0:3|0:3,0:3:0:0:
512,164,36638,1,8,0:1:0:0:
512,164,38305,1,4,0:3:0:0:
210,381,39972,6,0,P|147:365|103:358,1,110,8|0,0:1|0:3,0:3:0:0:
39,270,40597,2,0,P|63:211|124:192,1,131.99999597168,12|8,0:3|0:3,0:3:0:0:
207,106,41222,2,0,P|217:143|228:183,1,76.9999976501466,4|0,0:3|0:3,0:3:0:0:
407,345,41638,6,0,P|485:317|512:239,1,165.000006294251,4|0,1:1|0:2,0:2:0:0:
440,148,42263,1,0,0:2:0:0:
440,148,42472,2,0,P|402:161|349:180,1,82.5000031471254,0|0,0:2|0:2,0:2:0:0:
300,273,42888,1,0,0:2:0:0:
300,273,43097,1,0,0:2:0:0:
101,201,43305,2,0,P|60:130|65:49,1,165.000006294251,8|0,0:1|0:2,0:2:0:0:
242,0,43930,2,0,P|282:70|277:151,1,165.000006294251,2|0,0:2|0:2,0:2:0:0:
170,129,44555,1,2,0:2:0:0:
170,129,44763,1,0,0:2:0:0:
377,234,44972,6,0,P|454:209|496:140,1,165.000006294251,6|0,1:2|0:2,0:2:0:0:
404,13,45597,1,0,0:2:0:0:
404,13,45805,2,0,L|388:102,1,82.5000031471254,0|0,0:2|0:2,0:2:0:0:
496,140,46222,2,0,L|480:229,1,82.5000031471254,0|0,0:2|0:2,0:2:0:0:
244,350,46638,2,0,P|164:335|118:269,1,165.000006294251,14|0,1:1|0:2,0:2:0:0:
138,35,47263,2,0,P|200:84|208:171,1,165.000006294251,6|0,1:2|0:2,0:2:0:0:
7,237,47888,1,8,0:2:0:0:
0,219,47993,1,8,0:2:0:0:
0,199,48097,1,8,0:2:0:0:
12,183,48201,1,8,0:2:0:0:
29,175,48305,6,0,P|66:185|114:215,1,82.5000031471254,6|0,1:2|0:2,0:2:0:0:
342,176,48722,2,0,P|390:111|387:30,2,165.000006294251,2|2|2,0:2|0:2|0:2,0:2:0:0:
342,176,49972,1,8,0:1:0:0:
150,111,50180,1,8,0:1:0:0:
233,10,50388,2,0,L|256:97,1,82.5000031471254,2|0,0:2|0:2,0:2:0:0:
96,285,50805,2,0,P|39:228|44:148,1,165.000006294251,2|2,0:2|0:2,0:2:0:0:
0,0,51430,5,8,0:2:0:0:
0,0,51534,1,8,0:2:0:0:
0,0,51638,2,0,L|83:28,1,82.5000031471254,4|0,1:2|0:2,0:2:0:0:
203,172,52055,2,0,L|295:149,1,82.5000031471254,2|0,1:2|0:2,0:2:0:0:
402,11,52472,2,0,L|487:34,1,82.5000031471254,2|0,1:2|0:2,0:2:0:0:
466,334,52888,2,0,P|406:283|403:179,1,165.000006294251,2|8,1:2|0:1,0:2:0:0:
493,200,53513,1,8,0:1:0:0:
329,346,53722,6,0,L|271:332,3,41.2500015735627,8|8|0|8,0:2|0:2|1:2|0:2,0:0:0:0:
232,241,54138,2,0,L|177:250,3,41.2500015735627,8|8|8|8,0:2|0:2|0:2|0:2,0:0:0:0:
111,325,54555,1,8,0:3:0:0:
93,329,54659,1,8,0:3:0:0:
77,331,54763,1,8,0:2:0:0:
60,336,54868,1,8,0:2:0:0:
43,336,54972,6,0,P|52:293|58:251,1,82.5000031471254,4|0,1:1|0:0,0:2:0:0:
0,135,55388,2,0,P|37:138|89:148,1,82.5000031471254,0|0,0:2|0:2,0:0:0:0:
198,8,55805,2,0,P|186:45|180:89,1,82.5000031471254,0|0,0:2|0:2,0:2:0:0:
252,190,56222,2,0,P|293:197|334:206,1,82.5000031471254,0|0,0:2|0:2,0:2:0:0:
501,58,56638,5,8,0:1:0:0:
399,8,56847,1,2,0:2:0:0:
364,103,57055,1,2,0:2:0:0:
478,173,57263,2,0,P|465:240|449:342,1,165.000006294251,2|0,0:2|0:2,0:2:0:0:
324,384,57888,2,0,P|311:342|299:292,1,82.5000031471254,2|2,0:2|0:2,0:0:0:0:
153,138,58305,6,0,P|72:145|16:203,1,165.000006294251,4|0,1:2|0:2,0:2:0:0:
4,293,58930,1,0,0:2:0:0:
4,293,59138,2,0,L|33:378,1,82.5000031471254,0|0,0:2|0:2,0:2:0:0:
158,333,59555,2,0,L|129:248,1,82.5000031471254,0|0,0:2|0:2,0:2:0:0:
228,76,59972,5,8,0:1:0:0:
361,171,60180,2,0,L|425:152,3,41.2500015735627,8|8|8|8,0:2|0:2|0:2|0:2,0:0:0:0:
341,76,60597,2,0,P|262:90|219:158,1,165.000006294251,6|8,1:2|0:3,0:2:0:0:
121,296,61222,5,8,0:3:0:0:
121,296,61326,1,8,0:2:0:0:
121,296,61430,1,8,0:2:0:0:
121,296,61534,1,8,0:2:0:0:
121,296,61638,2,0,P|158:302|223:321,1,82.5000031471254,6|0,1:2|0:2,0:2:0:0:
396,383,62055,2,0,P|432:311|409:234,1,165.000006294251,2|0,0:2|0:2,0:2:0:0:
409,234,62888,6,0,P|368:243|326:260,1,82.5000031471254,2|0,0:2|0:2,0:2:0:0:
126,137,63305,2,0,P|140:52|220:3,1,165.000006294251,8|2,0:1|0:2,0:2:0:0:
327,12,63930,1,2,0:2:0:0:
345,123,64138,1,0,0:2:0:0:
471,109,64347,1,0,0:2:0:0:
440,21,64555,1,2,0:2:0:0:
440,21,64763,1,2,0:2:0:0:
233,122,64972,6,0,P|256:233|271:302,1,165.000006294251,0|2,1:2|0:2,0:2:0:0:
40,367,65597,2,0,P|18:266|-1:204,1,165.000006294251,2|0,0:2|0:2,0:0:0:0:
69,105,66222,1,2,0:2:0:0:
69,105,66430,1,2,0:2:0:0:
287,203,66638,2,0,P|366:189|415:125,1,165.000006294251,12|0,0:1|0:2,0:2:0:0:
309,0,67263,2,0,P|297:33|284:84,1,82.5000031471254,12|0,0:3|0:2,0:2:0:0:
486,280,67680,1,8,0:2:0:0:
486,280,67888,2,0,P|497:246|511:196,1,82.5000031471254,4|8,0:3|0:2,0:0:0:0:
236,231,68305,6,0,P|157:249|91:265,1,142.99999345398,0|0,1:2|0:2,0:2:0:0:
96,263,69138,1,8,0:2:0:0:
0,95,69347,2,0,L|145:138,1,142.99999345398,8|0,0:2|0:2,0:2:0:0:
254,124,69972,2,0,P|298:69|298:0,1,142.99999345398,2|2,1:2|0:2,0:2:0:0:
0,208,70805,2,0,P|21:278|42:369,1,142.99999345398,8|0,0:2|0:2,0:2:0:0:
133,369,71430,1,8,0:3:0:0:
244,278,71638,6,0,B|319:269|316:303|404:310,1,142.99999345398,0|0,1:2|0:2,0:2:0:0:
382,307,72472,1,8,0:2:0:0:
512,192,72680,2,0,P|491:106|483:49,1,142.99999345398,8|0,0:2|0:2,0:2:0:0:
335,0,73305,2,0,P|262:-2|197:50,1,142.99999345398,0|0,1:2|0:2,0:0:0:0:
104,162,73930,1,0,1:2:0:0:
12,107,74138,2,0,P|23:70|31:33,1,71.4999967269899,8|0,0:2|0:2,0:2:0:0:
210,131,74555,1,0,1:2:0:0:
210,131,74763,1,8,0:3:0:0:
125,258,74972,6,0,P|54:260|-4:212,1,142.99999345398,0|0,1:2|0:2,0:2:0:0:
0,218,75805,1,8,0:2:0:0:
192,384,76013,2,0,P|207:308|230:222,1,142.99999345398,8|0,0:2|0:2,0:2:0:0:
388,129,76638,2,0,P|424:137|465:147,1,71.4999967269899,2|8,1:2|0:3,0:0:0:0:
512,269,77055,2,0,P|474:277|433:290,1,71.4999967269899,2|0,0:2|0:2,0:2:0:0:
297,130,77472,2,0,P|297:59|340:4,1,142.99999345398,10|0,0:2|0:2,0:2:0:0:
428,28,78097,1,2,0:2:0:0:
196,147,78305,6,0,P|125:125|45:107,1,142.99999345398,0|0,1:2|0:2,0:2:0:0:
58,109,79138,1,8,0:2:0:0:
56,358,79347,2,0,P|117:325|140:259,1,142.99999345398,8|8,0:2|0:3,0:2:0:0:
0,193,79972,1,2,1:2:0:0:
0,193,80180,2,0,P|9:218|29:271,1,71.4999967269899,2|0,0:2|0:0,0:2:0:0:
225,363,80597,2,0,L|247:295,1,71.4999967269899,0|10,1:2|0:2,0:0:0:0:
159,134,81013,1,0,1:2:0:0:
159,134,81118,1,8,0:2:0:0:
159,134,81222,2,0,L|172:188,3,35.749998363495,8|8|8|8,0:2|0:2|0:2|0:2,0:0:0:0:
270,193,81638,6,0,P|307:184|343:169,1,71.4999967269899,2|0,1:2|1:2,0:0:0:0:
119,28,82055,2,0,P|54:77|49:146,1,142.99999345398,2|8,0:2|0:2,0:2:0:0:
0,308,82680,2,0,P|69:309|122:263,1,142.99999345398,8|0,0:2|0:2,0:2:0:0:
46,134,83305,2,0,P|38:163|27:222,1,71.4999967269899,2|0,1:2|0:2,0:2:0:0:
204,346,83722,2,0,P|211:316|223:258,1,71.4999967269899,2|0,0:2|0:2,0:2:0:0:
366,189,84138,2,0,P|435:196|483:247,1,142.99999345398,10|0,0:2|0:2,0:2:0:0:
420,303,84763,1,2,0:2:0:0:
231,173,84972,6,0,P|248:91|266:20,1,142.99999345398,0|0,1:2|0:2,0:2:0:0:
262,33,85805,1,8,0:2:0:0:
102,131,86013,2,0,L|9:104,1,71.4999967269899,8|0,0:2|0:2,0:2:0:0:
119,25,86430,1,2,0:2:0:0:
266,134,86638,2,0,P|348:110|425:94,1,142.99999345398,2|0,1:2|0:2,0:2:0:0:
496,169,87263,2,0,L|479:254,1,71.4999967269899,2|8,1:2|0:2,0:0:0:0:
360,379,87680,1,8,0:2:0:0:
250,271,87888,1,2,1:2:0:0:
363,257,88097,1,0,0:2:0:0:
211,371,88305,6,0,P|121:347|43:331,1,142.99999345398,2|0,1:2|0:2,0:2:0:0:
72,336,89138,1,8,0:2:0:0:
182,229,89347,2,0,L|217:87,1,142.99999345398,2|0,0:2|0:2,0:0:0:0:
51,8,89972,2,0,L|81:85,1,71.4999967269899,2|0,1:2|0:2,0:2:0:0:
0,210,90388,2,0,L|80:181,1,71.4999967269899,2|0,0:2|0:2,0:2:0:0:
216,90,90805,2,0,P|297:104|366:119,1,142.99999345398,10|0,0:2|0:2,0:2:0:0:
413,184,91430,1,2,0:2:0:0:
316,356,91638,6,0,P|266:305|267:230,1,142.99999345398,0|0,1:2|0:2,0:2:0:0:
264,236,92472,1,10,0:2:0:0:
461,141,92680,2,0,P|510:191|509:266,1,142.99999345398,2|0,0:0|0:2,0:0:0:0:
289,149,93305,1,2,1:2:0:0:
289,149,93513,2,0,L|306:72,1,71.4999967269899,2|0,0:2|0:2,0:2:0:0:
398,218,93930,1,8,0:3:0:0:
271,334,94138,1,8,0:2:0:0:
385,360,94347,5,4,0:3:0:0:
227,238,94555,2,0,P|150:260|74:290,1,142.99999345398,6|4,1:2|1:3,0:0:0:0:
256,192,104972,12,0,107680,0:2:0:0:
30,220,107888,6,0,L|39:169,3,41.2500015735627,2|2|2|2,0:3|0:3|0:3|0:3,0:0:0:0:
126,132,108305,2,0,P|216:138|267:212,1,187.000003566742,6|0,1:1|1:2,0:2:0:0:
267,212,108930,1,0,1:2:0:0:
167,357,109138,2,0,L|145:255,1,93.500001783371,10|0,0:2|0:2,0:2:0:0:
243,119,109555,1,2,0:2:0:0:
243,119,109763,1,0,1:2:0:0:
418,290,109972,5,2,0:2:0:0:
512,168,110180,2,0,P|467:155|412:131,1,93.500001783371,2|0,1:2|1:2,0:0:0:0:
252,320,110597,2,0,P|204:333|156:351,1,93.500001783371,2|8,0:2|0:2,0:2:0:0:
0,249,111013,1,2,1:2:0:0:
136,130,111222,1,2,1:2:0:0:
53,335,111430,5,10,0:2:0:0:
53,335,111534,1,8,0:2:0:0:
53,335,111638,2,0,P|35:257|5:143,1,187.000003566742,4|0,1:2|0:2,0:2:0:0:
124,42,112263,1,0,1:2:0:0:
273,193,112472,1,8,0:2:0:0:
396,100,112680,1,8,0:2:0:0:
294,0,112888,2,0,P|283:39|267:99,1,93.500001783371,8|0,0:2|1:2,0:0:0:0:
490,233,113305,5,2,0:2:0:0:
390,318,113513,2,0,P|347:308|279:291,1,93.500001783371,2|0,1:2|1:2,0:0:0:0:
66,145,113930,2,0,P|122:131|164:117,1,93.500001783371,2|8,1:2|0:2,0:0:0:0:
221,373,114347,1,0,1:2:0:0:
96,271,114555,1,4,0:3:0:0:
221,197,114763,5,4,1:3:0:0:
67,382,114972,2,0,P|2:317|1:225,1,187.000003566742,2|2,1:1|0:2,0:2:0:0:
79,154,115597,1,0,1:2:0:0:
243,318,115805,2,0,L|354:285,1,93.500001783371,10|8,0:2|0:2,0:2:0:0:
331,75,116222,5,2,0:1:0:0:
214,153,116430,2,0,P|149:89|155:0,1,187.000003566742,2|8,1:1|0:2,0:0:0:0:
437,69,117055,2,0,P|427:115|419:174,1,93.500001783371,2|0,1:2|1:2,0:2:0:0:
215,309,117472,2,0,P|170:293|121:283,1,93.500001783371,10|0,0:2|1:2,0:2:0:0:
239,116,117888,1,2,0:2:0:0:
358,282,118097,1,0,1:2:0:0:
512,190,118305,5,4,1:2:0:0:
512,190,118513,1,2,1:1:0:0:
414,45,118722,2,0,L|389:141,1,93.500001783371,2|0,0:1|1:2,0:2:0:0:
439,381,119138,2,0,L|464:285,1,93.500001783371,8|0,0:2|1:2,0:0:0:0:
293,155,119555,1,8,0:3:0:0:
190,301,119763,1,8,0:3:0:0:
39,102,119972,1,12,0:3:0:0:
209,88,120180,1,12,0:3:0:0:
92,251,120388,6,0,L|-23:284,1,93.500001783371,12|8,0:3|0:3,0:0:0:0:
0,247,120701,1,8,0:3:0:0:
8,239,120805,2,0,L|65:260,3,46.7500008916855,8|8|8|8,0:2|0:2|0:2|0:2,0:0:0:0:
133,352,121222,2,8,L|202:337,3,46.7500008916855,8|8|8|8,0:2|0:2|0:2|0:2,0:2:0:0:
276,238,121638,6,0,P|258:146|236:55,1,187.000003566742,4|0,1:1|1:2,0:2:0:0:
235,55,122263,1,0,1:2:0:0:
383,139,122472,2,0,P|377:92|363:38,1,93.500001783371,8|0,0:2|0:2,0:2:0:0:
127,100,122888,2,0,P|132:146|147:201,1,93.500001783371,2|0,0:2|1:2,0:2:0:0:
257,380,123305,5,2,0:2:0:0:
424,199,123513,1,2,1:2:0:0:
258,201,123722,1,2,1:2:0:0:
391,366,123930,2,0,P|436:351|488:336,1,93.500001783371,2|8,0:2|0:2,0:2:0:0:
362,136,124347,1,2,1:2:0:0:
362,136,124555,1,2,0:2:0:0:
176,252,124763,5,8,0:2:0:0:
176,252,124868,1,8,0:2:0:0:
176,252,124972,2,0,P|80:219|53:125,1,187.000003566742,4|0,1:2|0:2,0:2:0:0:
150,141,125597,1,0,1:2:0:0:
15,276,125805,2,0,P|25:316|42:376,1,93.500001783371,8|8,0:2|0:2,0:0:0:0:
304,278,126222,2,0,P|293:237|277:178,1,93.500001783371,8|0,0:2|1:2,0:0:0:0:
27,10,126638,5,2,0:2:0:0:
104,174,126847,1,2,1:2:0:0:
243,100,127055,1,2,1:2:0:0:
104,174,127263,2,0,P|60:160|5:146,1,93.500001783371,2|8,0:2|0:2,0:2:0:0:
241,0,127680,2,0,P|324:37|352:132,1,187.000003566742,2|2,1:2|1:1,0:2:0:0:
208,361,128305,6,0,P|197:315|183:270,1,93.500001783371,4|0,1:2|0:2,0:2:0:0:
480,157,128722,2,0,P|497:203|517:262,1,93.500001783371,2|0,0:2|1:2,0:2:0:0:
405,384,129138,1,8,0:2:0:0:
405,384,129347,1,0,1:2:0:0:
286,303,129555,1,2,0:1:0:0:
391,211,129763,1,2,1:1:0:0:
210,120,129972,1,0,0:0:0:0:
416,50,130180,1,8,0:2:0:0:
265,212,130388,5,0,1:2:0:0:
101,155,130597,2,0,P|87:112|72:53,1,93.500001783371,2|8,1:2|0:2,0:0:0:0:
288,0,131013,1,0,1:2:0:0:
288,0,131222,2,0,P|300:46|321:98,1,93.500001783371,2|0,0:2|1:2,0:0:0:0:
111,373,131638,5,12,0:2:0:0:
23,237,131847,1,8,0:2:0:0:
23,237,131951,1,8,0:2:0:0:
23,237,132055,1,8,0:2:0:0:
186,188,132263,2,0,B|277:205|264:233|361:251,1,187.000003566742,8|0,0:2|1:2,0:0:0:0:
499,37,132888,2,0,P|456:47|402:64,1,93.500001783371,10|10,0:2|0:3,0:0:0:0:
403,370,133305,1,8,0:3:0:0:
512,250,133513,1,8,0:2:0:0:
375,152,133722,1,4,0:3:0:0:
258,331,133930,5,4,0:3:0:0:
258,331,134034,1,4,0:3:0:0:
258,331,134138,2,0,L|246:276,3,46.7500008916855,8|8|8|8,0:2|0:2|0:2|0:2,0:0:0:0:
178,222,134555,2,0,L|186:165,1,46.7500008916855,8|8,0:2|0:2,0:0:0:0:
276,128,134763,2,0,L|268:71,1,46.7500008916855,8|8,0:2|0:2,0:0:0:0:
204,42,134972,1,8,0:2:0:0:
256,192,135109,12,0,138274,0:2:0:0:
0,285,143779,6,0,P|57:229|137:233,1,165.000006294251,4|0,1:2|1:2,0:2:0:0:
239,282,144192,1,0,1:2:0:0:
239,282,144329,2,0,L|318:260,1,82.5000031471254,10|0,0:2|0:2,0:2:0:0:
411,322,144605,2,0,P|452:334|500:351,1,82.5000031471254,2|0,0:2|0:2,0:2:0:0:
412,189,144880,2,0,P|423:106|449:20,2,165.000006294251,2|2|2,0:2|0:2|0:2,0:2:0:0:
144,384,145705,2,0,P|131:348|114:300,1,82.5000031471254,2|0,0:2|1:2,0:0:0:0:
123,292,145912,1,0,1:2:0:0:
131,280,145981,6,0,P|210:272|270:325,1,165.000006294251,0|0,1:2|0:2,0:2:0:0:
356,271,146394,1,0,1:2:0:0:
433,361,146531,2,0,P|444:314|457:270,1,82.5000031471254,8|8,0:2|0:2,0:0:0:0:
297,119,146806,1,8,0:2:0:0:
297,119,146944,1,0,1:2:0:0:
297,119,147082,2,0,P|286:158|276:198,1,82.5000031471254,0|0,1:2|1:2,0:0:0:0:
177,272,147357,2,0,L|95:251,1,82.5000031471254,0|0,1:2|1:2,0:2:0:0:
0,149,147632,2,0,L|85:123,1,82.5000031471254,8|0,0:2|1:2,0:0:0:0:
160,0,147907,2,0,L|186:89,1,82.5000031471254,0|0,1:2|1:2,0:0:0:0:
1,249,148183,5,2,1:2:0:0:
1,249,148595,1,0,1:2:0:0:
81,297,148733,2,0,P|138:238|220:231,1,165.000006294251,10|2,0:2|0:2,0:2:0:0:
325,126,149146,1,0,1:2:0:0:
325,126,149283,2,0,L|347:212,1,82.5000031471254,0|8,1:2|0:2,0:0:0:0:
303,384,149559,1,0,1:2:0:0:
303,384,149696,1,0,1:2:0:0:
303,384,149834,2,0,L|281:298,1,82.5000031471254,8|0,0:2|1:2,0:2:0:0:
432,204,150109,6,0,L|525:226,1,82.5000031471254,2|0,0:2|1:2,0:0:0:0:
502,356,150384,1,4,1:3:0:0:
502,356,150522,1,4,1:3:0:0:
502,356,150660,2,0,L|417:331,1,82.5000031471254,2|0,0:2|1:2,0:2:0:0:
290,159,150935,6,0,B|286:115|286:115|318:71,1,82.5000031471254,10|0,0:2|1:2,0:2:0:0:
450,129,151210,1,8,0:3:0:0:
450,129,151348,1,0,1:2:0:0:
450,129,151485,2,0,B|454:173|454:173|431:203,1,82.5000031471254,2|0,1:2|1:2,0:2:0:0:
315,278,151760,1,8,0:3:0:0:
229,241,151898,2,0,L|146:260,1,82.5000031471254,4|8,1:3|0:2,0:2:0:0:
46,375,152173,1,4,0:3:0:0:
46,375,152242,1,4,0:3:0:0:
46,375,152311,2,0,L|86:365,3,41.2500015735627,4|4|4|4,0:3|0:3|0:3|0:3,0:0:0:0:
115,348,152586,6,0,P|99:268|79:188,1,165.000006294251,4|0,1:2|1:2,0:2:0:0:
0,106,152999,1,0,1:2:0:0:
0,106,153137,2,0,P|40:100|80:87,1,82.5000031471254,10|0,0:2|0:2,0:2:0:0:
188,0,153412,2,0,P|200:40|208:84,1,82.5000031471254,2|0,0:2|1:2,0:2:0:0:
357,206,153687,6,0,P|437:194|491:134,1,165.000006294251,2|2,1:2|1:2,0:0:0:0:
384,22,154100,1,0,1:2:0:0:
384,22,154238,2,0,P|374:53|364:110,1,82.5000031471254,8|0,0:2|1:2,0:0:0:0:
497,347,154513,2,0,P|504:307|515:258,1,82.5000031471254,2|0,0:2|1:2,0:0:0:0:
349,202,154788,6,0,B|256:215|288:234|194:255,1,165.000006294251,4|0,1:3|0:2,0:2:0:0:
97,216,155201,1,0,1:2:0:0:
194,255,155338,2,0,P|207:291|221:342,1,82.5000031471254,10|0,0:2|1:2,0:2:0:0:
62,384,155614,2,0,P|48:347|35:297,1,82.5000031471254,8|8,0:3|0:3,0:2:0:0:
142,88,155889,5,2,1:2:0:0:
142,88,156027,1,0,1:2:0:0:
142,88,156164,2,0,P|185:74|224:60,1,82.5000031471254,2|8,1:2|0:3,0:2:0:0:
384,194,156439,2,0,P|422:205|479:223,1,82.5000031471254,8|0,0:2|1:2,0:0:0:0:
494,139,156715,1,6,1:3:0:0:
494,139,156852,1,4,1:3:0:0:
358,100,156990,6,0,P|297:153|285:233,1,165.000006294251,4|2,1:1|0:2,0:2:0:0:
429,373,157403,1,0,1:2:0:0:
429,373,157540,2,0,P|440:330|457:274,1,82.5000031471254,10|0,0:2|1:2,0:2:0:0:
285,233,157816,2,0,L|261:324,1,82.5000031471254,2|0,0:2|1:2,0:2:0:0:
127,375,158091,5,2,0:2:0:0:
127,375,158228,1,8,0:2:0:0:
127,375,158366,2,0,P|87:362|30:343,1,82.5000031471254,2|0,1:2|1:2,0:2:0:0:
32,105,158641,2,0,P|110:150|124:230,1,165.000006294251,8|2,0:2|0:2,0:2:0:0:
32,238,159054,1,0,1:2:0:0:
127,218,159192,2,0,L|155:126,1,82.5000031471254,4|4,1:3|1:3,0:0:0:0:
110,32,159467,2,0,P|59:20|21:6,1,82.5000031471254,2|0,0:2|1:2,0:2:0:0:
247,187,159742,6,0,P|328:189|384:131,1,165.000006294251,10|8,0:2|0:3,0:2:0:0:
292,15,160155,1,8,0:3:0:0:
292,15,160293,2,0,P|282:53|273:95,1,82.5000031471254,2|0,1:2|1:2,0:2:0:0:
462,277,160568,2,0,P|470:235|502:103,1,165.000006294251,2|8,0:2|0:2,0:2:0:0:
435,47,160981,1,4,0:3:0:0:
435,47,161049,1,4,0:3:0:0:
435,47,161118,2,0,L|375:61,3,41.2500015735627,4|4|4|4,0:3|0:3|0:3|0:3,0:0:0:0:
352,138,161394,6,0,P|271:115|174:94,1,165.000006294251,6|2,1:1|1:2,0:2:0:0:
73,48,161806,1,0,1:2:0:0:
73,48,161944,2,0,L|89:128,1,82.5000031471254,10|0,0:2|0:0,0:2:0:0:
222,204,162219,2,0,L|205:284,1,82.5000031471254,0|0,0:2|1:2,0:0:0:0:
84,374,162494,1,2,1:2:0:0:
84,374,162632,1,0,1:2:0:0:
84,374,162770,2,0,L|-10:344,1,82.5000031471254,2|8,1:2|0:3,0:0:0:0:
21,236,163045,2,0,L|112:257,1,82.5000031471254,10|0,0:2|1:2,0:0:0:0:
258,367,163320,1,2,0:2:0:0:
258,367,163458,1,0,1:2:0:0:
345,324,163595,6,0,P|375:254|368:141,1,165.000006294251,4|2,1:3|0:2,0:0:0:0:
232,42,164008,1,0,1:2:0:0:
199,142,164146,1,8,0:2:0:0:
199,142,164283,1,8,0:2:0:0:
199,142,164421,2,0,P|241:137|292:116,1,82.5000031471254,8|0,0:2|1:2,0:0:0:0:
359,42,164696,2,0,P|409:55|446:69,1,82.5000031471254,2|0,0:2|1:2,0:2:0:0:
512,214,164971,2,0,P|473:223|424:243,1,82.5000031471254,2|0,1:2|1:2,0:2:0:0:
322,370,165247,1,8,0:2:0:0:
322,370,165384,1,0,1:2:0:0:
322,370,165522,2,0,P|305:332|297:273,1,82.5000031471254,4|4,0:3|0:3,0:0:0:0:
340,146,165797,6,0,P|277:196|197:190,1,165.000006294251,4|0,1:2|0:2,0:2:0:0:
30,65,166210,1,0,1:2:0:0:
30,65,166348,2,0,L|126:93,1,82.5000031471254,10|0,0:2|0:2,0:2:0:0:
233,4,166623,2,0,L|214:85,1,82.5000031471254,2|0,0:2|1:2,0:2:0:0:
74,179,166898,2,0,L|95:258,1,82.5000031471254,2|8,0:2|0:2,0:0:0:0:
275,214,167173,2,0,L|196:189,1,82.5000031471254,0|0,1:2|1:2,0:0:0:0:
68,374,167449,1,10,0:2:0:0:
68,374,167586,1,0,1:2:0:0:
68,374,167724,2,0,P|113:354|151:347,1,82.5000031471254,8|0,0:3|1:2,0:0:0:0:
305,310,167999,6,0,B|350:277|389:274|389:274|467:323,1,165.000006294251,6|2,1:2|0:2,0:2:0:0:
497,384,168412,1,0,1:2:0:0:
451,313,168549,2,0,L|476:205,1,82.5000031471254,8|0,0:2|1:2,0:2:0:0:
512,140,168825,1,8,0:3:0:0:
512,140,168962,1,4,1:3:0:0:
512,140,169100,2,0,P|417:129|351:95,1,165.000006294251,4|0,0:3|0:2,0:2:0:0:
289,48,169513,1,4,0:3:0:0:
289,48,169650,2,0,P|310:110|318:198,1,131.99999597168,4|2,0:3|0:2,0:2:0:0:
51,358,170201,6,0,P|38:324|32:281,2,65.9999979858399,2|2|2,0:3|0:3|0:3,0:3:0:0:
51,358,171486,1,2,0:3:0:0:
378,384,171903,2,0,P|388:345|393:309,1,73.3333333333333,2|2,0:3|0:3,0:3:0:0:
311,214,172450,2,0,P|251:227|201:240,1,110,2|2,0:3|0:3,0:3:0:0:
203,239,173253,5,6,0:3:0:0:
79,367,176556,5,4,0:3:0:0:
60,308,178208,5,12,0:3:0:0:
266,176,178416,1,12,0:3:0:0:
60,308,178624,1,12,0:3:0:0:
192,373,178833,6,0,L|200:317,2,44,2|2|2,0:1|0:1|0:1,0:1:0:0:
51,98,180083,6,0,L|39:49,2,44,2|2|2,0:1|0:1|0:1,0:1:0:0:
172,176,181124,5,8,0:2:0:0:
181,182,181228,1,8,0:2:0:0:
190,188,181333,2,0,L|233:173,1,41.2500015735627,8|8,0:0|0:0,0:0:0:0:
329,87,181541,6,0,P|417:106|460:186,1,187.000003566742,6|0,1:1|1:2,0:2:0:0:
460,186,182166,1,0,1:2:0:0:
296,384,182374,2,0,L|270:293,1,93.500001783371,10|0,0:2|0:2,0:2:0:0:
374,227,182791,1,2,0:2:0:0:
374,227,182999,1,0,1:2:0:0:
139,356,183208,5,2,0:2:0:0:
37,293,183416,2,0,P|25:246|4:186,1,93.500001783371,2|0,1:2|1:2,0:0:0:0:
220,26,183833,2,0,P|233:75|245:121,1,93.500001783371,2|8,1:2|0:2,0:2:0:0:
168,235,184249,1,2,1:2:0:0:
86,117,184458,1,2,0:2:0:0:
369,195,184666,5,8,0:2:0:0:
369,195,184770,1,8,0:2:0:0:
369,195,184874,2,0,P|456:169|506:92,1,187.000003566742,4|0,1:2|0:2,0:2:0:0:
396,38,185499,1,0,1:2:0:0:
255,199,185708,1,8,0:2:0:0:
133,105,185916,1,8,0:2:0:0:
250,0,186124,2,0,P|261:41|276:89,1,93.500001783371,8|0,0:2|1:2,0:0:0:0:
139,251,186541,5,2,0:2:0:0:
255,375,186749,2,0,P|267:327|284:271,1,93.500001783371,2|0,1:2|1:2,0:0:0:0:
21,191,187166,2,0,L|-1:290,1,93.500001783371,2|8,1:2|0:2,0:0:0:0:
255,141,187583,1,4,1:3:0:0:
102,38,187791,1,4,0:3:0:0:
125,160,187999,1,2,1:1:0:0:
286,25,188208,6,0,P|338:40|382:54,1,93.500001783371,6|0,1:1|0:0,0:2:0:0:
244,316,188624,2,0,P|231:265|222:220,1,93.500001783371,2|0,0:2|1:2,0:2:0:0:
495,43,189041,2,0,L|463:162,1,93.500001783371,10|0,0:2|1:2,0:2:0:0:
428,354,189458,5,2,0:1:0:0:
357,229,189666,2,0,P|448:234|505:311,1,187.000003566742,2|8,1:1|0:2,0:2:0:0:
286,384,190291,2,0,P|255:371|193:357,1,93.500001783371,0|0,1:2|1:2,0:0:0:0:
121,128,190708,2,0,P|76:139|31:152,1,93.500001783371,10|0,0:2|1:2,0:0:0:0:
79,365,191124,1,2,0:2:0:0:
203,245,191333,1,2,1:2:0:0:
25,259,191541,5,4,1:1:0:0:
25,259,191749,1,2,1:1:0:0:
121,128,191958,2,0,P|115:89|93:35,1,93.500001783371,2|0,0:1|1:2,0:2:0:0:
315,154,192374,2,0,P|363:142|428:111,1,93.500001783371,8|8,0:2|0:2,0:0:0:0:
413,112,192687,1,8,0:2:0:0:
403,103,192791,2,0,P|387:143|379:199,1,93.500001783371,8|8,0:2|0:2,0:0:0:0:
460,384,193208,2,0,P|476:344|484:288,1,93.500001783371,0|0,1:2|1:2,0:0:0:0:
194,139,193624,6,0,P|170:189|162:244,1,93.500001783371,10|8,0:2|0:3,0:0:0:0:
167,246,193937,1,8,0:3:0:0:
178,262,194041,2,0,L|240:277,3,46.7500008916855,8|8|8|8,0:2|0:2|0:2|0:2,0:0:0:0:
300,360,194458,2,8,L|365:337,3,46.7500008916855,8|8|8|8,0:2|0:2|0:2|0:2,0:2:0:0:
393,244,194874,6,0,P|359:131|336:37,1,187.000003566742,4|0,1:1|1:2,0:2:0:0:
342,64,195499,1,0,1:2:0:0:
460,0,195708,2,0,P|472:43|494:102,1,93.500001783371,10|0,0:2|0:2,0:2:0:0:
236,177,196124,2,0,P|223:133|202:75,1,93.500001783371,2|0,0:2|1:2,0:2:0:0:
512,196,196541,5,2,0:2:0:0:
401,384,196749,1,2,1:2:0:0:
273,271,196958,1,2,1:2:0:0:
389,247,197166,2,0,P|439:260|485:275,1,93.500001783371,2|8,0:2|0:2,0:2:0:0:
372,77,197583,1,2,1:2:0:0:
372,77,197791,1,2,0:2:0:0:
158,199,197999,5,8,0:2:0:0:
158,199,198103,1,8,0:2:0:0:
158,199,198208,2,0,P|97:129|109:33,1,187.000003566742,4|0,1:2|0:2,0:2:0:0:
198,9,198833,1,0,1:2:0:0:
306,151,199041,2,0,L|275:255,1,93.500001783371,8|8,0:2|0:2,0:0:0:0:
88,373,199458,2,0,L|63:271,1,93.500001783371,8|0,0:2|1:2,0:0:0:0:
170,136,199874,5,2,1:2:0:0:
279,240,200083,1,2,1:2:0:0:
448,152,200291,1,2,1:2:0:0:
343,0,200499,2,0,P|330:44|317:94,1,93.500001783371,2|8,1:2|0:2,0:2:0:0:
357,375,200916,2,0,P|451:354|491:273,1,187.000003566742,2|2,1:2|1:1,0:2:0:0:
254,158,201541,6,0,P|209:172|160:186,1,93.500001783371,6|0,1:1|0:0,0:2:0:0:
30,10,201958,2,0,P|72:27|132:48,1,93.500001783371,2|0,0:2|1:2,0:2:0:0:
169,336,202374,1,8,0:2:0:0:
169,336,202583,1,0,1:2:0:0:
0,217,202791,5,2,0:1:0:0:
69,153,202999,2,0,B|167:165|142:214|231:239,1,187.000003566742,2|8,1:1|0:2,0:2:0:0:
392,24,203624,2,0,P|346:36|299:49,1,93.500001783371,0|0,1:2|1:2,0:0:0:0:
384,370,204041,1,8,0:2:0:0:
512,263,204249,1,0,1:2:0:0:
388,130,204458,1,0,1:2:0:0:
230,239,204666,1,2,1:1:0:0:
112,89,204874,6,0,P|126:43|140:-4,1,93.500001783371,4|0,1:1|1:2,0:2:0:0:
263,135,205291,1,8,0:2:0:0:
97,295,205499,2,0,P|50:281|5:275,1,93.500001783371,8|0,0:2|1:2,0:0:0:0:
62,168,205916,1,8,0:2:0:0:
235,367,206124,1,10,1:2:0:0:
376,172,206333,1,8,0:3:0:0:
222,198,206541,1,8,0:3:0:0:
373,356,206749,1,4,1:3:0:0:
451,263,206958,1,4,1:3:0:0:
292,79,207166,5,8,0:3:0:0:
292,79,207270,1,8,0:3:0:0:
292,79,207374,2,0,L|274:144,3,46.7500008916855,8|8|8|8,0:2|0:2|0:2|0:2,0:0:0:0:
198,159,207791,2,0,L|209:205,1,46.7500008916855,8|8,0:2|0:2,0:0:0:0:
291,252,207999,2,0,L|282:297,1,46.7500008916855,8|8,0:2|0:2,0:0:0:0:
214,348,208208,1,8,0:2:0:0:
256,192,208312,12,0,211541,0:2:0:0:
