osu file format v14

[General]
AudioFilename: audio.mp3
AudioLeadIn: 0
PreviewTime: 104763
Countdown: 0
SampleSet: Soft
StackLeniency: 0.7
Mode: 0
LetterboxInBreaks: 0
WidescreenStoryboard: 1

[Editor]
Bookmarks: 15025,41651,68316,143790,152597,170212,208271
DistanceSpacing: 2.2
BeatDivisor: 8
GridSize: 32
TimelineZoom: 1

[Metadata]
Title:Wildfire
TitleUnicode:野火
Artist:HOYO-MiX feat. Jonathan Steingard
ArtistUnicode:HOYO-MiX feat. Jonathan Steingard
Creator:AirinCat
Version:Hard
Source:Honkai: Star Rail
Tags:崩坏:星穹铁道 雪融于烬 ye huo nobi TetraCalyx Gon 宫奇 Of Snow and Ember original soundtrack hsr english rock video game gacha ost boss battle theme cocolia houkai starrail bronya hoyoverse 崩壊:スターレイル - 雪は灰燼に融ける mihoyo
BeatmapID:4126008
BeatmapSetID:1986333

[Difficulty]
HPDrainRate:4
CircleSize:3.6
OverallDifficulty:6
ApproachRate:7.6
SliderMultiplier:2
SliderTickRate:1

[Events]
//Background and Video events
0,0,"bronyaaa.jpg",0,0
//Break Periods
2,95172,104162
2,138474,142969
2,173453,175746
//Storyboard Layer 0 (Background)
//Storyboard Layer 1 (Fail)
//Storyboard Layer 2 (Pass)
//Storyboard Layer 3 (Foreground)
//Storyboard Layer 4 (Overlay)
//Storyboard Sound Samples

[TimingPoints]
1639,833.333333333333,4,2,2,50,1,0
30805,-83.3333333333333,4,2,2,50,0,0
31638,-100,4,2,2,50,0,0
38300,-100,4,2,2,40,0,0
39972,-100,4,2,2,50,0,0
40597,-83.3333333333333,4,2,2,60,0,0
41222,-71.4285714285714,4,2,2,60,0,0
41638,-66.6666666666667,4,3,2,70,0,0
68305,-76.9230769230769,4,2,1,50,0,0
94972,-100,4,2,1,30,0,0
107888,-66.6666666666667,4,2,1,70,0,0
108305,-66.6666666666667,4,3,1,70,0,1
134972,550.45871559633,4,2,1,50,1,0
134972,-100,4,2,1,50,0,0
143779,-83.3333333333333,4,2,1,60,0,0
152581,-76.9230769230769,4,3,1,70,0,0
169650,-83.3333333333333,4,3,1,70,0,0
170201,857.142857142857,4,2,1,70,1,0
170201,-166.666666666667,4,2,1,70,0,0
171903,821.917808219178,4,2,1,70,1,0
171903,-100,4,2,1,70,0,0
172450,857.142857142857,4,2,1,70,1,0
172878,750,4,2,1,70,1,0
173253,825.877494838266,4,2,2,50,1,0
178208,833.333333333333,4,2,2,70,1,0
178833,-125,4,2,1,70,0,0
181124,-66.6666666666667,4,2,1,70,0,0
181541,-66.6666666666667,4,3,1,70,0,1
208208,-100,4,2,1,70,0,0

[Colours]
Combo1 : 182,206,220
Combo2 : 151,169,255
Combo3 : 222,173,241

[HitObjects]
42,280,14972,5,4,0:3:0:0:
42,280,16638,2,0,L|254:337,1,200,8|0,0:1|0:3,0:3:0:0:
506,62,18305,1,12,0:3:0:0:
506,62,19972,2,0,L|390:33,1,100,8|0,0:1|0:3,0:3:0:0:
349,93,20597,2,0,L|244:122,1,100,8|0,0:3|0:3,0:3:0:0:
180,69,21222,2,0,L|127:57,1,50,4|0,0:3|0:3,0:3:0:0:
59,97,21638,6,0,P|29:184|16:306,1,200,4|0,0:3|0:3,0:3:0:0:
463,384,23305,2,0,P|485:279|493:177,1,200,8|0,0:1|0:3,0:3:0:0:
492,186,24972,2,0,P|396:178|334:252,1,200,4|0,0:3|0:3,0:3:0:0:
334,252,26638,2,0,P|284:266|220:286,1,100,8|0,0:1|0:3,0:3:0:0:
176,350,27263,2,0,P|130:334|74:321,1,100,8|0,0:3|0:3,0:3:0:0:
16,251,27888,2,0,P|38:241|61:230,1,50,4|0,0:3|0:3,0:3:0:0:
147,222,28305,6,0,P|179:130|129:47,1,200,12|0,0:3|0:3,0:3:0:0:
129,47,29972,2,0,P|210:34|283:4,1,150,8|0,0:3|0:3,0:3:0:0:
342,59,30805,2,0,P|427:70|467:147,1,179.999994506836,2|0,0:2|0:3,0:3:0:0:
435,223,31638,1,2,1:2:0:0:
435,223,33305,2,0,P|389:233|329:252,1,100,8|0,0:1|0:3,0:3:0:0:
266,201,33930,2,0,L|205:190,1,50,8|0,0:1|0:3,0:3:0:0:
154,244,34347,1,8,0:3:0:0:
154,244,34555,2,0,L|99:260,1,50,4|0,0:3|0:3,0:3:0:0:
49,321,34972,6,0,P|71:215|96:116,1,200,4|0,0:3|0:3,0:3:0:0:
93,126,36638,1,8,0:1:0:0:
93,126,38305,1,4,0:3:0:0:
93,126,39972,2,0,P|138:131|199:148,1,100,8|0,0:1|0:3,0:3:0:0:
251,197,40597,2,0,P|320:186|376:161,1,119.999996337891,12|8,0:3|0:3,0:3:0:0:
431,109,41222,2,0,P|476:116|506:131,1,69.9999978637696,4|0,0:3|0:3,0:3:0:0:
512,213,41638,6,0,P|472:275|468:349,1,150.000005722046,4|0,1:1|0:2,0:2:0:0:
370,358,42263,1,0,0:2:0:0:
370,358,42472,2,0,P|336:363|293:378,1,75.0000028610231,0|0,0:2|0:2,0:2:0:0:
213,322,42888,2,0,P|206:284|191:237,1,75.0000028610231,0|0,0:2|0:2,0:2:0:0:
248,150,43305,2,0,P|319:135|378:178,1,150.000005722046,8|0,0:1|0:2,0:2:0:0:
468,192,43930,2,0,P|513:133|513:59,1,150.000005722046,2|0,0:2|0:2,0:2:0:0:
442,0,44555,2,0,P|409:5|363:17,1,75.0000028610231,2|0,0:2|0:2,0:2:0:0:
235,95,44972,6,0,P|153:77|85:49,1,150.000005722046,6|0,1:2|0:2,0:2:0:0:
22,117,45597,1,0,0:2:0:0:
22,117,45805,2,0,P|10:149|-3:196,1,75.0000028610231,0|0,0:2|0:2,0:2:0:0:
77,231,46222,2,0,P|87:266|99:302,1,75.0000028610231,0|0,0:2|0:2,0:2:0:0:
53,384,46638,2,0,P|110:337|183:339,1,150.000005722046,14|0,1:1|0:2,0:2:0:0:
276,368,47263,2,0,P|348:377|411:339,1,150.000005722046,6|0,1:2|0:2,0:2:0:0:
447,251,47888,2,0,L|431:206,3,37.5000014305115,8|8|8|8,0:2|0:2|0:2|0:2,0:0:0:0:
382,192,48305,6,0,P|344:197|295:216,1,75.0000028610231,6|0,1:2|0:2,0:2:0:0:
214,174,48722,2,0,P|187:105|208:34,2,150.000005722046,2|2|2,0:2|0:2|0:2,0:2:0:0:
69,345,49972,1,8,0:1:0:0:
69,345,50180,1,8,0:1:0:0:
0,281,50388,2,0,P|10:243|18:199,1,75.0000028610231,2|0,0:2|0:2,0:2:0:0:
108,264,50805,2,0,P|150:274|190:290,1,75.0000028610231,2|0,0:2|0:2,0:2:0:0:
255,233,51222,2,0,P|293:219|329:212,1,75.0000028610231,2|8,0:2|0:2,0:2:0:0:
335,220,51534,1,8,0:2:0:0:
340,231,51638,6,0,P|378:243|415:258,1,75.0000028610231,4|0,1:2|0:2,0:2:0:0:
495,196,52055,2,0,P|507:147|514:115,1,75.0000028610231,2|0,1:2|0:2,0:2:0:0:
457,40,52472,2,0,P|421:32|374:16,1,75.0000028610231,2|0,1:2|0:2,0:2:0:0:
268,28,52888,2,0,B|263:101|233:83|230:171,1,150.000005722046,2|8,1:2|0:1,0:2:0:0:
306,225,53513,1,8,0:1:0:0:
261,311,53722,2,0,L|214:319,3,37.5000014305115,8|8|0|8,0:2|0:2|1:2|0:2,0:0:0:0:
181,284,54138,2,0,L|136:293,3,37.5000014305115,8|8|8|8,0:2|0:2|0:2|0:2,0:0:0:0:
106,333,54555,2,0,L|55:343,3,37.5000014305115,8|8|8|8,0:3|0:3|0:2|0:2,0:0:0:0:
28,311,54972,6,0,P|43:217|59:139,1,150.000005722046,4|0,1:1|0:2,0:2:0:0:
218,47,55805,2,0,L|301:72,1,75.0000028610231,0|0,0:2|0:2,0:2:0:0:
366,123,56222,2,0,L|454:101,1,75.0000028610231,0|0,0:2|0:2,0:2:0:0:
482,19,56638,1,8,0:1:0:0:
482,19,56847,1,2,0:2:0:0:
438,104,57055,1,2,0:2:0:0:
512,170,57263,2,0,P|491:240|469:334,1,150.000005722046,2|0,0:2|0:2,0:2:0:0:
389,372,57888,2,0,L|367:297,1,75.0000028610231,2|2,0:2|0:2,0:0:0:0:
251,233,58305,6,0,P|168:240|125:292,1,150.000005722046,4|0,1:2|0:2,0:2:0:0:
27,273,58930,1,0,0:2:0:0:
27,273,59138,2,0,P|15:237|-2:192,1,75.0000028610231,0|0,0:2|0:2,0:2:0:0:
28,118,59555,2,0,P|67:105|100:91,1,75.0000028610231,0|0,0:2|0:2,0:2:0:0:
199,150,59972,5,8,0:1:0:0:
290,109,60180,2,0,L|302:56,3,37.5000014305115,8|8|8|8,0:2|0:2|0:2|0:2,0:0:0:0:
345,41,60597,2,0,P|415:47|471:116,1,150.000005722046,6|8,1:2|0:3,0:2:0:0:
448,196,61222,2,0,L|412:206,3,37.5000014305115,8|8|8|8,0:3|0:2|0:2|0:2,0:0:0:0:
361,186,61638,5,6,1:2:0:0:
202,347,62055,2,0,P|138:310|117:240,1,150.000005722046,2|0,0:2|0:2,0:2:0:0:
155,158,62680,1,0,0:0:0:0:
245,163,62888,2,0,P|291:94|278:25,2,150.000005722046,2|8|2,0:2|0:1|0:2,0:2:0:0:
272,259,63930,2,0,B|352:272|336:288|434:307,1,150.000005722046,2|0,0:2|0:2,0:0:0:0:
492,259,64555,2,0,P|498:221|512:183,1,75.0000028610231,2|2,0:2|0:2,0:0:0:0:
437,96,64972,6,0,P|359:96|306:147,1,150.000005722046,0|2,1:2|0:2,0:2:0:0:
215,190,65597,2,0,P|142:183|95:127,1,150.000005722046,2|0,0:2|0:2,0:0:0:0:
169,69,66222,1,2,0:2:0:0:
169,69,66430,1,2,0:2:0:0:
95,127,66638,2,0,P|80:205|68:277,1,150.000005722046,12|0,0:1|0:2,0:2:0:0:
152,352,67263,2,0,P|224:350|270:293,1,150.000005722046,12|8,0:3|0:2,0:2:0:0:
217,218,67888,1,4,0:3:0:0:
217,218,68097,1,8,0:2:0:0:
293,148,68305,6,0,P|359:134|425:117,2,129.999994049073,0|0|8,1:2|0:2|0:2,0:2:0:0:
216,96,69347,1,8,0:2:0:0:
56,267,69972,2,0,L|73:329,1,64.9999970245363,2|0,1:2|0:2,0:2:0:0:
159,382,70388,2,0,L|176:319,1,64.9999970245363,2|0,0:2|0:2,0:2:0:0:
265,278,70805,2,0,P|337:289|417:319,1,129.999994049073,8|0,0:2|0:2,0:2:0:0:
443,373,71430,1,8,0:3:0:0:
391,307,71638,6,0,P|406:244|427:156,1,129.999994049073,0|0,1:2|0:2,0:2:0:0:
425,0,72472,1,8,0:2:0:0:
490,47,72680,2,0,P|436:81|362:64,1,129.999994049073,8|0,0:2|0:2,0:2:0:0:
298,26,73305,2,0,P|236:10|177:35,1,129.999994049073,0|0,1:2|0:2,0:0:0:0:
127,108,73930,2,0,P|134:137|145:182,1,64.9999970245363,0|8,1:2|0:2,0:0:0:0:
228,210,74347,1,0,0:2:0:0:
228,210,74555,2,0,P|220:239|210:284,1,64.9999970245363,0|8,1:2|0:3,0:0:0:0:
131,325,74972,6,0,P|67:320|23:274,1,129.999994049073,0|0,1:2|0:2,0:2:0:0:
71,112,75805,1,8,0:2:0:0:
153,104,76013,2,0,P|214:127|294:142,1,129.999994049073,8|0,0:2|0:2,0:2:0:0:
342,198,76638,2,0,P|379:193|411:180,1,64.9999970245363,2|8,1:2|0:3,0:0:0:0:
488,208,77055,2,0,P|505:181|513:143,1,64.9999970245363,2|0,0:2|0:2,0:2:0:0:
479,71,77472,2,0,B|420:64|428:42|340:34,1,129.999994049073,10|0,0:2|0:2,0:2:0:0:
278,67,78097,1,2,0:2:0:0:
215,13,78305,6,0,P|191:78|184:157,1,129.999994049073,0|0,1:2|0:2,0:2:0:0:
84,333,79138,1,8,0:2:0:0:
14,283,79347,2,0,P|61:241|125:240,1,129.999994049073,8|8,0:2|0:3,0:2:0:0:
221,279,79972,1,2,1:2:0:0:
221,279,80180,2,0,P|284:280|337:243,1,129.999994049073,2|0,0:2|1:2,0:2:0:0:
347,147,80805,1,10,0:2:0:0:
429,113,81013,2,0,L|476:126,5,32.4999985122681,0|8|8|8|8|8,1:2|0:2|0:2|0:2|0:2|0:2,0:0:0:0:
494,163,81638,6,0,L|477:225,2,64.9999970245363,2|0|2,1:2|1:2|0:2,0:0:0:0:
342,70,82472,1,8,0:2:0:0:
279,127,82680,2,0,P|215:131|160:97,1,129.999994049073,8|0,0:2|0:2,0:2:0:0:
94,39,83305,2,0,P|62:46|30:54,1,64.9999970245363,2|0,1:2|0:2,0:2:0:0:
0,140,83722,2,0,P|9:172|17:207,1,64.9999970245363,2|0,0:2|0:2,0:2:0:0:
91,255,84138,2,0,P|154:254|204:214,1,129.999994049073,10|0,0:2|0:2,0:2:0:0:
251,142,84763,1,2,0:2:0:0:
325,184,84972,6,0,P|337:250|355:317,1,129.999994049073,0|0,1:2|0:2,0:2:0:0:
168,361,85805,1,8,0:2:0:0:
86,337,86013,2,0,P|73:270|55:203,1,129.999994049073,8|2,0:2|0:2,0:2:0:0:
100,129,86638,2,0,P|156:100|217:117,1,129.999994049073,2|0,1:2|0:2,0:2:0:0:
305,150,87263,2,0,P|343:140|374:129,1,64.9999970245363,2|8,1:2|0:2,0:0:0:0:
441,71,87680,1,8,0:2:0:0:
441,71,87888,2,0,P|479:80|510:92,1,64.9999970245363,2|0,1:2|0:2,0:2:0:0:
512,181,88305,6,0,B|501:245|476:237|465:300,1,129.999994049073,2|0,1:2|0:2,0:2:0:0:
245,363,89138,2,0,P|188:334|166:275,1,129.999994049073,8|0,0:2|0:2,0:2:0:0:
196,196,89763,1,0,0:2:0:0:
274,230,89972,2,0,P|312:220|351:210,1,64.9999970245363,2|0,1:2|0:2,0:2:0:0:
430,234,90388,2,0,P|438:198|445:160,1,64.9999970245363,2|0,0:2|0:2,0:2:0:0:
413,84,90805,1,10,0:2:0:0:
413,84,91013,2,0,P|356:53|293:60,1,129.999994049073,0|2,0:0|0:2,0:0:0:0:
205,109,91638,6,0,P|141:117|83:83,1,129.999994049073,0|0,1:2|0:2,0:2:0:0:
71,0,92263,1,0,0:2:0:0:
86,86,92472,2,0,P|72:146|56:236,1,129.999994049073,10|0,0:2|0:2,0:2:0:0:
1,277,93097,1,0,0:2:0:0:
63,341,93305,1,2,1:2:0:0:
63,341,93513,2,0,P|126:341|174:299,1,129.999994049073,2|8,0:2|0:3,0:2:0:0:
183,206,94138,1,8,0:2:0:0:
183,206,94347,1,4,0:3:0:0:
267,228,94555,2,0,L|338:205,1,64.9999970245363,6|0,1:2|0:0,0:0:0:0:
403,274,94972,5,4,1:3:0:0:
256,192,104972,12,2,107888,0:3:0:0:
193,151,108305,6,0,P|110:154|71:216,1,150.000005722046,6|0,1:1|1:2,0:2:0:0:
59,296,108930,1,0,1:2:0:0:
147,339,109138,2,0,L|239:366,1,75.0000028610231,10|0,0:2|0:2,0:2:0:0:
292,291,109555,2,0,L|382:271,1,75.0000028610231,2|0,0:2|1:2,0:2:0:0:
451,321,109972,5,2,0:2:0:0:
508,243,110180,2,0,L|488:170,1,75.0000028610231,2|0,1:2|1:2,0:0:0:0:
411,116,110597,2,0,L|329:132,1,75.0000028610231,2|8,0:2|0:2,0:2:0:0:
260,196,111013,1,2,1:2:0:0:
167,153,111222,1,2,1:2:0:0:
204,54,111430,5,10,0:2:0:0:
204,54,111534,1,8,0:2:0:0:
204,54,111638,2,0,P|276:36|353:15,1,150.000005722046,4|0,1:2|0:2,0:2:0:0:
445,58,112263,1,0,1:2:0:0:
402,146,112472,1,8,0:2:0:0:
402,146,112680,1,8,0:2:0:0:
491,179,112888,2,0,L|510:258,1,75.0000028610231,8|0,0:2|1:2,0:0:0:0:
448,329,113305,5,2,0:2:0:0:
350,305,113513,2,0,L|329:232,1,75.0000028610231,2|0,1:2|1:2,0:0:0:0:
250,192,113930,2,0,L|168:217,1,75.0000028610231,2|8,1:2|0:2,0:0:0:0:
107,290,114347,2,0,L|29:270,1,75.0000028610231,0|4,1:2|0:3,0:0:0:0:
26,185,114763,1,4,1:3:0:0:
116,148,114972,6,0,P|164:92|162:19,1,150.000005722046,2|2,1:1|0:2,0:2:0:0:
42,0,115597,1,0,1:2:0:0:
42,0,115805,2,0,L|68:77,1,75.0000028610231,10|8,0:2|0:2,0:2:0:0:
192,108,116222,5,2,0:1:0:0:
192,108,116430,2,0,P|263:84|360:67,1,150.000005722046,2|8,1:1|0:2,0:2:0:0:
379,146,117055,2,0,P|418:154|462:171,1,75.0000028610231,2|0,1:2|1:2,0:2:0:0:
499,249,117472,2,0,P|490:282|480:325,1,75.0000028610231,10|0,0:2|1:2,0:2:0:0:
392,384,117888,2,0,P|380:340|363:301,1,75.0000028610231,2|0,0:2|1:2,0:0:0:0:
276,253,118305,5,4,1:2:0:0:
276,253,118513,1,2,1:1:0:0:
215,325,118722,2,0,P|179:333|136:347,1,75.0000028610231,2|0,0:1|1:2,0:2:0:0:
61,297,119138,1,8,0:2:0:0:
109,222,119347,1,0,1:2:0:0:
22,185,119555,6,0,P|11:147|0:108,1,75.0000028610231,8|8,0:3|0:3,0:0:0:0:
29,32,119972,1,12,0:3:0:0:
29,32,120180,1,12,0:3:0:0:
112,57,120388,2,0,P|153:45|188:28,1,75.0000028610231,12|8,0:3|0:3,0:0:0:0:
195,23,120701,1,8,0:3:0:0:
206,15,120805,2,0,L|254:25,3,37.5000014305115,8|8|8|8,0:2|0:2|0:2|0:2,0:0:0:0:
277,51,121222,2,8,L|324:37,3,37.5000014305115,8|8|8|8,0:2|0:2|0:2|0:2,0:2:0:0:
354,66,121638,6,0,L|317:211,1,150.000005722046,4|0,1:1|1:2,0:2:0:0:
366,289,122263,1,0,1:2:0:0:
453,264,122472,2,0,L|474:186,1,75.0000028610231,8|0,0:2|0:2,0:2:0:0:
512,117,122888,2,0,L|493:39,1,75.0000028610231,2|0,0:2|1:2,0:2:0:0:
410,5,123305,5,2,0:2:0:0:
342,55,123513,1,2,1:2:0:0:
267,17,123722,1,2,1:2:0:0:
201,78,123930,2,0,L|217:152,1,75.0000028610231,2|8,0:2|0:2,0:2:0:0:
295,202,124347,1,2,1:2:0:0:
295,202,124555,1,2,0:2:0:0:
247,282,124763,5,8,0:2:0:0:
247,282,124868,1,8,0:2:0:0:
247,282,124972,2,0,P|174:295|97:331,1,150.000005722046,4|0,1:2|0:2,0:2:0:0:
22,274,125597,1,0,1:2:0:0:
75,199,125805,1,8,0:2:0:0:
75,199,126013,1,8,0:2:0:0:
7,133,126222,2,0,P|16:98|28:56,1,75.0000028610231,8|0,0:2|1:2,0:0:0:0:
121,23,126638,5,2,0:2:0:0:
184,76,126847,1,2,1:2:0:0:
258,27,127055,1,2,1:2:0:0:
305,97,127263,2,0,P|341:106|381:118,1,75.0000028610231,2|8,0:2|0:2,0:2:0:0:
471,133,127680,2,0,P|399:145|362:207,1,150.000005722046,2|2,1:2|1:1,0:2:0:0:
338,309,128305,1,4,1:2:0:0:
338,309,128722,6,0,L|408:333,1,75.0000028610231,2|0,0:2|1:2,0:2:0:0:
496,299,129138,2,0,L|511:225,1,75.0000028610231,8|0,0:2|1:2,0:0:0:0:
420,144,129555,1,2,0:1:0:0:
420,144,129763,2,0,P|336:161|271:187,1,150.000005722046,2|8,1:1|0:2,0:2:0:0:
206,249,130388,2,0,P|171:238|128:229,1,75.0000028610231,0|2,1:2|1:2,0:0:0:0:
73,160,130805,2,0,P|81:123|96:84,1,75.0000028610231,8|0,0:2|1:2,0:0:0:0:
177,37,131222,1,2,0:2:0:0:
177,37,131430,1,0,1:2:0:0:
257,87,131638,6,0,L|337:69,1,75.0000028610231,12|8,0:2|0:2,0:0:0:0:
330,70,131951,1,8,0:2:0:0:
330,70,132055,1,8,0:2:0:0:
416,23,132263,2,0,P|475:83|466:175,1,150.000005722046,8|0,0:2|1:2,0:0:0:0:
397,211,132888,2,0,P|360:200|323:194,1,75.0000028610231,10|10,0:2|0:3,0:0:0:0:
221,231,133305,5,8,0:3:0:0:
221,231,133513,1,8,0:2:0:0:
285,308,133722,2,0,P|274:347|265:388,1,75.0000028610231,4|4,0:3|0:3,0:0:0:0:
162,384,134138,2,0,L|149:342,3,37.5000014305115,8|8|8|8,0:2|0:2|0:2|0:2,0:0:0:0:
103,320,134555,2,0,L|57:335,4,37.5000014305115,8|8|8|8|8,0:2|0:2|0:2|0:2|0:2,0:0:0:0:
256,192,135109,12,0,138274,0:2:0:0:
222,334,143779,6,0,P|150:349|104:366,1,119.999996337891,4|0,1:2|1:2,0:2:0:0:
32,337,144192,1,0,1:2:0:0:
32,337,144329,2,0,P|16:269|-1:218,1,119.999996337891,10|2,0:2|0:2,0:2:0:0:
195,89,144880,2,0,B|238:120|238:120|248:147|238:206,2,119.999996337891,2|2|2,0:2|0:2|0:2,0:2:0:0:
101,242,145705,2,0,P|110:270|117:299,1,59.9999981689454,2|0,0:2|1:2,0:0:0:0:
176,361,145981,6,0,P|225:338|306:327,1,119.999996337891,0|0,1:2|0:2,0:2:0:0:
356,273,146394,1,0,1:2:0:0:
356,273,146531,2,0,P|390:282|421:297,1,59.9999981689454,8|8,0:2|0:2,0:0:0:0:
498,272,146806,2,0,P|509:236|513:210,1,59.9999981689454,8|0,0:2|1:2,0:2:0:0:
472,141,147082,2,0,P|440:131|416:122,1,59.9999981689454,0|0,1:2|1:2,0:0:0:0:
343,160,147357,2,0,P|314:163|281:178,1,59.9999981689454,0|0,1:2|1:2,0:2:0:0:
199,163,147632,2,0,P|166:113|169:54,1,119.999996337891,8|0,0:2|1:2,0:0:0:0:
241,11,148045,1,0,1:2:0:0:
241,11,148183,1,2,1:2:0:0:
124,215,148595,5,0,1:2:0:0:
124,215,148733,2,0,P|66:232|9:250,1,119.999996337891,10|2,0:2|0:2,0:2:0:0:
0,344,149146,1,0,1:2:0:0:
0,344,149283,2,0,L|66:367,1,59.9999981689454,0|8,1:2|0:2,0:0:0:0:
141,362,149559,2,0,P|148:333|155:304,1,59.9999981689454,0|0,1:2|1:2,0:2:0:0:
233,270,149834,2,0,P|269:280|305:292,1,59.9999981689454,8|0,0:2|1:2,0:2:0:0:
360,348,150109,6,0,B|426:340|421:319|478:313,1,119.999996337891,2|4,0:2|1:3,0:0:0:0:
486,144,150660,2,0,L|424:160,1,59.9999981689454,2|0,0:2|1:2,0:2:0:0:
341,173,150935,2,0,P|298:131|293:73,1,119.999996337891,10|8,0:2|0:3,0:2:0:0:
350,3,151348,1,0,1:2:0:0:
350,3,151485,2,0,P|379:11|467:35,1,119.999996337891,2|8,1:2|0:3,0:2:0:0:
512,113,151898,1,4,1:3:0:0:
512,113,152036,2,0,P|496:170|478:248,1,119.999996337891,8|4,0:2|0:3,0:0:0:0:
512,338,152449,1,4,0:3:0:0:
512,338,152586,6,0,P|436:315|365:298,1,129.999994049073,4|0,1:2|1:2,0:2:0:0:
324,242,152999,1,0,1:2:0:0:
324,242,153137,2,0,P|262:228|207:260,1,129.999994049073,10|2,0:2|0:2,0:2:0:0:
179,344,153549,1,0,1:2:0:0:
179,344,153687,2,0,P|143:355|98:363,1,64.9999970245363,2|0,1:2|1:2,0:0:0:0:
30,339,153962,2,0,P|22:302|10:268,1,64.9999970245363,2|0,1:2|1:2,0:2:0:0:
49,187,154238,2,0,P|79:179|117:169,1,64.9999970245363,8|0,0:2|1:2,0:0:0:0:
202,184,154513,2,0,P|231:116|203:53,1,129.999994049073,2|4,0:2|1:3,0:0:0:0:
0,0,155201,5,0,1:2:0:0:
0,0,155338,2,0,L|16:62,1,64.9999970245363,10|0,0:2|1:2,0:2:0:0:
78,131,155614,2,0,L|140:113,1,64.9999970245363,8|8,0:3|0:3,0:2:0:0:
214,65,155889,2,0,L|277:80,1,64.9999970245363,2|0,1:2|1:2,0:0:0:0:
349,142,156164,1,2,1:2:0:0:
349,142,156302,1,8,0:3:0:0:
349,142,156439,2,0,L|418:122,1,64.9999970245363,8|0,0:2|1:2,0:0:0:0:
474,63,156715,2,0,L|456:-8,2,64.9999970245363,6|4|4,1:3|1:3|1:1,0:0:0:0:
251,178,157403,5,0,1:2:0:0:
251,178,157540,2,0,P|261:228|278:317,1,129.999994049073,10|2,0:2|0:2,0:2:0:0:
367,349,157953,1,0,1:2:0:0:
367,349,158091,2,0,L|437:334,1,64.9999970245363,2|8,0:2|0:2,0:0:0:0:
493,263,158366,2,0,L|478:184,1,64.9999970245363,2|0,1:2|1:2,0:2:0:0:
415,136,158641,2,0,L|348:149,1,64.9999970245363,8|0,0:2|1:2,0:2:0:0:
266,96,158916,2,0,L|258:28,2,64.9999970245363,2|0|4,0:2|1:2|1:3,0:0:0:0:
170,211,159467,6,0,L|106:225,1,64.9999970245363,2|0,0:2|1:2,0:2:0:0:
32,188,159742,2,0,B|3:141|3:141|13:97|39:56,1,129.999994049073,10|8,0:2|0:3,0:2:0:0:
107,25,160155,1,8,0:3:0:0:
107,25,160293,2,0,P|143:35|174:44,1,64.9999970245363,2|0,1:2|1:2,0:2:0:0:
242,91,160568,2,0,P|276:81|312:69,1,64.9999970245363,2|0,0:2|1:2,0:2:0:0:
376,19,160843,2,0,P|407:25|452:34,1,64.9999970245363,8|4,0:2|0:3,0:0:0:0:
499,101,161118,2,0,P|482:170|475:241,1,129.999994049073,4|6,0:3|1:1,0:0:0:0:
317,268,161669,6,0,P|280:259|246:248,1,64.9999970245363,2|0,1:2|1:2,0:2:0:0:
199,177,161944,2,0,P|135:169|83:205,1,129.999994049073,10|0,0:2|0:2,0:2:0:0:
0,208,162357,1,0,1:2:0:0:
0,208,162494,2,0,L|22:280,1,64.9999970245363,2|0,1:2|1:2,1:2:0:0:
14,362,162770,2,0,L|85:336,1,64.9999970245363,2|8,1:2|0:3,0:0:0:0:
143,293,163045,2,0,L|212:313,1,64.9999970245363,10|0,0:2|1:2,0:0:0:0:
280,357,163320,2,0,P|341:372|397:342,1,129.999994049073,2|4,0:2|1:3,0:2:0:0:
332,114,164008,5,0,1:2:0:0:
332,114,164146,2,0,L|269:131,1,64.9999970245363,8|8,0:2|0:2,0:0:0:0:
199,184,164421,2,0,L|134:165,1,64.9999970245363,8|0,0:2|1:2,0:0:0:0:
69,111,164696,2,0,P|18:158|15:221,1,129.999994049073,2|2,0:2|1:2,0:2:0:0:
6,308,165109,1,0,1:2:0:0:
6,308,165247,2,0,L|81:288,1,64.9999970245363,8|0,0:2|1:2,0:0:0:0:
160,274,165522,2,0,B|223:282|216:307|291:320,1,129.999994049073,4|4,0:3|1:2,0:0:0:0:
448,167,166210,5,0,1:2:0:0:
448,167,166348,2,0,L|435:103,1,64.9999970245363,10|0,0:2|0:2,0:2:0:0:
363,53,166623,2,0,L|297:70,1,64.9999970245363,2|0,0:2|1:2,0:2:0:0:
243,139,166898,2,0,L|259:210,1,64.9999970245363,2|8,0:2|0:2,0:0:0:0:
343,262,167173,1,0,1:2:0:0:
343,262,167311,1,0,1:2:0:0:
343,262,167449,2,0,L|332:333,1,64.9999970245363,10|0,0:2|1:2,0:2:0:0:
252,366,167724,6,0,B|195:334|195:334|163:344|115:332,1,129.999994049073,8|6,0:3|1:2,0:0:0:0:
10,232,168274,2,0,P|17:199|26:167,1,64.9999970245363,2|0,0:2|1:2,0:2:0:0:
112,138,168549,1,8,0:2:0:0:
112,138,168687,1,0,1:2:0:0:
112,138,168825,2,0,P|150:147|182:161,1,64.9999970245363,8|4,0:3|1:3,0:0:0:0:
242,212,169100,2,0,P|312:211|358:163,1,129.999994049073,4|0,0:3|0:2,0:2:0:0:
394,91,169513,1,4,0:3:0:0:
394,91,169650,2,0,P|444:106|514:128,1,119.999996337891,4|2,0:3|0:2,0:2:0:0:
420,354,170201,6,0,L|341:332,2,59.9999981689454,2|2|2,0:3|0:3|0:3,0:3:0:0:
498,214,171486,1,2,0:3:0:0:
498,214,171903,2,0,L|412:193,1,66.6666666666667,2|2,0:3|0:3,0:3:0:0:
345,120,172450,2,0,L|247:141,1,100,2|2,0:3|0:3,0:3:0:0:
152,256,173253,5,6,0:3:0:0:
435,366,176556,5,4,0:3:0:0:
386,341,178208,5,12,0:3:0:0:
431,260,178416,1,12,0:3:0:0:
347,208,178624,1,12,0:3:0:0:
285,292,178833,6,0,L|198:315,2,80,2|2|2,0:1|0:1|0:1,0:1:0:0:
434,154,180083,2,0,L|518:171,2,80,2|2|2,0:1|0:1|0:1,0:1:0:0:
361,72,181124,6,0,L|319:61,3,37.5000014305115,8|8|8|8,0:2|0:2|0:0|0:0,0:0:0:0:
277,87,181541,6,0,P|243:158|240:246,1,150.000005722046,6|0,1:1|1:2,0:2:0:0:
294,309,182166,1,0,1:2:0:0:
391,280,182374,2,0,P|405:239|411:194,1,75.0000028610231,10|0,0:2|0:2,0:2:0:0:
510,161,182791,2,0,P|503:115|490:74,1,75.0000028610231,2|0,0:2|1:2,0:2:0:0:
415,16,183208,5,2,0:2:0:0:
344,76,183416,2,0,P|300:87|266:96,1,75.0000028610231,2|0,1:2|1:2,0:0:0:0:
189,35,183833,2,0,P|149:43|110:54,1,75.0000028610231,2|8,1:2|0:2,0:2:0:0:
41,100,184249,1,2,1:2:0:0:
87,171,184458,1,2,0:2:0:0:
24,241,184666,5,8,0:2:0:0:
24,241,184770,1,8,0:2:0:0:
24,241,184874,2,0,P|83:250|200:288,1,150.000005722046,4|0,1:2|0:2,0:2:0:0:
207,353,185499,1,0,1:2:0:0:
285,319,185708,1,8,0:2:0:0:
285,319,185916,1,8,0:2:0:0:
257,230,186124,2,0,P|270:188|280:148,1,75.0000028610231,8|0,0:2|1:2,0:0:0:0:
354,106,186541,5,2,0:2:0:0:
417,176,186749,2,0,L|502:199,1,75.0000028610231,2|0,1:2|1:2,0:0:0:0:
475,87,187166,2,0,L|494:4,1,75.0000028610231,2|8,1:2|0:2,0:0:0:0:
395,30,187583,2,0,L|308:8,1,75.0000028610231,4|4,1:3|0:3,0:0:0:0:
249,77,187999,1,2,1:1:0:0:
167,29,188208,6,0,P|106:85|109:163,1,150.000005722046,6|2,1:1|0:2,0:2:0:0:
170,232,188833,1,0,1:2:0:0:
170,232,189041,2,0,L|240:207,1,75.0000028610231,10|0,0:2|1:2,0:2:0:0:
318,152,189458,5,2,0:1:0:0:
318,152,189666,2,0,L|461:194,1,150.000005722046,2|8,1:1|0:2,0:2:0:0:
506,270,190291,2,0,L|485:342,1,75.0000028610231,0|0,1:2|1:2,0:0:0:0:
400,375,190708,2,0,L|328:352,1,75.0000028610231,10|0,0:2|1:2,0:0:0:0:
264,287,191124,2,0,L|190:302,1,75.0000028610231,2|2,0:2|1:2,0:0:0:0:
125,369,191541,5,4,1:1:0:0:
125,369,191749,1,2,1:1:0:0:
37,337,191958,2,0,L|18:264,1,75.0000028610231,2|0,0:1|1:2,0:2:0:0:
58,173,192374,2,0,L|130:155,1,75.0000028610231,8|8,0:2|0:2,0:0:0:0:
143,163,192687,1,8,0:2:0:0:
152,175,192791,2,0,L|232:197,1,75.0000028610231,8|8,0:2|0:2,0:0:0:0:
316,148,193208,6,0,L|337:70,1,75.0000028610231,0|0,1:2|1:2,0:0:0:0:
278,10,193624,1,10,0:2:0:0:
201,55,193833,1,8,0:3:0:0:
201,55,193937,1,8,0:3:0:0:
201,55,194041,2,0,L|152:40,3,37.5000014305115,8|8|8|8,0:2|0:2|0:2|0:2,0:0:0:0:
134,76,194458,2,8,L|81:89,3,37.5000014305115,8|8|8|8,0:2|0:2|0:2|0:2,0:2:0:0:
50,72,194874,6,0,P|62:131|77:238,1,150.000005722046,4|0,1:1|1:2,0:2:0:0:
31,300,195499,1,0,1:2:0:0:
97,362,195708,2,0,L|169:343,1,75.0000028610231,10|0,0:2|0:2,0:2:0:0:
224,261,196124,2,0,P|266:268|301:276,1,75.0000028610231,2|0,0:2|1:2,0:2:0:0:
376,337,196541,5,2,0:2:0:0:
452,288,196749,1,2,1:2:0:0:
400,214,196958,1,2,1:2:0:0:
475,169,197166,2,0,P|481:131|498:78,1,75.0000028610231,2|8,0:2|0:2,0:2:0:0:
436,26,197583,1,2,1:2:0:0:
436,26,197791,1,2,0:2:0:0:
341,35,197999,5,8,0:2:0:0:
341,35,198103,1,8,0:2:0:0:
341,35,198208,2,0,P|312:108|299:192,1,150.000005722046,4|0,1:2|0:2,0:2:0:0:
359,247,198833,1,0,1:2:0:0:
306,327,199041,1,8,0:2:0:0:
306,327,199249,1,8,0:2:0:0:
214,288,199458,2,0,P|177:295|134:305,1,75.0000028610231,8|0,0:2|1:2,0:0:0:0:
45,278,199874,5,2,1:2:0:0:
0,200,200083,1,2,1:2:0:0:
54,130,200291,1,2,1:2:0:0:
143,164,200499,2,0,P|187:155|228:141,1,75.0000028610231,2|8,1:2|0:2,0:2:0:0:
293,207,200916,2,0,P|351:251|424:245,1,150.000005722046,2|2,1:2|1:1,0:2:0:0:
494,183,201541,1,6,1:1:0:0:
494,183,201958,6,0,L|470:107,1,75.0000028610231,2|0,0:2|1:2,0:2:0:0:
392,68,202374,2,0,L|316:92,1,75.0000028610231,8|0,0:2|1:2,0:2:0:0:
256,161,202791,1,2,0:1:0:0:
256,161,202999,2,0,P|173:143|108:122,1,150.000005722046,2|8,1:1|0:2,0:2:0:0:
22,162,203624,2,0,P|10:202|5:244,1,75.0000028610231,0|0,1:2|1:2,0:0:0:0:
57,326,204041,2,0,P|129:336|189:293,1,150.000005722046,8|0,0:2|1:2,0:0:0:0:
158,210,204666,1,2,1:1:0:0:
240,177,204874,6,0,P|263:186|322:203,1,75.0000028610231,4|0,1:1|1:2,0:2:0:0:
373,269,205291,1,8,0:2:0:0:
461,225,205499,2,0,L|481:152,2,75.0000028610231,8|0|8,0:2|1:2|0:2,0:0:0:0:
506,308,206124,1,10,1:2:0:0:
429,373,206333,2,0,L|338:351,1,75.0000028610231,8|8,0:3|0:3,0:0:0:0:
282,281,206749,1,4,1:3:0:0:
217,338,206958,1,4,1:3:0:0:
138,288,207166,5,8,0:3:0:0:
138,288,207270,1,8,0:3:0:0:
138,288,207374,2,0,L|129:235,3,37.5000014305115,8|8|8|8,0:2|0:2|0:2|0:2,0:0:0:0:
102,208,207791,2,0,L|113:155,4,37.5000014305115,8|8|8|8|8,0:2|0:2|0:2|0:2|0:2,0:0:0:0:
256,192,208312,12,0,211541,0:2:0:0:
