osu file format v14

[General]
AudioFilename: audio.mp3
AudioLeadIn: 0
PreviewTime: 104763
Countdown: 0
SampleSet: Soft
StackLeniency: 0.7
Mode: 0
LetterboxInBreaks: 0
WidescreenStoryboard: 0

[Editor]
Bookmarks: 15025,41651,68316,143790,152597,170212,208271
DistanceSpacing: 2.2
BeatDivisor: 8
GridSize: 32
TimelineZoom: 1.9

[Metadata]
Title:Wildfire
TitleUnicode:野火
Artist:HOYO-MiX feat. Jonathan Steingard
ArtistUnicode:HOYO-MiX feat. Jonathan Steingard
Creator:AirinCat
Version:Expert
Source:Honkai: Star Rail
Tags:崩坏:星穹铁道 雪融于烬 ye huo nobi TetraCalyx Gon 宫奇 Of Snow and Ember original soundtrack hsr english rock video game gacha ost boss battle theme cocolia houkai starrail bronya hoyoverse 崩壊:スターレイル - 雪は灰燼に融ける mihoyo
BeatmapID:4126007
BeatmapSetID:1986333

[Difficulty]
HPDrainRate:5
CircleSize:4
OverallDifficulty:8
ApproachRate:8.8
SliderMultiplier:2.2
SliderTickRate:1

[Events]
//Background and Video events
0,0,"bronyaaa.jpg",0,0
//Break Periods
2,98504,104343
2,138474,143150
2,173453,175927
//Storyboard Layer 0 (Background)
//Storyboard Layer 1 (Fail)
//Storyboard Layer 2 (Pass)
//Storyboard Layer 3 (Foreground)
//Storyboard Layer 4 (Overlay)
//Storyboard Sound Samples

[TimingPoints]
1639,833.333333333333,4,2,2,50,1,0
30805,-83.3333333333333,4,2,2,50,0,0
31638,-100,4,2,2,50,0,0
38305,-100,4,2,2,40,0,0
39972,-100,4,2,2,60,0,0
40597,-83.3333333333333,4,2,2,60,0,0
41222,-71.4285714285714,4,2,2,60,0,0
41638,-66.6666666666667,4,3,2,70,0,0
68305,-76.9230769230769,4,2,1,50,0,0
94972,-100,4,2,1,30,0,0
107888,-66.6666666666667,4,2,1,70,0,0
108305,-58.8235294117647,4,3,1,70,0,1
134972,550.45871559633,4,2,1,50,1,0
143779,-66.6666666666667,4,2,1,60,0,0
152586,-66.6666666666667,4,3,1,70,0,0
169650,-83.3333333333333,4,3,1,70,0,0
170201,857.142857142857,4,2,1,70,1,0
170201,-166.666666666667,4,2,1,70,0,0
171903,821.917808219178,4,2,1,70,1,0
172450,857.142857142857,4,2,1,70,1,0
172878,750,4,2,1,70,1,0
173253,825.877494838266,4,2,2,50,1,0
178208,833.333333333333,4,2,2,70,1,0
178833,-250,4,2,1,70,0,0
181124,-66.6666666666667,4,2,1,70,0,0
181541,-58.8235294117647,4,3,1,70,0,1
208208,-100,4,2,1,70,0,0

[Colours]
Combo1 : 182,206,220
Combo2 : 151,169,255
Combo3 : 222,173,241

[HitObjects]
46,360,14972,5,4,0:3:0:0:
46,360,16638,2,0,P|12:258|68:168,1,220,8|0,0:1|0:3,0:3:0:0:
506,253,18305,1,12,0:3:0:0:
506,253,19972,2,0,P|488:197|477:144,1,110,8|0,0:1|0:3,0:3:0:0:
361,25,20597,2,0,P|348:77|331:135,1,110,8|0,0:3|0:3,0:3:0:0:
246,174,21222,2,0,P|219:165|194:155,1,55,4|0,0:3|0:3,0:3:0:0:
72,82,21638,6,0,P|-3:158|12:263,1,220,4|0,0:3|0:3,0:3:0:0:
335,361,23305,2,0,P|390:346|446:337,1,110,8|0,0:1|0:3,0:3:0:0:
509,200,24138,2,0,P|503:173|495:147,1,55,0|0,0:3|0:3,0:3:0:0:
425,100,24555,2,0,P|399:107|372:112,1,55,0|0,0:3|0:3,0:3:0:0:
311,187,24972,2,0,P|235:176|175:54,1,220,4|0,0:3|0:3,0:3:0:0:
174,57,26638,2,0,P|182:106|197:176,1,110,8|0,0:1|0:3,0:3:0:0:
28,380,27263,2,0,P|15:328|-2:269,1,110,8|0,0:3|0:3,0:3:0:0:
58,205,27888,2,0,P|91:217|124:228,1,55,4|0,0:3|0:3,0:3:0:0:
301,288,28305,6,0,L|524:215,1,220,12|0,0:3|0:3,0:3:0:0:
273,0,29972,2,0,P|252:78|231:168,1,165,8|0,0:3|0:3,0:3:0:0:
302,221,30805,2,0,P|380:205|411:93,1,197.99999395752,2|0,0:2|0:3,0:3:0:0:
215,234,31638,6,0,P|108:258|3:291,1,220,2|0,1:2|0:3,0:3:0:0:
3,291,33305,2,0,P|56:305|108:323,1,110,8|0,0:1|0:3,0:3:0:0:
261,278,33930,2,0,P|268:251|275:225,1,55,8|0,0:1|0:3,0:3:0:0:
225,146,34347,1,8,0:3:0:0:
140,199,34555,2,0,P|113:191|77:181,1,55,4|0,0:3|0:3,0:3:0:0:
240,368,34972,6,0,P|337:339|472:308,1,220,4|0,0:3|0:3,0:3:0:0:
452,311,36638,1,8,0:1:0:0:
452,311,38305,1,4,0:3:0:0:
490,376,39972,6,0,B|435:369|440:351|376:344,1,110,8|0,0:1|0:3,0:3:0:0:
280,246,40597,2,0,B|217:253|214:278|157:294,1,131.99999597168,12|8,0:3|0:3,0:3:0:0:
48,360,41222,2,0,P|87:370|134:391,1,76.9999976501466,4|0,0:3|0:3,0:3:0:0:
402,162,41638,6,0,P|381:82|366:1,1,165.000006294251,4|0,1:1|0:2,0:2:0:0:
366,1,42263,1,0,0:2:0:0:
282,145,42472,2,0,P|271:105|267:65,1,82.5000031471254,0|0,0:2|0:2,0:2:0:0:
484,25,42888,2,0,P|495:65|500:106,1,82.5000031471254,0|0,0:2|0:2,0:2:0:0:
143,130,43305,6,0,P|62:122|4:178,1,165.000006294251,8|0,0:1|0:2,0:2:0:0:
209,379,43930,2,0,P|254:310|233:229,1,165.000006294251,2|0,0:2|0:2,0:2:0:0:
136,291,44555,2,0,P|96:300|49:311,1,82.5000031471254,2|0,0:2|0:2,0:2:0:0:
335,79,44972,6,0,P|411:110|489:138,1,165.000006294251,6|0,1:2|0:2,0:2:0:0:
489,138,45597,1,0,0:2:0:0:
373,346,45805,2,0,P|362:306|350:266,1,82.5000031471254,0|0,0:2|0:2,0:2:0:0:
484,235,46222,2,0,P|494:274|506:314,1,82.5000031471254,0|0,0:2|0:2,0:2:0:0:
131,158,46638,6,0,P|44:168|0:230,1,165.000006294251,14|0,1:1|0:2,0:2:0:0:
234,370,47263,2,0,B|233:296|271:290|274:198,1,165.000006294251,6|0,1:2|0:2,0:2:0:0:
130,11,47888,1,8,0:2:0:0:
132,61,47993,1,8,0:2:0:0:
169,102,48097,1,8,0:2:0:0:
217,106,48201,1,8,0:2:0:0:
254,86,48305,2,0,P|265:39|277:0,1,82.5000031471254,6|0,1:2|0:2,0:2:0:0:
145,188,48722,2,0,P|66:173|0:219,2,165.000006294251,2|2|2,0:2|0:2|0:2,0:2:0:0:
246,311,49763,1,2,0:2:0:0:
270,177,49972,5,8,0:1:0:0:
145,314,50180,1,8,0:1:0:0:
375,224,50388,2,0,P|416:236|473:247,1,82.5000031471254,2|0,0:2|0:2,0:2:0:0:
427,384,50805,2,0,P|386:370|335:362,1,82.5000031471254,2|0,0:2|0:2,0:2:0:0:
217,172,51222,2,0,P|224:124|243:75,1,82.5000031471254,2|8,0:2|0:2,0:2:0:0:
311,52,51534,5,8,0:2:0:0:
311,67,51638,2,0,P|347:82|424:94,1,82.5000031471254,4|0,1:2|0:2,0:2:0:0:
98,220,52055,2,0,P|59:223|0:241,1,82.5000031471254,2|0,1:2|0:2,0:2:0:0:
282,384,52472,2,0,P|299:350|307:299,1,82.5000031471254,2|0,1:2|0:2,0:2:0:0:
166,0,52888,2,0,P|150:36|141:91,1,82.5000031471254,2|0,1:2|0:2,0:2:0:0:
237,122,53305,1,8,0:1:0:0:
237,122,53513,1,8,0:1:0:0:
434,252,53722,5,8,0:2:0:0:
457,204,53826,1,8,0:2:0:0:
448,154,53930,1,0,1:2:0:0:
409,126,54034,1,8,0:2:0:0:
359,119,54138,1,8,0:2:0:0:
318,140,54243,1,8,0:2:0:0:
290,186,54347,1,8,0:2:0:0:
266,226,54451,1,8,0:2:0:0:
215,238,54555,1,8,0:3:0:0:
176,217,54659,1,8,0:3:0:0:
174,184,54763,1,8,0:2:0:0:
187,163,54868,1,8,0:2:0:0:
203,163,54972,6,0,P|234:244|246:334,1,165.000006294251,4|0,1:1|0:2,0:2:0:0:
245,321,55597,1,0,0:2:0:0:
36,371,55805,2,0,P|25:330|10:291,1,82.5000031471254,0|0,0:2|0:2,0:2:0:0:
110,251,56222,2,0,P|122:290|139:335,1,82.5000031471254,0|0,0:2|0:2,0:2:0:0:
351,378,56638,5,8,0:1:0:0:
401,194,56847,1,2,0:2:0:0:
297,237,57055,1,2,0:2:0:0:
485,330,57263,2,0,P|503:208|516:156,1,165.000006294251,2|0,0:2|0:2,0:2:0:0:
452,82,57888,1,2,0:2:0:0:
313,160,58097,1,2,0:2:0:0:
107,0,58305,6,0,P|177:15|278:43,1,165.000006294251,4|0,1:2|0:2,0:2:0:0:
266,40,58930,1,0,0:2:0:0:
89,198,59138,2,0,P|83:160|67:111,1,82.5000031471254,0|0,0:2|0:2,0:2:0:0:
186,85,59555,2,0,P|194:125|207:167,1,82.5000031471254,0|0,0:2|0:2,0:2:0:0:
391,355,59972,5,8,0:1:0:0:
464,259,60180,1,8,0:2:0:0:
434,216,60284,1,8,0:2:0:0:
392,198,60388,1,8,0:2:0:0:
350,202,60493,1,8,0:2:0:0:
311,227,60597,2,0,P|300:267|292:319,1,82.5000031471254,6|0,1:2|0:2,0:2:0:0:
37,281,61013,5,8,0:3:0:0:
45,255,61118,1,8,0:3:0:0:
65,236,61222,1,8,0:3:0:0:
116,223,61326,1,8,0:2:0:0:
163,245,61430,1,8,0:2:0:0:
181,295,61534,1,8,0:2:0:0:
172,347,61638,2,0,P|135:357|81:375,1,82.5000031471254,6|0,1:2|0:2,0:2:0:0:
323,147,62055,2,0,P|398:175|427:250,1,165.000006294251,2|0,0:2|0:2,0:2:0:0:
427,249,62888,6,0,P|466:237|503:220,1,82.5000031471254,2|0,0:2|0:2,0:2:0:0:
175,5,63305,2,0,P|115:46|95:141,1,165.000006294251,8|2,0:1|0:2,0:2:0:0:
234,384,63930,1,2,0:2:0:0:
234,384,64138,2,0,P|243:336|260:287,1,82.5000031471254,0|0,0:2|0:2,0:2:0:0:
14,200,64555,1,2,0:2:0:0:
89,334,64763,1,2,0:2:0:0:
289,151,64972,6,0,P|369:158|421:219,1,165.000006294251,0|2,1:2|0:2,0:2:0:0:
253,303,65597,1,2,0:2:0:0:
170,251,65805,2,0,P|163:208|150:147,1,82.5000031471254,0|0,0:2|0:2,0:2:0:0:
253,47,66222,1,2,0:2:0:0:
71,5,66430,1,2,0:2:0:0:
247,205,66638,6,0,P|328:203|394:145,1,165.000006294251,12|0,0:1|0:2,0:2:0:0:
314,5,67263,2,0,L|296:85,1,82.5000031471254,12|0,0:3|0:2,0:2:0:0:
459,312,67680,1,8,0:2:0:0:
480,197,67888,1,4,0:3:0:0:
266,283,68097,1,8,0:2:0:0:
480,197,68305,6,0,P|496:121|511:43,2,142.99999345398,0|0|8,1:2|0:2|0:2,0:2:0:0:
342,261,69347,2,0,P|272:266|215:226,1,142.99999345398,8|0,0:2|0:2,0:2:0:0:
262,92,69972,2,0,P|275:122|290:168,1,71.4999967269899,2|0,1:2|0:2,0:2:0:0:
132,290,70388,2,0,P|118:257|110:223,1,71.4999967269899,2|0,0:2|0:2,0:2:0:0:
370,210,70805,2,0,B|443:222|431:245|513:268,1,142.99999345398,8|0,0:2|0:2,0:2:0:0:
512,180,71430,1,8,0:3:0:0:
262,351,71638,6,0,P|214:298|213:226,1,142.99999345398,0|0,1:2|0:2,0:2:0:0:
211,229,72472,1,8,0:2:0:0:
392,138,72680,2,0,P|304:119|249:162,1,142.99999345398,8|0,0:2|0:2,0:2:0:0:
150,345,73305,5,0,1:2:0:0:
49,294,73513,2,0,P|41:255|31:220,1,71.4999967269899,8|0,0:3|0:2,0:2:0:0:
105,126,73930,1,0,1:2:0:0:
258,274,74138,2,0,P|294:261|338:252,1,71.4999967269899,8|0,0:2|0:2,0:2:0:0:
393,183,74555,1,0,1:2:0:0:
393,183,74763,1,8,0:3:0:0:
262,55,74972,6,0,P|170:31|109:19,1,142.99999345398,0|0,1:2|0:2,0:2:0:0:
122,21,75805,1,8,0:2:0:0:
42,211,76013,2,0,P|-2:156|0:86,1,142.99999345398,8|0,0:2|0:2,0:2:0:0:
268,136,76638,1,2,1:2:0:0:
193,218,76847,1,8,0:3:0:0:
131,128,77055,2,0,L|144:44,1,71.4999967269899,2|0,0:2|0:2,0:2:0:0:
314,227,77472,2,0,P|401:237|464:192,1,142.99999345398,10|0,0:2|0:2,0:2:0:0:
426,136,78097,1,2,0:2:0:0:
270,329,78305,6,0,P|193:344|119:376,1,142.99999345398,0|0,1:2|0:2,0:2:0:0:
133,368,79138,1,8,0:2:0:0:
0,169,79347,2,0,P|69:189|140:205,1,142.99999345398,8|8,0:2|0:3,0:2:0:0:
348,86,79972,1,2,1:2:0:0:
294,30,80180,2,0,P|248:82|251:152,1,142.99999345398,2|0,0:2|1:2,0:2:0:0:
477,377,80805,2,0,P|490:340|501:289,1,71.4999967269899,10|0,0:2|1:2,0:2:0:0:
501,268,81118,1,8,0:2:0:0:
474,239,81222,1,8,0:2:0:0:
432,224,81326,1,8,0:2:0:0:
391,235,81430,1,8,0:2:0:0:
357,255,81534,1,8,0:2:0:0:
311,250,81638,5,2,1:2:0:0:
220,189,81847,1,0,1:2:0:0:
305,108,82055,2,0,P|311:77|323:31,1,71.4999967269899,2|0,0:2|0:2,0:2:0:0:
94,212,82472,1,8,0:2:0:0:
11,138,82680,2,0,P|65:93|135:96,1,142.99999345398,8|0,0:2|0:2,0:2:0:0:
262,244,83305,2,0,P|249:281|243:331,1,71.4999967269899,2|0,1:2|0:2,0:2:0:0:
133,384,83722,2,0,P|124:351|113:312,1,71.4999967269899,2|0,0:2|0:2,0:2:0:0:
369,215,84138,2,0,P|437:231|480:286,1,142.99999345398,10|0,0:2|0:2,0:2:0:0:
413,339,84763,1,2,0:2:0:0:
252,181,84972,6,0,P|266:109|292:23,1,142.99999345398,0|0,1:2|0:2,0:2:0:0:
217,0,85597,1,0,0:2:0:0:
354,142,85805,1,8,0:2:0:0:
450,35,86013,2,0,P|416:27|376:18,1,71.4999967269899,8|0,0:2|0:2,0:2:0:0:
120,121,86430,1,2,0:2:0:0:
85,43,86638,2,0,P|154:38|208:83,1,142.99999345398,2|0,1:2|0:2,0:2:0:0:
142,259,87263,1,2,1:2:0:0:
71,202,87472,5,8,0:2:0:0:
259,229,87680,1,8,0:2:0:0:
71,202,87888,2,0,L|-8:227,1,71.4999967269899,2|0,1:2|0:2,0:2:0:0:
196,383,88305,2,0,P|239:327|246:257,1,142.99999345398,2|0,1:2|0:2,0:2:0:0:
246,257,88930,1,0,0:2:0:0:
153,59,89138,2,0,L|132:140,1,71.4999967269899,8|0,0:2|0:2,0:2:0:0:
256,155,89555,1,0,0:2:0:0:
256,155,89763,1,0,0:2:0:0:
81,221,89972,6,0,L|12:202,1,71.4999967269899,2|0,1:2|0:2,0:2:0:0:
179,384,90388,2,0,P|193:343|198:292,1,71.4999967269899,2|0,0:2|0:2,0:2:0:0:
384,227,90805,2,0,P|454:223|512:276,1,142.99999345398,10|0,0:2|0:2,0:2:0:0:
453,327,91430,1,2,0:2:0:0:
281,184,91638,6,0,P|288:141|296:103,1,71.4999967269899,0|0,1:2|0:2,0:2:0:0:
377,44,92055,2,0,P|410:51|452:59,1,71.4999967269899,0|0,0:2|0:2,0:2:0:0:
171,138,92472,2,0,B|99:134|103:106|32:103,1,142.99999345398,10|0,0:2|0:2,0:2:0:0:
32,103,93097,1,0,0:2:0:0:
119,285,93305,1,2,1:2:0:0:
251,228,93513,2,0,P|264:187|268:150,1,71.4999967269899,2|0,0:2|0:2,0:2:0:0:
43,214,93930,5,8,0:3:0:0:
176,345,94138,1,8,0:2:0:0:
83,379,94347,1,4,0:3:0:0:
40,299,94555,1,6,1:2:0:0:
40,299,94972,6,0,P|133:322|256:357,1,220,4|4,1:3|0:3,0:2:0:0:
329,310,96013,1,8,0:3:0:0:
329,310,96222,1,8,0:3:0:0:
329,310,96430,1,8,0:3:0:0:
433,369,96638,2,0,P|485:274|462:169,2,220,4|0|2,0:3|0:2|0:2,0:2:0:0:
256,192,104972,12,0,107680,0:2:0:0:
262,301,107888,5,2,0:3:0:0:
252,295,107993,1,2,0:3:0:0:
242,288,108097,2,0,L|259:234,1,41.2500015735627,2|2,0:3|0:3,0:3:0:0:
154,132,108305,6,0,B|113:131|65:116|65:116|10:148|-6:215,1,187.000003566742,6|0,1:1|1:2,0:2:0:0:
101,301,108930,1,0,1:2:0:0:
262,159,109138,2,0,P|271:110|284:49,1,93.500001783371,10|0,0:2|0:2,0:2:0:0:
65,0,109555,2,0,P|56:49|40:111,1,93.500001783371,2|0,0:2|1:2,0:2:0:0:
333,335,109972,5,2,0:2:0:0:
486,172,110180,1,2,1:2:0:0:
365,61,110388,1,0,1:2:0:0:
191,203,110597,2,0,P|140:193|100:178,1,93.500001783371,2|8,0:2|0:2,0:2:0:0:
241,54,111013,1,2,1:2:0:0:
371,214,111222,1,2,1:2:0:0:
87,358,111430,5,10,0:2:0:0:
87,358,111534,1,8,0:2:0:0:
87,358,111638,2,0,P|19:296|19:203,1,187.000003566742,4|0,1:2|0:2,0:2:0:0:
101,123,112263,1,0,1:2:0:0:
271,301,112472,1,8,0:2:0:0:
412,161,112680,1,8,0:2:0:0:
227,93,112888,1,8,0:2:0:0:
272,210,113097,1,0,1:2:0:0:
364,78,113305,5,2,0:2:0:0:
173,262,113513,1,2,1:2:0:0:
77,152,113722,1,0,1:2:0:0:
168,58,113930,1,2,1:2:0:0:
382,248,114138,1,8,0:2:0:0:
494,104,114347,1,0,1:2:0:0:
352,0,114555,1,4,0:3:0:0:
216,263,114763,5,4,1:3:0:0:
42,151,114972,2,0,P|114:89|162:97,1,140.250002675057,2|0,1:1|0:2,0:2:0:0:
153,94,115388,2,0,P|167:135|184:190,1,93.500001783371,2|0,0:2|1:2,0:2:0:0:
30,384,115805,2,0,P|16:343|-1:288,1,93.500001783371,10|8,0:2|0:2,0:2:0:0:
321,309,116222,5,2,0:1:0:0:
472,159,116430,2,0,P|382:145|312:204,1,187.000003566742,2|8,1:1|0:2,0:2:0:0:
489,383,117055,2,0,P|498:337|512:293,1,93.500001783371,2|0,1:2|1:2,0:2:0:0:
228,112,117472,2,0,P|216:156|205:202,1,93.500001783371,10|0,0:2|1:2,0:2:0:0:
304,381,117888,1,2,0:2:0:0:
422,272,118097,1,0,1:2:0:0:
324,132,118305,5,4,1:2:0:0:
168,284,118513,1,2,1:1:0:0:
16,94,118722,2,0,P|60:109|105:122,1,93.500001783371,2|0,0:1|1:2,0:2:0:0:
71,361,119138,1,8,0:2:0:0:
0,244,119347,1,0,1:2:0:0:
332,177,119555,5,8,0:3:0:0:
230,265,119763,1,8,0:3:0:0:
105,122,119972,1,12,0:3:0:0:
280,31,120180,1,12,0:3:0:0:
437,204,120388,1,12,0:3:0:0:
506,101,120597,5,8,0:3:0:0:
483,56,120701,1,8,0:3:0:0:
442,31,120805,1,8,0:2:0:0:
394,24,120909,1,8,0:2:0:0:
347,43,121013,1,8,0:2:0:0:
318,81,121118,1,8,0:2:0:0:
304,126,121222,6,8,P|309:144|319:186,1,46.7500008916855,8|8,0:2|0:2,0:2:0:0:
464,304,121430,2,8,P|469:281|476:259,1,46.7500008916855,8|8,0:2|0:2,0:2:0:0:
414,169,121638,6,0,B|377:178|343:174|343:174|303:215|303:215|242:234,1,187.000003566742,4|0,1:1|1:2,0:2:0:0:
25,118,122263,1,0,1:2:0:0:
133,27,122472,2,0,P|145:77|159:127,1,93.500001783371,8|0,0:2|0:2,0:2:0:0:
33,337,122888,2,0,P|22:285|7:237,1,93.500001783371,2|0,0:2|1:2,0:2:0:0:
264,123,123305,5,2,0:2:0:0:
487,293,123513,1,2,1:2:0:0:
479,108,123722,1,2,1:2:0:0:
317,289,123930,2,0,P|264:302|221:315,1,93.500001783371,2|8,0:2|0:2,0:2:0:0:
0,202,124347,1,2,1:2:0:0:
150,125,124555,1,2,0:2:0:0:
128,376,124763,5,8,0:2:0:0:
128,376,124868,1,8,0:2:0:0:
128,376,124972,2,0,B|66:316|66:316|58:258|90:204,1,187.000003566742,4|0,1:2|0:2,0:2:0:0:
210,73,125597,1,0,1:2:0:0:
367,223,125805,1,8,0:2:0:0:
501,50,126013,1,8,0:2:0:0:
340,106,126222,1,8,0:2:0:0:
480,207,126430,1,0,1:2:0:0:
408,28,126638,5,2,0:2:0:0:
257,236,126847,1,2,1:2:0:0:
69,151,127055,1,2,1:2:0:0:
220,0,127263,2,0,P|231:45|248:98,1,93.500001783371,2|8,0:2|0:2,0:2:0:0:
74,371,127680,2,0,P|61:327|44:270,1,93.500001783371,2|0,1:2|0:2,0:2:0:0:
133,97,128097,5,2,1:1:0:0:
388,262,128305,2,0,P|438:244|497:231,1,93.500001783371,4|0,1:2|0:2,0:2:0:0:
282,9,128722,2,0,P|273:46|259:103,1,93.500001783371,2|0,0:2|1:2,0:2:0:0:
461,133,129138,1,8,0:2:0:0:
397,38,129347,1,0,1:0:0:0:
118,272,129555,5,2,0:1:0:0:
32,103,129763,2,0,P|108:106|183:185,1,187.000003566742,2|8,1:1|0:2,0:2:0:0:
88,380,130388,1,0,1:2:0:0:
15,282,130597,1,2,1:2:0:0:
181,182,130805,1,8,0:2:0:0:
271,325,131013,1,0,1:2:0:0:
408,249,131222,1,2,0:2:0:0:
329,117,131430,1,0,1:2:0:0:
176,370,131638,5,12,0:2:0:0:
25,219,131847,1,8,0:2:0:0:
25,219,131951,1,8,0:2:0:0:
25,219,132055,1,8,0:2:0:0:
267,185,132263,1,8,0:2:0:0:
70,41,132472,1,0,1:2:0:0:
223,0,132680,1,0,1:2:0:0:
98,171,132888,5,10,0:2:0:0:
378,87,133097,2,0,L|490:125,1,93.500001783371,10|8,0:3|0:3,0:2:0:0:
382,368,133513,1,8,0:2:0:0:
217,221,133722,1,4,0:3:0:0:
427,228,133930,2,4,L|415:273,1,46.7500008916855,4|4,0:3|0:3,0:3:0:0:
290,372,134138,5,8,0:2:0:0:
259,333,134243,1,8,0:2:0:0:
261,289,134347,1,8,0:2:0:0:
293,252,134451,1,8,0:2:0:0:
335,226,134555,1,8,0:2:0:0:
356,184,134659,1,8,0:2:0:0:
352,133,134763,1,8,0:2:0:0:
330,97,134868,1,8,0:2:0:0:
287,82,134972,1,8,0:2:0:0:
256,192,135109,12,0,138274,0:2:0:0:
328,142,143779,6,0,B|273:150|273:150|237:194|237:194|176:205,1,165.000006294251,4|0,1:2|1:2,0:2:0:0:
42,125,144192,1,0,1:2:0:0:
42,125,144329,2,0,L|70:214,1,82.5000031471254,10|0,0:2|0:2,0:2:0:0:
22,383,144605,2,0,L|-2:294,1,82.5000031471254,2|0,0:2|0:2,0:2:0:0:
245,307,144880,6,0,B|287:318|287:318|342:317|342:317|417:362,2,165.000006294251,2|2|2,0:2|0:2|0:2,0:2:0:0:
245,307,145705,1,2,0:2:0:0:
142,384,145843,1,0,1:2:0:0:
142,384,145912,1,0,1:2:0:0:
142,384,145981,2,0,L|178:223,1,165.000006294251,0|0,1:2|0:2,0:2:0:0:
128,150,146394,1,0,1:2:0:0:
44,183,146531,1,8,0:2:0:0:
0,101,146669,1,8,0:2:0:0:
83,39,146806,2,0,L|171:69,1,82.5000031471254,8|0,0:2|1:2,0:2:0:0:
334,165,147082,5,0,1:2:0:0:
334,165,147219,1,0,1:2:0:0:
334,165,147357,2,0,L|421:138,1,82.5000031471254,0|0,1:2|1:2,0:2:0:0:
489,47,147632,1,8,0:2:0:0:
410,0,147770,1,0,1:2:0:0:
343,61,147907,1,0,1:2:0:0:
276,13,148045,1,0,1:2:0:0:
220,81,148183,6,0,P|241:172|253:252,1,165.000006294251,2|0,1:2|0:2,0:2:0:0:
180,294,148595,1,0,1:2:0:0:
180,294,148733,2,0,P|186:333|196:377,1,82.5000031471254,10|0,0:2|0:2,0:2:0:0:
375,336,149008,2,0,P|364:290|351:239,1,82.5000031471254,2|0,0:2|1:2,0:2:0:0:
186,170,149283,5,0,1:2:0:0:
120,221,149421,1,8,0:2:0:0:
79,138,149559,2,0,P|39:128|0:117,1,82.5000031471254,0|0,1:2|1:2,0:2:0:0:
156,80,149834,2,0,P|164:41|176:-9,1,82.5000031471254,8|0,0:2|1:2,0:2:0:0:
268,0,150109,1,2,0:2:0:0:
311,67,150247,1,0,1:2:0:0:
399,23,150384,5,4,1:3:0:0:
399,23,150522,1,4,1:3:0:0:
399,23,150660,2,0,P|438:34|483:42,1,82.5000031471254,2|0,0:2|1:2,0:2:0:0:
270,228,150935,2,0,P|258:182|231:131,1,82.5000031471254,10|0,0:2|1:2,0:2:0:0:
512,178,151210,5,8,0:3:0:0:
423,236,151348,1,0,1:2:0:0:
340,130,151485,2,0,P|369:141|427:156,1,82.5000031471254,2|0,1:2|1:2,0:2:0:0:
486,352,151760,1,8,0:3:0:0:
486,352,151898,2,0,B|513:321|513:321|511:279,1,82.5000031471254,4|8,1:3|0:2,0:2:0:0:
313,283,152173,5,4,0:3:0:0:
302,287,152242,1,4,0:3:0:0:
293,291,152311,1,4,0:3:0:0:
284,295,152380,1,4,0:3:0:0:
274,299,152449,1,4,0:3:0:0:
264,303,152517,1,4,0:3:0:0:
255,307,152586,6,0,L|217:141,1,165.000006294251,4|0,1:2|1:2,0:2:0:0:
258,68,152999,1,0,1:2:0:0:
367,113,153137,2,0,B|394:81|394:81|387:40,1,82.5000031471254,10|0,0:2|0:2,0:2:0:0:
178,5,153412,2,0,L|89:33,1,82.5000031471254,2|0,0:2|1:2,0:2:0:0:
0,269,153687,5,2,1:2:0:0:
0,269,153825,1,0,1:2:0:0:
0,269,153962,2,0,P|39:256|90:247,1,82.5000031471254,2|0,1:2|1:2,0:2:0:0:
176,128,154238,1,8,0:2:0:0:
176,128,154375,1,0,1:2:0:0:
91,131,154513,1,2,0:2:0:0:
165,212,154650,1,0,1:2:0:0:
255,181,154788,6,0,P|289:100|295:4,1,165.000006294251,4|0,1:3|0:2,0:2:0:0:
294,18,155201,1,0,1:2:0:0:
387,82,155338,2,0,P|427:72|467:60,1,82.5000031471254,10|0,0:2|1:2,0:2:0:0:
380,290,155614,2,0,P|362:254|351:203,1,82.5000031471254,8|8,0:3|0:3,0:2:0:0:
484,175,155889,1,2,1:2:0:0:
484,175,156027,1,0,1:2:0:0:
484,175,156164,2,0,P|501:210|513:262,1,82.5000031471254,2|8,1:2|0:3,0:2:0:0:
315,377,156439,5,8,0:2:0:0:
236,317,156577,1,0,1:2:0:0:
282,255,156715,1,6,1:3:0:0:
348,296,156852,1,4,1:3:0:0:
166,369,156990,6,0,P|97:344|-1:326,1,165.000006294251,4|2,1:1|0:2,0:2:0:0:
7,326,157403,1,0,1:2:0:0:
134,181,157540,2,0,P|142:140|155:89,1,82.5000031471254,10|0,0:2|1:2,0:2:0:0:
15,70,157816,2,0,P|7:112|-7:163,1,82.5000031471254,2|0,0:2|1:2,0:2:0:0:
248,326,158091,5,2,0:2:0:0:
297,265,158228,1,8,0:2:0:0:
173,286,158366,2,0,P|134:272|94:261,1,82.5000031471254,2|0,1:2|1:2,0:2:0:0:
260,188,158641,2,0,P|268:145|285:98,1,82.5000031471254,8|0,0:2|1:2,0:2:0:0:
413,325,158916,1,2,0:2:0:0:
492,292,159054,1,0,1:2:0:0:
465,206,159192,5,4,1:3:0:0:
465,206,159329,1,4,1:3:0:0:
465,206,159467,2,0,P|423:197|378:185,1,82.5000031471254,2|0,0:2|1:2,0:2:0:0:
248,310,159742,2,0,B|187:317|187:317|163:355|163:355|102:378,1,165.000006294251,10|8,0:2|0:3,0:2:0:0:
0,250,160155,1,8,0:3:0:0:
0,249,160293,2,0,L|84:282,1,82.5000031471254,2|0,1:2|1:2,0:2:0:0:
249,213,160568,2,0,B|274:177|274:177|268:128,1,82.5000031471254,2|0,0:2|1:2,0:2:0:0:
192,69,160843,1,8,0:2:0:0:
102,122,160981,5,4,0:3:0:0:
92,125,161049,1,4,0:3:0:0:
82,130,161118,1,4,0:3:0:0:
72,133,161187,1,4,0:3:0:0:
62,137,161256,1,4,0:3:0:0:
52,140,161325,1,4,0:3:0:0:
44,143,161394,2,0,P|39:103|28:63,1,82.5000031471254,6|0,1:1|0:2,0:2:0:0:
150,234,161669,2,0,P|191:246|229:258,1,82.5000031471254,2|0,1:2|1:2,0:2:0:0:
485,145,161944,6,0,P|425:91|344:94,1,165.000006294251,10|0,0:2|0:2,0:2:0:0:
270,140,162357,1,0,1:2:0:0:
367,246,162494,2,0,P|353:284|346:325,1,82.5000031471254,2|0,1:2|1:2,1:2:0:0:
139,369,162770,1,2,1:2:0:0:
170,263,162907,1,8,0:3:0:0:
261,299,163045,1,10,0:2:0:0:
222,384,163183,1,0,1:2:0:0:
70,298,163320,6,0,P|56:257|41:201,1,82.5000031471254,2|0,0:2|1:2,0:2:0:0:
157,101,163595,1,4,1:3:0:0:
157,101,163871,2,0,P|202:111|244:122,1,82.5000031471254,2|0,0:2|1:2,0:2:0:0:
432,100,164146,1,8,0:2:0:0:
445,16,164283,1,8,0:2:0:0:
350,0,164421,1,8,0:2:0:0:
327,88,164559,1,0,1:2:0:0:
392,181,164696,6,0,P|401:219|414:273,1,82.5000031471254,2|0,0:2|1:2,0:2:0:0:
215,384,164971,2,0,P|208:344|196:291,1,82.5000031471254,2|0,1:2|1:2,0:2:0:0:
276,228,165247,1,8,0:2:0:0:
308,318,165384,1,0,1:2:0:0:
391,354,165522,1,4,0:3:0:0:
485,323,165660,1,4,0:3:0:0:
512,237,165797,6,0,B|504:160|472:163|465:61,1,165.000006294251,4|0,1:2|0:2,0:2:0:0:
458,77,166210,1,0,1:2:0:0:
334,243,166348,2,0,P|378:222|433:215,1,82.5000031471254,10|0,0:2|0:2,0:2:0:0:
351,42,166623,2,0,P|310:54|265:63,1,82.5000031471254,2|0,0:2|1:2,0:2:0:0:
120,205,166898,1,2,0:2:0:0:
50,148,167036,1,8,0:2:0:0:
86,69,167173,1,0,1:2:0:0:
176,67,167311,1,0,1:2:0:0:
229,150,167449,2,0,L|210:242,1,82.5000031471254,10|0,0:2|1:2,0:2:0:0:
479,339,167724,5,8,0:3:0:0:
422,221,167861,1,0,1:2:0:0:
322,334,167999,2,0,B|284:333|284:333|243:351,1,82.5000031471254,6|0,1:2|1:2,0:2:0:0:
32,157,168274,2,0,B|75:159|75:159|114:188,1,82.5000031471254,2|0,0:2|1:2,0:2:0:0:
119,384,168549,2,0,B|111:343|111:343|138:287,1,82.5000031471254,8|0,0:2|1:2,0:2:0:0:
346,140,168825,5,8,0:3:0:0:
324,226,168962,1,4,1:3:0:0:
237,216,169100,2,0,B|210:142|249:128|210:39,1,165.000006294251,4|0,0:3|0:2,0:2:0:0:
137,12,169513,1,4,0:3:0:0:
137,12,169650,2,0,L|74:29,1,65.9999979858399,4|0,0:3|0:2,0:2:0:0:
22,99,169926,2,0,P|34:142|41:175,1,65.9999979858399,2|0,0:2|0:2,0:2:0:0:
174,236,170201,6,0,L|237:216,2,65.9999979858399,2|2|2,0:3|0:3|0:3,0:3:0:0:
477,382,171486,1,2,0:3:0:0:
477,382,171903,2,0,L|502:305,1,73.3333333333333,2|2,0:3|0:3,0:3:0:0:
384,92,172450,2,0,L|350:205,1,110,2|2,0:3|0:3,0:3:0:0:
352,197,173253,5,6,0:3:0:0:
60,349,176556,5,4,0:3:0:0:
60,349,178208,5,12,0:3:0:0:
276,236,178416,1,12,0:3:0:0:
36,94,178624,1,12,0:3:0:0:
132,20,178833,6,0,L|139:63,2,44,2|2|2,0:1|0:1|0:1,0:1:0:0:
493,254,180083,6,0,L|505:211,2,44,2|2|2,0:1|0:1|0:1,0:1:0:0:
288,379,181124,5,8,0:2:0:0:
259,329,181228,1,8,0:2:0:0:
270,276,181333,1,8,0:0:0:0:
314,246,181437,1,8,0:0:0:0:
360,257,181541,6,0,P|268:270|191:201,1,187.000003566742,6|0,1:1|1:2,0:2:0:0:
165,120,182166,1,0,1:2:0:0:
38,244,182374,2,0,P|23:198|9:141,1,93.500001783371,10|0,0:2|0:2,0:2:0:0:
332,0,182791,2,0,P|346:45|361:103,1,93.500001783371,2|0,0:2|1:2,0:2:0:0:
209,351,183208,5,2,0:2:0:0:
72,121,183416,1,2,1:2:0:0:
242,140,183624,1,0,1:2:0:0:
115,314,183833,2,0,P|64:328|23:349,1,93.500001783371,2|8,1:2|0:2,0:2:0:0:
150,102,184249,1,2,1:2:0:0:
309,255,184458,1,2,0:2:0:0:
434,52,184666,5,8,0:2:0:0:
434,52,184770,1,8,0:2:0:0:
434,52,184874,2,0,P|347:76|311:159,1,187.000003566742,4|0,1:2|0:2,0:2:0:0:
398,381,185499,1,0,1:2:0:0:
502,254,185708,1,8,0:2:0:0:
311,159,185916,1,8,0:2:0:0:
190,361,186124,1,8,0:2:0:0:
81,280,186333,1,0,1:2:0:0:
168,119,186541,5,2,0:2:0:0:
353,335,186749,1,2,1:2:0:0:
428,215,186958,1,0,1:2:0:0:
207,282,187166,1,2,1:2:0:0:
305,186,187374,1,8,0:2:0:0:
101,148,187583,1,4,1:3:0:0:
359,5,187791,1,4,0:3:0:0:
153,11,187999,5,2,1:1:0:0:
416,223,188208,2,0,P|445:147|409:80,1,140.250002675057,6|0,1:1|0:2,0:2:0:0:
424,95,188624,2,0,P|373:115|327:121,1,93.500001783371,2|0,0:2|1:2,0:2:0:0:
404,371,189041,2,0,P|454:349|498:343,1,93.500001783371,10|0,0:2|1:2,0:2:0:0:
221,147,189458,5,2,0:1:0:0:
111,350,189666,2,0,P|45:277|56:187,1,187.000003566742,2|8,1:1|0:2,0:2:0:0:
317,95,190291,1,0,1:2:0:0:
383,240,190499,1,0,1:2:0:0:
242,334,190708,1,10,0:2:0:0:
152,257,190916,1,0,1:2:0:0:
313,177,191124,1,2,0:2:0:0:
98,147,191333,5,2,1:2:0:0:
348,282,191541,1,4,1:1:0:0:
98,147,191749,1,2,1:1:0:0:
278,10,191958,2,0,P|266:54|257:107,1,93.500001783371,2|0,0:1|1:2,0:2:0:0:
97,344,192374,5,8,0:2:0:0:
0,194,192583,1,8,0:2:0:0:
0,194,192687,1,8,0:2:0:0:
0,194,192791,1,8,0:2:0:0:
194,221,192999,1,8,0:2:0:0:
49,74,193208,1,0,1:2:0:0:
271,56,193416,1,0,1:2:0:0:
139,0,193624,5,10,0:2:0:0:
303,216,193833,1,8,0:3:0:0:
350,230,193937,1,8,0:3:0:0:
400,214,194041,1,8,0:2:0:0:
430,167,194145,1,8,0:2:0:0:
420,114,194249,1,8,0:2:0:0:
371,88,194353,1,8,0:2:0:0:
317,96,194458,6,8,P|309:117|305:144,1,46.7500008916855,8|8,0:2|0:2,0:2:0:0:
209,203,194666,2,8,P|213:229|227:262,1,46.7500008916855,8|8,0:2|0:2,0:2:0:0:
331,334,194874,6,0,B|371:315|371:315|407:278|407:278|455:258|501:270,1,187.000003566742,4|0,1:1|1:2,0:2:0:0:
476,356,195499,1,0,1:2:0:0:
287,165,195708,2,0,P|270:115|261:57,1,93.500001783371,10|0,0:2|0:2,0:2:0:0:
142,339,196124,2,0,P|97:352|54:371,1,93.500001783371,2|0,0:2|1:2,0:2:0:0:
76,87,196541,5,2,0:2:0:0:
248,241,196749,1,2,1:2:0:0:
370,113,196958,1,2,1:2:0:0:
182,13,197166,2,0,P|171:58|167:111,1,93.500001783371,2|8,0:2|0:2,0:2:0:0:
37,257,197583,1,2,1:2:0:0:
167,104,197791,1,2,0:2:0:0:
398,294,197999,5,8,0:2:0:0:
398,294,198103,1,8,0:2:0:0:
398,294,198208,2,0,P|475:246|500:145,1,187.000003566742,4|0,1:2|0:2,0:2:0:0:
395,41,198833,1,0,1:2:0:0:
193,195,199041,1,8,0:2:0:0:
176,18,199249,1,8,0:2:0:0:
388,157,199458,1,8,0:2:0:0:
286,252,199666,1,0,1:2:0:0:
271,64,199874,5,2,1:2:0:0:
391,313,200083,1,2,1:2:0:0:
500,192,200291,1,2,1:2:0:0:
171,133,200499,2,0,P|126:149|70:165,1,93.500001783371,2|8,1:2|0:2,0:2:0:0:
268,384,200916,2,0,P|276:337|291:285,1,93.500001783371,2|0,1:2|1:2,0:2:0:0:
102,38,201333,5,2,1:1:0:0:
296,179,201541,2,0,P|378:156|411:85,1,140.250002675057,6|0,1:1|0:2,0:2:0:0:
406,112,201958,2,0,P|394:62|373:8,1,93.500001783371,2|0,0:2|1:2,0:2:0:0:
141,290,202374,2,0,P|88:305|38:333,1,93.500001783371,8|0,0:2|1:2,0:2:0:0:
240,63,202791,5,2,0:1:0:0:
241,317,202999,2,0,P|150:234|155:162,1,187.000003566742,2|8,1:1|0:2,0:2:0:0:
388,76,203624,1,0,1:2:0:0:
441,291,203833,1,0,1:2:0:0:
325,241,204041,1,8,0:2:0:0:
469,176,204249,1,0,1:2:0:0:
280,46,204458,1,0,1:2:0:0:
475,7,204666,5,2,1:1:0:0:
278,153,204874,2,0,L|187:130,1,93.500001783371,4|0,1:1|1:2,0:2:0:0:
0,220,205291,1,8,0:2:0:0:
178,339,205499,1,8,0:2:0:0:
188,131,205708,1,0,1:2:0:0:
54,335,205916,1,8,0:2:0:0:
71,96,206124,5,10,1:2:0:0:
268,302,206333,1,8,0:3:0:0:
427,130,206541,1,8,0:3:0:0:
259,175,206749,1,4,1:3:0:0:
383,286,206958,1,4,1:3:0:0:
451,49,207166,5,8,0:3:0:0:
440,29,207270,1,8,0:3:0:0:
403,15,207374,1,8,0:2:0:0:
357,22,207478,1,8,0:2:0:0:
322,52,207583,1,8,0:2:0:0:
315,99,207687,1,8,0:2:0:0:
335,144,207791,1,8,0:2:0:0:
373,175,207895,1,8,0:2:0:0:
403,215,207999,1,8,0:2:0:0:
411,268,208103,1,8,0:2:0:0:
388,314,208208,1,8,0:2:0:0:
256,192,208312,12,0,211541,0:2:0:0:
