osu file format v14

[General]
AudioFilename: audio.mp3
AudioLeadIn: 0
PreviewTime: 49339
Countdown: 0
SampleSet: Soft
StackLeniency: 0.4
Mode: 0
LetterboxInBreaks: 0
WidescreenStoryboard: 0

[Editor]
Bookmarks: 17594,57594,65594,81594
DistanceSpacing: 0.5
BeatDivisor: 4
GridSize: 16
TimelineZoom: 1.4

[Metadata]
Title:WHITE NIGHT
TitleUnicode:WHITE NIGHT
Artist:HOYO-MiX feat. Jake Miller
ArtistUnicode:HOYO-MiX feat. Jake Miller
Creator:Mocaotic
Version:THE LAND OF DREAMS
Source:Honkai: Star Rail
Tags:Aurorance 不眠之夜 崩壞: 星穹鐵道 崩壊:スターレイル 붕스 붕괴: 스타레일 HSR hoyoverse mihoyo Version 2.0 Penacony MV Music Video Game RPG Original English Pop
BeatmapID:4484795
BeatmapSetID:2132107

[Difficulty]
HPDrainRate:6
CircleSize:4
OverallDifficulty:8.2
ApproachRate:9.2
SliderMultiplier:2.4
SliderTickRate:1

[Events]
//Background and Video events
Video,0,"video.mp4"
0,0,"moca_hsr.jpg",0,0
//Break Periods
//Storyboard Layer 0 (Background)
//Storyboard Layer 1 (Fail)
//Storyboard Layer 2 (Pass)
//Storyboard Layer 3 (Foreground)
//Storyboard Layer 4 (Overlay)
//Storyboard Sound Samples

[TimingPoints]
1589,500,4,2,2,50,1,0
1589,-200,4,2,2,50,0,0
6089,-66.6666666666667,4,2,2,50,0,0
6339,-66.6666666666667,4,2,2,60,0,0
6589,-50,4,2,2,70,0,0
7089,-66.6666666666667,4,2,2,70,0,0
8589,-66.6666666666667,4,2,2,70,0,0
8651,-66.6666666666667,4,2,2,5,0,0
8839,-66.6666666666667,4,2,2,70,0,0
8901,-66.6666666666667,4,2,2,5,0,0
9339,-133.333333333333,4,2,2,70,0,0
9589,-40,4,2,2,80,0,0
9776,-40,4,2,2,5,0,0
9839,-100,4,2,2,80,0,0
10089,-40,4,2,2,80,0,0
10276,-40,4,2,2,5,0,0
10339,-100,4,2,2,80,0,0
10589,-50,4,2,2,80,0,0
10964,-100,4,2,2,80,0,0
11589,-40,4,2,2,80,0,0
11776,-40,4,2,2,5,0,0
11839,-100,4,2,2,80,0,0
12089,-40,4,2,2,80,0,0
12276,-40,4,2,2,5,0,0
12339,-100,4,2,2,80,0,0
12589,-50,4,2,2,80,0,0
12964,-66.6666666666667,4,2,2,80,0,0
13589,-40,4,2,2,80,0,0
13776,-40,4,2,2,5,0,0
13839,-100,4,2,2,80,0,0
14089,-40,4,2,2,80,0,0
14276,-40,4,2,2,5,0,0
14339,-100,4,2,2,80,0,0
14589,-50,4,2,2,80,0,0
16089,-40,4,2,2,80,0,0
16339,-66.6666666666667,4,2,2,80,0,0
16589,-33.3333333333333,4,2,2,80,0,0
16651,-33.3333333333333,4,2,2,5,0,0
16839,-33.3333333333333,4,2,2,80,0,0
16901,-33.3333333333333,4,2,2,5,0,0
17089,-100,4,2,2,80,0,0
17151,-100,4,2,2,5,0,0
17589,-133.333333333333,4,2,2,60,0,0
18339,-100,4,2,2,60,0,0
18589,-200,4,2,2,60,0,0
19339,-100,4,2,2,60,0,0
19589,-666.666666666667,4,2,2,60,0,0
20339,-133.333333333333,4,2,2,60,0,0
20714,-66.6666666666667,4,2,2,60,0,0
21589,-133.333333333333,4,2,2,60,0,0
22339,-100,4,2,2,60,0,0
22589,-200,4,2,2,60,0,0
23339,-100,4,2,2,60,0,0
23589,-666.666666666667,4,2,2,60,0,0
24339,-133.333333333333,4,2,2,60,0,0
24839,-66.6666666666667,4,2,2,60,0,0
24901,-66.6666666666667,4,2,2,5,0,0
25089,-66.6666666666667,4,2,2,60,0,0
25151,-66.6666666666667,4,2,2,5,0,0
25339,-100,4,2,2,60,0,0
29089,-66.6666666666667,4,2,2,60,0,0
29834,-80,4,2,2,60,0,0
30589,-100,4,2,2,60,0,0
31589,-250,4,2,2,40,0,0
33589,-250,4,2,2,50,0,0
34089,-500,4,2,2,50,0,0
34589,-100,4,2,2,50,0,0
35089,-500,4,2,2,50,0,0
35589,-100,4,2,2,50,0,0
36089,-500,4,2,2,50,0,0
36589,-57.1428571428571,4,2,2,50,0,0
37339,-133.333333333333,4,2,2,50,0,0
41589,-100,4,2,2,60,0,0
42589,-125,4,2,2,60,0,0
43589,-166.666666666667,4,2,2,60,0,0
44589,-250.000000000001,4,2,2,60,0,0
45589,-125,4,2,2,70,0,0
46089,-83.3333333333333,4,2,2,70,0,0
46589,-62.5,4,2,2,80,0,0
47089,-50,4,2,2,80,0,0
48839,-200,4,2,2,50,0,0
49589,-500,4,2,2,65,0,0
51589,-333.333333333333,4,2,2,65,0,0
52714,-333.333333333333,4,2,2,50,0,0
52839,-66.6666666666667,4,2,2,50,0,0
53589,-500,4,2,2,65,0,0
55589,-333.333333333333,4,2,2,65,0,0
56714,-333.333333333333,4,2,2,50,0,0
56839,-66.6666666666667,4,2,2,50,0,0
57214,-133.333333333333,4,2,2,50,0,0
57589,-66.6666666666667,4,2,2,65,0,0
58089,-133.333333333333,4,2,2,65,0,0
58464,-50,4,2,2,65,0,0
58839,-66.6666666666667,4,2,2,65,0,0
59089,-100,4,2,2,65,0,0
59589,-400,4,2,2,65,0,0
60339,-133.333333333333,4,2,2,65,0,0
60589,-100,4,2,2,65,0,0
61089,-66.6666666666667,4,2,2,65,0,0
61339,-50,4,2,2,65,0,0
63964,-500,4,2,2,65,0,0
64584,-83.3333333333333,4,2,2,65,0,0
64651,-83.3333333333333,4,2,2,5,0,0
64839,-83.3333333333333,4,2,2,65,0,0
64901,-83.3333333333333,4,2,2,5,0,0
65089,-666.666666666667,4,2,2,65,0,0
66089,-33.3333333333333,4,2,2,88,0,1
66589,-40,4,2,2,88,0,1
67089,-50,4,2,2,88,0,1
68839,-40,4,2,2,88,0,1
69214,-33.3333333333333,4,2,2,88,0,1
69589,-400,4,2,2,88,0,1
70089,-33.3333333333333,4,2,2,88,0,1
70589,-40,4,2,2,88,0,1
71089,-50,4,2,2,88,0,1
72464,-40,4,2,2,88,0,1
72839,-66.6666666666667,4,2,2,88,0,1
73089,-50,4,2,2,88,0,1
73589,-400,4,2,2,88,0,0
74089,-28.5714285714286,4,2,2,88,0,1
74589,-40,4,2,2,88,0,1
76089,-50,4,2,2,88,0,1
76589,-50,4,2,2,88,0,1
76964,-40,4,2,2,88,0,1
77339,-33.3333333333333,4,2,2,88,0,1
77589,-28.5714285714286,4,2,2,88,0,1
78089,-40,4,2,2,88,0,1
78839,-50,4,2,2,88,0,1
79089,-55.5555555555556,4,2,2,88,0,1
79839,-50,4,2,2,88,0,1
80839,-500,4,2,2,88,0,0
82089,-50,4,2,2,80,0,0
82964,-100,4,2,2,80,0,0
83589,-40,4,2,2,80,0,0
83776,-40,4,2,2,5,0,0
83839,-100,4,2,2,80,0,0
84089,-40,4,2,2,80,0,0
84276,-40,4,2,2,5,0,0
84339,-100,4,2,2,80,0,0
84589,-50,4,2,2,80,0,0
85089,-66.6666666666667,4,2,2,80,0,0
85589,-40,4,2,2,80,0,0
85776,-40,4,2,2,5,0,0
85839,-100,4,2,2,80,0,0
86089,-40,4,2,2,80,0,0
86276,-40,4,2,2,5,0,0
86339,-100,4,2,2,80,0,0
86589,-50,4,2,2,80,0,0
87589,-50,4,2,2,60,0,0
89089,-100,4,2,2,60,0,0
89151,-100,4,2,2,5,0,0

[Colours]
Combo1 : 233,233,233
Combo2 : 255,38,44
Combo3 : 255,152,26
Combo4 : 255,170,170
Combo5 : 255,213,170
Combo6 : 191,191,191

[HitObjects]
492,65,1589,69,2,0:0:0:0:
492,65,2089,2,0,P|438:141|432:43,3,240,2|2|2|2,0:1|0:1|0:1|0:1,0:0:0:0:
422,47,5839,5,0,3:0:0:0:
422,47,6089,37,2,3:1:0:0:
349,69,6214,1,0,3:0:0:0:
357,144,6339,2,0,P|404:157|447:171,1,90.0000034332277,2|0,3:2|0:0,0:0:0:0:
512,263,6589,102,0,B|410:257|365:168|365:168|351:270|246:309,1,360,4|0,0:0|0:0,0:0:0:0:
202,375,7089,1,2,0:1:0:0:
202,375,7151,1,0,0:0:0:0:
202,375,7214,2,0,L|188:316,2,45.0000017166138,0|0|6,0:0|0:0|3:2,0:0:0:0:
45,298,7505,69,0,3:2:0:0:
114,313,7589,1,0,3:2:0:0:
157,195,7755,101,0,3:2:0:0:
171,241,7839,1,0,3:2:0:0:
273,239,8005,69,0,3:2:0:0:
253,259,8089,1,0,3:2:0:0:
292,342,8255,101,0,3:2:0:0:
278,338,8339,1,0,3:2:0:0:
48,291,8589,70,0,L|58:348,1,45.0000017166138,8|0,0:0|0:0,0:0:0:0:
357,236,8839,2,0,L|367:293,1,45.0000017166138,8|0,0:0|0:0,0:0:0:0:
364,280,9339,53,2,0:0:0:0:
302,330,9464,1,2,0:0:0:0:
375,357,9589,102,0,P|490:321|438:200,1,225,4|0,3:2|0:0,0:0:0:0:
477,228,9839,2,0,L|490:164,1,60,2|0,0:0|0:0,0:0:0:0:
512,17,10089,70,0,P|397:53|449:174,1,225,8|0,3:2|0:0,0:0:0:0:
410,146,10339,2,0,L|397:210,1,60,2|0,0:0|0:0,0:0:0:0:
497,242,10589,102,0,B|439:264|421:326|421:326|380:261|266:261,1,240,2|0,3:2|0:0,0:0:0:0:
169,240,10964,2,0,P|192:290|254:309,1,120,2|0,0:0|0:0,0:0:0:0:
243,231,11339,69,2,0:0:0:0:
315,261,11464,1,2,0:0:0:0:
255,316,11589,102,0,P|172:277|234:153,1,225,2|0,3:2|0:0,0:0:0:0:
208,161,11839,2,0,L|273:177,1,60,2|0,0:0|0:0,0:0:0:0:
354,9,12089,70,0,P|437:48|375:172,1,225,8|0,3:2|0:0,0:0:0:0:
401,164,12339,2,0,L|336:148,1,60,2|0,0:0|0:0,0:0:0:0:
272,177,12589,102,0,L|134:141,1,120,2|0,3:2|0:0,0:0:0:0:
0,103,12839,1,2,0:0:0:0:
88,70,12964,1,2,0:0:0:0:
88,70,13089,2,0,L|68:157,1,90.0000034332277,8|0,3:2|0:0,0:0:0:0:
57,306,13339,69,2,3:2:0:0:
133,314,13464,1,2,0:0:0:0:
90,380,13589,102,0,P|4:363|18:236,1,225,4|0,3:2|0:0,0:0:0:0:
14,240,13839,2,0,L|1:182,1,60,2|0,0:0|0:0,0:0:0:0:
6,20,14089,70,0,P|92:37|78:164,1,225,8|0,3:2|0:0,0:0:0:0:
82,160,14339,2,0,L|95:218,1,60,2|0,0:0|0:0,0:0:0:0:
0,301,14589,6,0,B|71:289|96:235|96:235|112:316|236:334,1,240,2|0,3:2|0:0,0:0:0:0:
238,355,14964,1,2,0:0:0:0:
290,301,15089,1,8,3:2:0:0:
294,306,15339,69,2,0:0:0:0:
242,360,15464,1,2,0:0:0:0:
172,325,15589,2,0,B|115:313|93:244|93:244|69:298|-1:316,1,240,0|2,3:0|0:0,0:0:0:0:
65,162,15964,5,2,0:0:0:0:
157,195,16089,2,0,B|133:172|139:125|139:125|101:171|26:159,1,150,8|2,3:2|0:0,0:0:0:0:
210,90,16339,70,0,B|207:72|222:48|222:48|190:63|152:38,1,90.0000034332277,2|0,0:0|0:0,0:0:0:0:
8,27,16589,6,0,L|124:49,1,90.0000034332277,8|0,0:0|0:0,0:0:0:0:
512,111,16839,2,0,L|396:89,1,90.0000034332277,8|0,0:0|0:0,0:0:0:0:
268,13,17089,70,0,L|260:55,1,30
16,189,17589,22,0,P|109:198|168:219,1,135.000005149841,4|2,3:2|0:0,0:0:0:0:
148,210,18089,1,8,0:0:0:0:
164,113,18339,2,0,P|204:152|220:187,1,60,2|0,0:0|0:0,0:0:0:0:
265,46,18589,2,0,P|286:130|287:160,1,90,2|2,0:0|0:0,0:0:0:0:
286,133,19089,1,8,0:0:0:0:
408,110,19339,2,0,P|377:145|346:174,1,60,2|0,0:0|0:0,0:0:0:0:
426,231,19589,6,0,L|388:236,1,35.9999989013672,2|8,3:2|0:0,0:0:0:0:
328,192,20339,1,2,0:0:0:0:
328,192,20464,2,0,B|304:185|304:185|281:203,1,45.0000017166138,0|0,3:0|0:0,0:0:0:0:
213,239,20714,69,2,0:0:0:0:
226,328,20839,2,0,L|211:226,1,90.0000034332277,0|0,3:0|0:0,0:0:0:0:
276,108,21089,2,0,L|288:196,1,90.0000034332277,8|0,0:0|0:0,0:0:0:0:
451,307,21339,5,2,0:0:0:0:
451,307,21589,2,0,P|371:278|285:267,1,135.000005149841,2|2,3:2|0:0,0:0:0:0:
321,269,22089,1,8,0:0:0:0:
342,169,22339,2,0,P|302:188|254:222,1,60,2|0,0:0|0:0,0:0:0:0:
236,77,22589,2,0,P|223:116|212:176,1,90,2|2,0:0|0:0,0:0:0:0:
213,163,23089,1,8,0:0:0:0:
110,139,23339,2,0,P|129:179|163:226,1,60,2|0,0:0|0:0,0:0:0:0:
66,259,23589,70,0,L|105:266,1,35.9999989013672,2|8,3:2|0:0,0:0:0:0:
166,313,24339,1,2,0:0:0:0:
166,313,24464,2,0,B|189:316|189:316|210:299,1,45.0000017166138,0|0,3:0|0:0,0:0:0:0:
275,260,24714,1,2,0:2:0:0:
295,378,24839,6,0,L|285:317,1,45.0000017166138,0|0,3:0|0:0,0:0:0:0:
256,140,25089,2,0,L|266:201,1,45.0000017166138,8|0,0:0|0:0,0:0:0:0:
30,346,25339,69,2,0:0:0:0:
30,346,25589,2,0,P|89:326|155:317,1,120,2|0,3:2|0:0,0:0:0:0:
153,243,25964,1,2,0:0:0:0:
153,243,26089,2,0,P|193:254|211:284,1,60,8|0,0:0|0:0,0:0:0:0:
222,345,26339,2,0,P|260:330|276:299,1,60,2|0,0:0|0:0,0:0:0:0:
213,265,26589,2,0,P|272:285|338:294,1,120,2|0,0:0|3:2,0:0:0:0:
342,220,26964,2,0,P|380:234|400:264,1,60,2|8,0:0|0:0,0:0:0:0:
512,101,27339,5,2,0:0:0:0:
512,101,27589,2,0,P|457:115|371:128,1,120,2|0,3:2|0:0,0:0:0:0:
357,55,27964,1,2,0:0:0:0:
357,55,28089,2,0,P|335:75|306:82,1,60,8|0,0:0|0:0,0:0:0:0:
332,174,28339,2,0,P|280:157|198:138,1,120,2|0,0:0|0:0,0:0:0:0:
153,181,28714,1,0,0:0:0:0:
153,181,28839,2,0,P|131:161|102:154,1,60,0|0,3:2|0:0,0:0:0:0:
91,64,29089,70,0,L|106:186,1,90.0000034332277,10|0,0:0|0:0,0:0:0:0:
49,211,29339,2,0,L|64:333,1,90.0000034332277,2|0,0:0|0:0,0:0:0:0:
9,361,29589,1,4,3:2:0:0:
225,69,29839,6,0,L|238:178,1,75,2|0,0:0|0:0,0:0:0:0:
187,199,30089,2,0,L|200:308,1,75,8|0,0:0|0:0,0:0:0:0:
151,333,30339,1,0,0:0:0:0:
353,77,30589,70,0,L|365:175,1,60,2|0,0:0|0:0,0:0:0:0:
318,193,30839,2,0,L|330:291,1,60,2|0,3:2|0:0,0:0:0:0:
286,314,31089,1,8,0:0:0:0:
481,80,31589,6,0,L|488:141,1,48,2|0,3:2|0:0,0:0:0:0:
443,183,31964,2,0,L|450:244,1,48,2|0,3:2|0:0,0:0:0:0:
411,297,32339,1,2,3:2:0:0:
256,192,32464,12,4,33589,0:0:0:0:
512,199,34089,6,0,P|489:190|471:187,1,36,2|0,0:0|0:0,0:0:0:0:
473,183,34589,2,0,P|426:126|430:211,1,180,2|0,0:1|0:0,0:0:0:0:
399,203,35089,2,0,P|376:212|358:215,1,36,2|0,0:0|0:0,0:0:0:0:
361,220,35589,2,0,P|314:277|318:192,1,180,2|0,0:0|0:0,0:0:0:0:
286,200,36089,2,0,P|263:194|246:192,1,36,2|0,0:0|0:0,0:0:0:0:
245,188,36589,2,0,P|190:123|179:214,1,210.000002002716,2|0,0:1|0:0,0:0:0:0:
161,211,36964,2,0,P|107:277|84:194,1,210.000002002716,2|0,0:0|0:0,0:0:0:0:
82,188,37339,2,0,P|41:177|-6:169,1,90.0000034332277,2|2,0:0|0:0,0:0:0:0:
256,192,38589,5,2,0:1:0:0:
256,192,39589,1,0,0:0:0:0:
256,192,40589,1,2,0:1:0:0:
512,150,41589,54,0,L|505:269,1,120,2|0,3:2|0:0,0:0:0:0:
0,235,42089,2,0,L|6:115,1,120,2|0,3:1|0:0,0:0:0:0:
433,157,42589,70,0,L|427:252,1,96,2|0,3:2|0:0,0:0:0:0:
79,228,43089,2,0,L|84:132,1,96,2|0,3:1|0:0,0:0:0:0:
357,164,43589,6,0,L|352:235,1,71.9999978027344,2|0,3:2|0:0,0:0:0:0:
155,221,44089,2,0,L|159:149,1,71.9999978027344,2|0,3:1|0:0,0:0:0:0:
281,169,44589,70,0,L|278:216,1,48,2|0,3:2|0:0,0:0:0:0:
231,216,45089,2,0,L|233:168,1,48,2|0,3:1|0:0,0:0:0:0:
233,168,45589,54,0,L|231:216,1,48,2|0,3:2|0:0,0:0:0:0:
278,216,45839,2,0,L|281:169,1,48,0|0,3:0|0:0,0:0:0:0:
159,149,46089,6,0,L|155:221,1,71.9999978027344,2|0,3:1|0:0,0:0:0:0:
352,235,46339,2,0,L|357:164,1,71.9999978027344,2|0,3:2|0:0,0:0:0:0:
84,132,46589,70,0,L|79:228,1,96,2|0,3:2|0:0,0:0:0:0:
427,252,46839,2,0,L|433:157,1,96,0|0,3:0|0:0,0:0:0:0:
6,115,47089,6,0,L|0:235,1,120,2|0,3:1|0:0,0:0:0:0:
505,269,47339,2,0,L|512:150,1,120,2|0,3:2|0:0,0:0:0:0:
258,204,48839,38,0,L|254:180,3,15
393,349,49589,54,0,L|386:390,1,36,2|0,3:2|0:0,0:0:0:0:
116,170,50089,2,0,L|109:211,1,36,2|0,3:2|0:0,0:0:0:0:
387,0,50589,2,0,L|380:41,1,36,2|0,3:2|0:0,0:0:0:0:
256,192,51089,5,2,3:2:0:0:
256,192,51339,1,0,3:0:0:0:
380,35,51589,70,0,L|387:0,1,36,2|0,3:2|0:0,0:0:0:0:
109,205,51964,2,0,L|116:170,1,36,2|0,0:0|0:0,0:0:0:0:
386,384,52339,2,0,L|393:349,1,36,2|0,0:0|3:0,0:0:0:0:
407,270,52714,37,2,0:0:0:0:
407,270,52839,2,0,B|380:256|380:256|293:277,1,90.0000034332277,2|0,0:0|0:0,0:0:0:0:
244,309,53089,70,0,B|257:338|257:338|366:366,1,90.0000034332277,2|0,3:2|0:0,0:0:0:0:
332,187,53339,6,0,L|315:285,1,90.0000034332277,2|0,0:0|0:0,0:0:0:0:
119,349,53589,54,0,L|126:390,1,36,2|0,3:2|0:0,0:0:0:0:
396,170,54089,2,0,L|403:211,1,36,2|0,3:2|0:0,0:0:0:0:
125,0,54589,2,0,L|132:41,1,36,2|0,3:2|0:0,0:0:0:0:
256,192,55089,69,2,3:2:0:0:
256,192,55339,1,2,0:0:0:0:
132,35,55589,6,0,L|125:0,1,36,2|0,3:2|0:0,0:0:0:0:
403,205,55964,2,0,L|396:170,1,36,2|0,0:0|0:0,0:0:0:0:
126,384,56339,2,0,L|119:349,1,36,2|0,0:0|3:0,0:0:0:0:
30,258,56714,21,2,0:0:0:0:
30,258,56839,2,0,B|63:288|63:288|166:246,1,90.0000034332277,2|0,0:0|0:0,0:0:0:0:
82,198,57089,69,0,3:0:0:0:
165,190,57214,2,0,B|140:177|140:177|59:206,1,90.0000034332277,2|0,0:0|0:0,0:0:0:0:
8,79,57589,54,0,P|110:43|71:98,1,270.000010299683,2|0,3:2|0:0,0:0:0:0:
3,162,58089,2,0,B|32:195|32:195|40:133,1,90.0000034332277,2|2,0:1|0:0,0:0:0:0:
0,262,58464,6,0,P|48:227|136:229,1,120,0|0,0:0|3:0,0:0:0:0:
200,174,58714,1,0,0:0:0:0:
120,140,58839,2,0,P|169:150|217:202,1,90.0000034332277,2|0,0:0|0:0,0:0:0:0:
264,129,59089,2,0,P|277:156|283:186,1,60,2|0,0:1|0:0,0:0:0:0:
363,193,59339,2,0,P|341:238|319:262,1,60,2|0,0:0|0:0,0:0:0:0:
381,311,59589,70,0,P|358:321|336:324,2,45,0|2|2,3:0|0:0|0:0,0:0:0:0:
335,245,60589,6,0,P|351:220|363:193,1,60,2|0,3:2|0:0,0:0:0:0:
283,186,60839,2,0,P|277:156|264:129,1,60,2|0,0:0|0:0,0:0:0:0:
200,173,61089,2,0,P|163:147|120:140,1,90.0000034332277,2|0,0:1|0:0,0:0:0:0:
106,220,61339,2,0,P|47:227|0:262,1,120,2|0,0:0|0:0,0:0:0:0:
0,261,61589,70,0,P|63:191|41:293,1,240,2|0,3:2|0:0,0:0:0:0:
189,231,61964,5,2,0:0:0:0:
246,285,62089,2,0,P|237:380|172:310,1,240,2|2,0:1|0:0,0:0:0:0:
357,330,62464,69,0,0:0:0:0:
420,284,62589,2,0,P|381:236|323:270,2,120,0|0|0,3:0|0:0|0:0,0:0:0:0:
510,302,63089,6,0,P|397:290|331:384,1,240,2|0,0:0|0:0,0:0:0:0:
255,345,63464,1,2,0:0:0:0:
0,300,63589,2,0,P|113:287|179:381,1,240,0|2,3:0|0:0,0:0:0:0:
253,381,63964,70,0,L|256:338,1,36
253,381,64589,6,0,L|256:338,1,36,8|0,0:0|0:0,0:0:0:0:
287,0,64839,2,0,L|283:35,1,36,8|0,0:0|0:0,0:0:0:0:
283,35,65089,70,0,L|287:0,1,36,0|2,0:0|0:0,0:0:0:0:
454,35,66089,54,0,P|440:233|377:46,1,540.000020599366,12|0,0:2|0:0,0:0:0:0:
455,52,66589,2,0,P|434:219|389:57,1,450,2|0,3:2|0:0,0:0:0:0:
457,67,67089,2,0,P|436:203|397:66,1,360,8|0,0:0|0:0,0:0:0:0:
426,132,67589,1,2,3:2:0:0:
426,132,68089,6,0,B|388:321|388:321|513:239,1,240,8|0,0:0|0:0,0:0:0:0:
434,215,68464,69,2,0:0:0:0:
502,268,68589,2,0,P|486:212|429:219,1,120,2|0,3:2|0:0,0:0:0:0:
274,200,68839,5,2,0:0:0:0:
359,128,68964,2,0,P|338:201|264:192,1,150,2|8,0:0|0:0,0:0:0:0:
79,213,69214,69,2,0:0:0:0:
199,281,69339,2,0,P|160:203|78:212,1,180.000006866455,2|0,3:2|0:0,0:0:0:0:
0,383,69589,6,0,L|46:378,1,45,2|0,3:2|0:0,0:0:0:0:
184,358,70089,70,0,P|105:177|94:373,1,540.000020599366,8|0,0:0|0:0,0:0:0:0:
177,343,70589,2,0,P|108:191|92:356,1,450,2|0,3:2|0:0,0:0:0:0:
174,328,71089,2,0,P|111:206|88:340,1,360,8|0,0:0|0:0,0:0:0:0:
123,276,71589,1,2,3:2:0:0:
123,276,71839,6,0,L|95:128,1,120,2|0,0:0|0:0,0:0:0:0:
96,39,72089,69,10,0:0:0:0:
1,23,72214,2,0,B|43:66|43:66|123:27,1,120,2|0,0:0|0:0,0:0:0:0:
291,80,72464,5,2,0:0:0:0:
171,99,72589,2,0,B|221:47|221:47|320:94,1,150,2|0,3:2|0:0,0:0:0:0:
512,123,72839,70,0,B|485:157|485:157|416:136,1,90.0000034332277,2|0,0:0|0:0,0:0:0:0:
393,0,73089,6,0,L|358:159,1,120,8|0,0:0|0:0,0:0:0:0:
383,195,73339,2,0,L|348:354,1,120,2|0,3:2|0:0,0:0:0:0:
418,369,73589,6,0,L|468:362,1,45,2|0,3:2|0:0,0:0:0:0:
508,290,74089,70,0,P|282:72|41:216,1,630.000006008148,4|0,3:2|0:0,0:2:0:0:
0,325,74589,70,0,B|106:283|106:283|128:241,1,150,2|0,3:2|0:0,0:0:0:0:
63,136,74839,2,0,B|19:112|19:112|58:251,1,150,2|0,0:0|0:0,0:0:0:0:
170,328,75089,6,0,P|315:277|219:159,2,300,8|2|0,0:0|0:0|3:0,0:0:0:0:
45,214,75839,69,2,0:0:0:0:
45,214,76089,2,0,P|126:174|229:266,1,240,8|0,0:0|0:0,0:0:0:0:
129,264,76464,1,2,0:0:0:0:
186,331,76589,6,0,P|264:337|307:271,1,120,2|0,3:2|0:0,0:0:0:0:
355,252,76839,69,2,0:0:0:0:
348,384,76964,2,0,P|382:318|341:241,1,150,2|8,0:0|0:0,0:0:0:0:
301,173,77214,5,2,0:0:0:0:
445,231,77339,2,0,P|401:172|294:178,1,180.000006866455,2|0,3:2|0:0,0:0:0:0:
2,210,77589,70,0,P|215:338|472:107,1,630.000006008148,6|2,3:2|0:0,0:0:0:0:
413,0,78089,5,8,0:0:0:0:
408,15,78214,1,2,0:0:0:0:
413,31,78339,1,2,0:0:0:0:
511,43,78464,2,0,P|381:66|343:111,1,150,2|0,0:0|3:0,0:0:0:0:
307,131,78714,69,2,0:0:0:0:
206,95,78839,2,0,P|246:133|307:132,1,120,2|0,0:0|0:0,0:0:0:0:
371,74,79089,1,8,0:0:0:0:
295,53,79214,1,2,0:0:0:0:
365,261,79339,6,0,P|371:216|401:128,1,107.999996704102,2|0,0:0|0:0,0:0:0:0:
188,0,79589,2,0,P|206:56|216:116,1,107.999996704102,2|0,3:2|0:0,0:0:0:0:
246,192,79839,1,2,0:0:0:0:
305,123,79964,1,2,0:0:0:0:
130,81,80089,70,0,P|91:146|121:220,1,120,8|0,0:0|0:0,0:0:0:0:
214,328,80339,1,2,0:0:0:0:
214,328,80464,1,2,0:0:0:0:
295,306,80589,2,0,P|334:241|304:167,1,120,2|0,3:2|0:0,0:0:0:0:
70,263,80839,38,0,L|145:276,1,72,0|2,3:0|0:0,0:0:0:0:
243,13,82089,38,0,P|257:192|269:371,1,360,8|0,0:0|0:0,0:0:0:0:
478,253,82589,6,0,B|415:232|396:161|396:161|360:219|288:225,1,240,2|0,3:2|0:0,0:0:0:0:
151,217,82964,2,0,P|182:176|248:168,1,120,2|0,0:0|0:0,0:0:0:0:
224,248,83339,69,2,0:0:0:0:
299,226,83464,1,2,0:0:0:0:
255,159,83589,6,0,P|182:163|169:319,1,225,2|0,3:2|0:0,0:0:0:0:
149,299,83839,2,0,P|178:303|207:309,1,60,2|0,0:0|0:0,0:0:0:0:
332,179,84089,70,0,P|405:175|418:19,1,225,8|0,0:0|0:0,0:0:0:0:
438,39,84339,2,0,P|408:34|379:28,1,60,2|0,0:0|0:0,0:0:0:0:
307,64,84589,6,0,P|313:93|328:201,1,120,2|0,3:2|0:0,0:0:0:0:
352,330,84839,1,2,0:0:0:0:
463,273,84964,1,2,0:0:0:0:
463,273,85089,2,0,P|415:263|368:255,1,90.0000034332277,8|0,0:0|0:0,0:0:0:0:
200,290,85339,69,2,3:2:0:0:
231,217,85464,1,2,0:2:0:0:
284,280,85589,6,0,P|220:369|127:328,1,225,4|0,3:2|0:0,0:0:0:0:
123,325,85839,2,0,P|115:270|110:242,1,60,2|0,0:0|0:0,0:0:0:0:
0,135,86089,70,0,P|63:45|157:87,1,225,8|0,0:0|0:0,0:0:0:0:
160,89,86339,2,0,P|168:144|173:172,1,60,2|0,0:0|0:0,0:0:0:0:
0,235,86589,6,0,P|111:248|255:274,1,240,2|0,3:2|0:0,0:0:0:0:
512,144,86964,2,0,P|400:130|257:105,1,240,2|0,0:0|0:0,0:0:0:0:
256,192,87339,1,2,0:0:0:0:
256,192,87464,1,2,0:0:0:0:
256,192,87589,37,2,0:0:0:0:
256,192,87964,1,2,0:0:0:0:
334,211,88214,5,2,0:0:0:0:
177,172,88339,1,2,0:0:0:0:
256,192,88589,69,2,0:0:0:0:
256,192,88839,1,2,0:0:0:0:
256,192,89089,2,0,L|252:221,1,30,2|0,0:1|0:0,0:0:0:0:
