osu file format v14

[General]
AudioFilename: audio.mp3
AudioLeadIn: 0
PreviewTime: 49339
Countdown: 0
SampleSet: Soft
StackLeniency: 0.4
Mode: 0
LetterboxInBreaks: 0
WidescreenStoryboard: 1

[Editor]
DistanceSpacing: 0.6
BeatDivisor: 4
GridSize: 16
TimelineZoom: 1

[Metadata]
Title:WHITE NIGHT
TitleUnicode:WHITE NIGHT
Artist:HOYO-MiX feat. Jake Miller
ArtistUnicode:HOYO-MiX feat. Jake Miller
Creator:Mocaotic
Version:NORMAL
Source:Honkai: Star Rail
Tags:Aurorance 不眠之夜 崩壞: 星穹鐵道 崩壊:スターレイル 붕스 붕괴: 스타레일 HSR hoyoverse mihoyo Version 2.0 Penacony MV Music Video Game RPG Original English Pop
BeatmapID:4487618
BeatmapSetID:2132107

[Difficulty]
HPDrainRate:3
CircleSize:3.5
OverallDifficulty:4.5
ApproachRate:5.5
SliderMultiplier:1.8
SliderTickRate:1

[Events]
//Background and Video events
Video,0,"video.mp4"
0,0,"moca_hsr.jpg",0,0
//Break Periods
2,33589,40389
//Storyboard Layer 0 (Background)
//Storyboard Layer 1 (Fail)
//Storyboard Layer 2 (Pass)
//Storyboard Layer 3 (Foreground)
//Storyboard Layer 4 (Overlay)
//Storyboard Sound Samples

[TimingPoints]
1589,500,4,2,2,50,1,0
6339,-100,4,2,2,60,0,0
6589,-100,4,2,2,70,0,0
17589,-111.111111111111,4,2,2,60,0,0
31589,-111.111111111111,4,2,2,40,0,0
33589,-111.111111111111,4,2,2,50,0,0
41589,-111.111111111111,4,2,2,60,0,0
45589,-111.111111111111,4,2,2,70,0,0
46589,-111.111111111111,4,2,2,80,0,0
49589,-111.111111111111,4,2,2,65,0,0
52839,-111.111111111111,4,2,2,50,0,0
53589,-111.111111111111,4,2,2,65,0,0
56589,-111.111111111111,4,2,2,50,0,0
57589,-111.111111111111,4,2,2,65,0,0
66089,-100,4,2,2,88,0,1
73589,-100,4,2,2,88,0,0
74089,-90.9090909090909,4,2,2,88,0,1
74589,-100,4,2,2,88,0,1
80839,-100,4,2,2,88,0,0
82089,-100,4,2,2,80,0,0
87589,-100,4,2,2,60,0,0

[Colours]
Combo1 : 255,213,170
Combo2 : 255,38,44
Combo3 : 255,152,26
Combo4 : 255,170,170

[HitObjects]
256,192,6589,12,2,8839,0:0:0:0:
433,326,9589,6,0,P|349:309|319:305,1,90,4|2,3:2|0:0,0:0:0:0:
266,353,10089,2,0,P|182:336|152:332,1,90,8|2,3:2|0:0,0:0:0:0:
101,382,10589,1,2,3:2:0:0:
0,291,10964,1,2,0:0:0:0:
66,173,11339,2,0,P|72:139|77:114,1,45,2|2,0:0|0:0,0:0:0:0:
107,98,11589,6,0,P|151:105|195:115,1,90,2|2,3:2|0:0,0:0:0:0:
248,188,12089,2,0,P|292:195|336:205,1,90,8|2,3:2|0:0,0:0:0:0:
396,272,12589,2,0,P|456:279|501:235,1,90,2|2,3:2|0:0,0:0:0:0:
508,230,12964,2,0,P|520:149|535:90,1,135,2|2,0:0|3:2,0:0:0:0:
492,17,13589,38,0,P|448:7|403:-1,1,90,4|2,3:2|0:0,0:0:0:0:
333,54,14089,2,0,P|289:44|244:36,1,90,8|2,3:2|0:0,0:0:0:0:
173,90,14589,1,2,3:2:0:0:
45,50,14964,1,2,0:0:0:0:
4,178,15339,2,0,P|10:208|17:243,1,45,2|2,0:0|0:0,0:0:0:0:
44,254,15589,6,0,P|87:244|132:236,1,90,0|2,3:0|0:0,0:0:0:0:
173,256,15964,2,0,P|216:246|261:238,1,90,2|2,0:0|0:0,0:0:0:0:
301,259,16339,1,2,0:0:0:0:
364,194,16589,1,8,0:0:0:0:
442,238,16839,1,8,0:0:0:0:
442,238,17589,6,0,P|471:170|441:107,2,121.499996292114,4|2|2,3:2|0:0|0:0,0:0:0:0:
362,224,18589,2,0,P|349:165|378:113,2,121.499996292114,2|2|2,0:0|0:0|0:0,0:0:0:0:
318,291,19589,2,0,P|228:308|138:336,1,161.999995056153,2|8,3:2|0:0,0:0:0:0:
86,359,20339,1,2,0:0:0:0:
15,320,20589,2,0,P|1:272|23:226,1,80.9999975280763,2|0,0:0|3:0,0:0:0:0:
55,177,21089,1,8,0:0:0:0:
202,113,21589,6,0,P|214:54|185:2,2,121.499996292114,2|2|2,3:2|0:0|0:0,0:0:0:0:
122,127,22589,2,0,P|93:74|105:16,2,121.499996292114,2|2|2,0:0|0:0|0:0,0:0:0:0:
174,188,23589,2,0,P|221:197|264:211,1,80.9999975280763,2|0,3:2|0:0,0:0:0:0:
308,264,24089,2,0,P|292:325|279:390,2,121.499996292114,8|0|0,0:0|3:0|3:0,0:0:0:0:
383,237,25089,1,8,0:0:0:0:
495,123,25589,38,0,P|523:70|511:12,2,121.499996292114,2|2|2,3:2|0:0|0:0,0:0:0:0:
415,110,26589,2,0,P|402:51|431:0,2,121.499996292114,2|2|2,0:0|0:0|0:0,0:0:0:0:
445,184,27589,1,2,3:2:0:0:
500,290,27964,1,2,0:0:0:0:
417,377,28339,2,0,P|341:357|240:342,1,161.999995056153,2|0,0:0|3:2,0:0:0:0:
182,369,29089,1,10,0:0:0:0:
114,325,29339,6,0,P|99:261|89:234,1,80.9999975280763,2|4,0:0|3:2,0:0:0:0:
28,201,29839,1,2,0:0:0:0:
71,133,30089,2,0,P|135:118|162:108,1,80.9999975280763,8|0,0:0|0:0,0:0:0:0:
195,47,30589,1,2,0:0:0:0:
263,90,30839,2,0,P|278:154|288:181,1,80.9999975280763,2|8,3:2|0:0,0:0:0:0:
406,270,31589,2,0,P|465:269|512:231,2,121.499996292114,2|2|2,3:2|3:2|3:2,0:0:0:0:
406,331,41589,37,2,3:2:0:0:
406,331,42089,2,0,P|416:253|440:161,1,161.999995056153,2|2,3:1|3:2,0:0:0:0:
348,38,43089,2,0,P|270:27|178:3,1,161.999995056153,2|2,3:1|3:2,0:0:0:0:
55,95,44089,2,0,P|44:172|20:264,1,161.999995056153,2|2,3:1|3:2,0:0:0:0:
124,378,45089,1,2,3:1:0:0:
256,287,45589,22,0,P|271:224|280:198,1,80.9999975280763,2|0,3:2|3:0,0:0:0:0:
346,169,46089,2,0,P|409:184|435:193,1,80.9999975280763,2|0,3:1|3:0,0:0:0:0:
471,254,46589,2,0,P|459:292|450:332,1,80.9999975280763,2|0,3:2|3:0,0:0:0:0:
381,372,47089,1,2,3:1:0:0:
303,354,47339,1,2,3:2:0:0:
303,354,49589,22,0,B|360:297|360:297|442:345,2,161.999995056153,2|2|2,3:2|3:2|3:2,0:0:0:0:
144,379,51089,2,0,P|107:372|61:362,1,80.9999975280763,2|0,3:2|3:0,0:0:0:0:
7,306,51589,1,2,3:2:0:0:
83,213,51964,1,2,0:0:0:0:
188,270,52339,2,0,P|242:257|290:245,1,80.9999975280763,2|0,0:0|3:0,0:0:0:0:
313,185,52839,1,2,0:0:0:0:
259,126,53089,1,0,3:0:0:0:
104,82,53589,70,0,B|30:118|30:118|-30:52,2,161.999995056153,2|2|2,3:2|3:2|3:2,0:0:0:0:
251,18,55089,1,2,3:2:0:0:
313,68,55339,1,2,0:0:0:0:
382,27,55589,2,0,P|457:38|512:51,2,121.499996292114,2|2|2,3:2|0:0|0:0,0:0:0:0:
313,68,56589,2,0,P|302:132|298:169,1,80.9999975280763,2|0,3:2|0:0,0:0:0:0:
240,201,57089,1,2,3:2:0:0:
350,317,57589,38,0,P|390:322|429:329,2,80.9999975280763,2|2|2,3:2|0:0|0:1,0:0:0:0:
279,354,58339,2,0,P|210:336|182:241,1,161.999995056153,2|2,0:0|0:0,0:0:0:0:
231,197,59089,1,2,0:1:0:0:
282,135,59339,2,0,P|255:61|181:38,1,161.999995056153,2|2,0:0|0:0,0:0:0:0:
108,4,60089,1,2,0:1:0:0:
12,132,60589,2,0,P|23:195|30:245,1,80.9999975280763,2|2,3:2|0:0,0:0:0:0:
93,254,61089,2,0,P|104:317|111:367,1,80.9999975280763,2|2,0:1|0:0,0:0:0:0:
174,377,61589,69,2,3:2:0:0:
270,304,61964,1,2,0:0:0:0:
376,359,62339,2,0,P|439:348|489:341,2,80.9999975280763,2|0|0,0:0|3:0|0:0,0:0:0:0:
315,306,63089,1,2,0:0:0:0:
208,362,63464,1,2,0:0:0:0:
113,287,63839,2,0,B|68:162|191:169|125:33,1,242.999992584229,2|8,0:0|0:0,0:0:0:0:
68,10,64839,2,0,B|45:45|45:45|71:99,1,80.9999975280763,8|0,0:0|0:0,0:0:0:0:
216,158,65589,69,2,0:0:0:0:
216,158,66089,2,0,P|274:166|336:183,1,90,12|0,0:2|0:0,0:0:0:0:
370,234,66589,2,0,P|419:238|462:188,1,90,2|0,3:2|0:0,0:0:0:0:
512,151,67089,1,8,0:0:0:0:
406,4,67589,70,0,P|342:5|311:48,1,90,2|0,3:2|0:0,0:0:0:0:
293,52,67964,2,0,P|255:74|211:67,1,90,2|0,0:0|0:0,0:0:0:0:
174,42,68339,2,0,P|106:52|32:73,1,135,2|0,0:0|0:0,0:0:0:0:
8,99,68839,1,2,0:0:0:0:
64,168,69089,1,8,0:0:0:0:
22,247,69339,1,2,3:2:0:0:
85,311,69589,38,0,P|139:317|207:334,1,90,2|0,3:2|0:0,0:0:0:0:
248,374,70089,2,0,P|300:346|354:363,1,90,8|0,0:0|0:0,0:0:0:0:
414,376,70589,2,0,P|494:365|515:275,1,180,2|8,3:2|0:0,0:0:0:0:
400,141,71589,70,0,P|355:140|319:165,1,90,2|0,3:2|0:0,0:0:0:0:
296,204,71964,2,0,P|259:229|215:228,1,90,2|0,0:0|0:0,0:0:0:0:
170,237,72339,2,0,P|156:290|146:339,2,90,2|0|2,0:0|3:0|0:0,0:0:0:0:
103,176,73089,1,8,0:0:0:0:
148,98,73339,1,2,3:2:0:0:
79,39,73589,1,2,3:2:0:0:
7,200,74089,38,0,P|57:273|161:278,1,198.000006042481,4|0,3:2|3:0,0:0:0:0:
248,292,74839,1,2,0:0:0:0:
297,216,75089,1,8,0:0:0:0:
242,144,75339,2,0,P|254:71|264:28,1,90,2|0,0:0|3:0,0:0:0:0:
335,11,75839,1,2,0:0:0:0:
410,60,76089,1,8,0:0:0:0:
508,210,76589,70,0,P|499:254|492:298,1,90,2|2,3:2|0:0,0:0:0:0:
417,348,77089,1,8,0:0:0:0:
342,296,77339,1,2,3:2:0:0:
280,361,77589,2,0,P|235:367|191:377,1,90,6|0,3:2|0:0,0:0:0:0:
151,355,77964,2,0,P|144:310|134:266,1,90,2|0,0:0|0:0,0:0:0:0:
96,241,78339,2,0,P|30:254|-11:259,2,90,2|0|2,0:0|3:0|0:0,0:0:0:0:
168,188,79089,38,0,P|212:194|256:204,1,90,8|0,0:0|0:0,0:0:0:0:
297,182,79464,2,0,P|303:137|313:93,1,90,2|0,0:0|0:0,0:0:0:0:
352,68,79839,2,0,P|418:81|459:86,2,90,2|8|2,0:0|0:0|0:0,0:0:0:0:
282,10,80589,1,2,3:2:0:0:
219,74,80839,2,0,B|147:139|92:90|85:14|15:42|-29:70|-20:129,1,270,0|2,3:0|0:0,0:0:0:0:
39,265,82089,70,0,P|90:272|155:285,1,90,8|2,0:0|0:0,0:0:0:0:
216,259,82589,1,2,3:2:0:0:
309,356,82964,1,2,0:0:0:0:
433,313,83339,2,0,P|437:287|444:260,1,45,2|2,0:0|0:0,0:0:0:0:
432,224,83589,38,0,P|387:215|343:209,1,90,2|2,3:2|0:0,0:0:0:0:
260,245,84089,2,0,P|215:236|171:230,1,90,8|2,0:0|0:0,0:0:0:0:
92,274,84589,2,0,P|37:265|13:221,1,90,2|2,3:2|0:0,0:0:0:0:
0,198,84964,2,0,P|18:117|32:63,1,135,2|2,0:0|3:2,0:0:0:0:
104,14,85589,70,0,P|148:19|192:28,1,90,4|2,3:2|0:0,0:0:0:0:
253,94,86088,2,0,P|297:99|341:108,1,90,8|2,0:0|0:0,0:0:0:0:
423,69,86589,1,2,3:2:0:0:
506,175,86964,1,2,0:0:0:0:
402,261,87339,2,0,P|364:267|336:274,2,45,2|2|2,0:0|0:0|0:0,0:0:0:0:
256,192,87714,12,2,89089,0:1:0:0:
