osu file format v14

[General]
AudioFilename: audio.mp3
AudioLeadIn: 0
PreviewTime: 2110
Countdown: 0
SampleSet: Soft
StackLeniency: 0.7
Mode: 3
LetterboxInBreaks: 0
SpecialStyle: 0
WidescreenStoryboard: 1

[Editor]
DistanceSpacing: 1
BeatDivisor: 4
GridSize: 8
TimelineZoom: 1.1

[Metadata]
Title:Take the Journey
TitleUnicode:踏上旅途
Artist:HOYO-MiX feat. Anthony Lynch
ArtistUnicode:HOYO-MiX feat. Anthony Lynch
Creator:Ihram-San
Version:7K Our Journey Begins Here
Source:Honkai: Star Rail
Tags:aelsan 崩坏星穹铁道-失控 out of control 制御不能 崩壊: 崩壊:スターレイル houkai 崩坏: 星穹铁道 english acoustic folk videogame video game gacha guitar male vocals vocalist ost original soundtrack hoyomix mihoyo hoyoverse 林一凡 yifan lin 旅に出よう tabi ni deyou ta shang lvtu lutu
BeatmapID:4127122
BeatmapSetID:1986830

[Difficulty]
HPDrainRate:8
CircleSize:7
OverallDifficulty:8
ApproachRate:5
SliderMultiplier:1.4
SliderTickRate:1

[Events]
//Background and Video events
0,0,"107385332_p0.jpg",0,0
//Break Periods
//Storyboard Layer 0 (Background)
//Storyboard Layer 1 (Fail)
//Storyboard Layer 2 (Pass)
//Storyboard Layer 3 (Foreground)
//Storyboard Layer 4 (Overlay)
//Storyboard Sound Samples

[TimingPoints]
3225,810.810810810811,4,2,1,40,1,0
3225,-100,4,2,1,40,0,0
55279,750,4,2,1,40,1,0
55279,-107.52688172043,4,2,1,40,0,0

[HitObjects]
256,192,2414,128,0,3225:0:0:0:0:
475,192,3225,128,0,4846:0:0:0:0:
182,192,3225,1,0,0:0:0:0:
36,192,3630,1,0,0:0:0:0:
182,192,4035,1,0,0:0:0:0:
36,192,4441,1,0,0:0:0:0:
182,192,4846,1,0,0:0:0:0:
109,192,5252,128,0,5657:0:0:0:0:
402,192,5252,1,0,0:0:0:0:
256,192,5657,128,0,6062:0:0:0:0:
475,192,5657,1,0,0:0:0:0:
402,192,6062,128,0,6468:0:0:0:0:
36,192,6468,128,0,8089:0:0:0:0:
329,192,6468,1,0,0:0:0:0:
109,192,6873,1,0,0:0:0:0:
329,192,7279,1,0,0:0:0:0:
109,192,7684,1,0,0:0:0:0:
329,192,8089,1,0,0:0:0:0:
109,192,8495,1,0,0:0:0:0:
402,192,8900,1,0,0:0:0:0:
182,192,8900,128,0,9306:0:0:0:0:
329,192,9306,128,0,9711:0:0:0:0:
256,192,9306,1,0,0:0:0:0:
475,192,9711,128,0,10522:0:0:0:0:
36,192,9711,1,0,0:0:0:0:
402,192,10116,1,0,0:0:0:0:
256,192,10522,128,0,11333:0:0:0:0:
36,192,10522,1,0,0:0:0:0:
402,192,10927,1,0,0:0:0:0:
36,192,11333,1,0,0:0:0:0:
402,192,11738,1,0,0:0:0:0:
329,192,12143,128,0,12549:0:0:0:0:
109,192,12143,1,0,0:0:0:0:
182,192,12549,128,0,12954:0:0:0:0:
475,192,12549,1,0,0:0:0:0:
36,192,12954,128,0,13765:0:0:0:0:
402,192,12954,1,0,0:0:0:0:
109,192,13360,1,0,0:0:0:0:
256,192,13765,128,0,14576:0:0:0:0:
402,192,13765,1,0,0:0:0:0:
109,192,14170,1,0,0:0:0:0:
475,192,14576,1,0,0:0:0:0:
109,192,14981,1,0,0:0:0:0:
182,192,15387,1,0,0:0:0:0:
256,192,15387,128,0,16197:0:0:0:0:
402,192,15539,1,0,0:0:0:0:
36,192,15792,1,0,0:0:0:0:
36,192,16197,128,0,17819:0:0:0:0:
329,192,16197,1,0,0:0:0:0:
475,192,16603,1,0,0:0:0:0:
329,192,17008,1,0,0:0:0:0:
475,192,17414,1,0,0:0:0:0:
329,192,17819,1,0,0:0:0:0:
402,192,18225,128,0,18630:0:0:0:0:
109,192,18225,1,0,0:0:0:0:
256,192,18630,128,0,19035:0:0:0:0:
36,192,18630,1,0,0:0:0:0:
109,192,19035,128,0,19441:0:0:0:0:
475,192,19441,128,0,21062:0:0:0:0:
182,192,19441,1,0,0:0:0:0:
402,192,19846,1,0,0:0:0:0:
182,192,20252,1,0,0:0:0:0:
402,192,20657,1,0,0:0:0:0:
182,192,21062,1,0,0:0:0:0:
402,192,21468,1,0,0:0:0:0:
109,192,21873,1,0,0:0:0:0:
329,192,21873,128,0,22279:0:0:0:0:
182,192,22279,128,0,22684:0:0:0:0:
256,192,22279,1,0,0:0:0:0:
36,192,22684,128,0,23495:0:0:0:0:
475,192,22684,1,0,0:0:0:0:
109,192,23089,1,0,0:0:0:0:
256,192,23495,128,0,24306:0:0:0:0:
475,192,23495,1,0,0:0:0:0:
109,192,23900,1,0,0:0:0:0:
475,192,24306,1,0,0:0:0:0:
109,192,24711,1,0,0:0:0:0:
182,192,25116,128,0,25522:0:0:0:0:
402,192,25116,1,0,0:0:0:0:
329,192,25522,128,0,25927:0:0:0:0:
36,192,25522,1,0,0:0:0:0:
475,192,25927,128,0,26738:0:0:0:0:
182,192,25927,1,0,0:0:0:0:
402,192,26333,1,0,0:0:0:0:
256,192,26738,128,0,28360:0:0:0:0:
109,192,26738,1,0,0:0:0:0:
402,192,27143,1,0,0:0:0:0:
109,192,27549,1,0,0:0:0:0:
402,192,27954,1,0,0:0:0:0:
109,192,28360,1,0,0:0:0:0:
402,192,28765,1,0,0:0:0:0:
36,192,29170,128,0,29576:0:0:0:0:
475,192,29170,1,0,0:0:0:0:
256,192,29170,1,0,0:0:0:0:
329,192,29576,128,0,29981:0:0:0:0:
182,192,29576,1,0,0:0:0:0:
109,192,29981,128,0,30387:0:0:0:0:
256,192,29981,1,0,0:0:0:0:
402,192,30387,128,0,30792:0:0:0:0:
36,192,30387,1,0,0:0:0:0:
182,192,30792,128,0,31197:0:0:0:0:
329,192,30792,1,0,0:0:0:0:
475,192,31197,128,0,31603:0:0:0:0:
109,192,31197,1,0,0:0:0:0:
36,192,31603,128,0,32008:0:0:0:0:
402,192,31603,1,0,0:0:0:0:
329,192,32008,128,0,32414:0:0:0:0:
256,192,32008,1,0,0:0:0:0:
109,192,32414,128,0,33225:0:0:0:0:
402,192,32414,1,0,0:0:0:0:
182,192,32414,1,0,0:0:0:0:
475,192,32819,1,0,0:0:0:0:
256,192,33225,128,0,34035:0:0:0:0:
36,192,33225,1,0,0:0:0:0:
402,192,33630,1,0,0:0:0:0:
182,192,34035,1,0,0:0:0:0:
475,192,34035,1,0,0:0:0:0:
329,192,34441,1,0,0:0:0:0:
256,192,34846,1,0,0:0:0:0:
109,192,34846,1,0,0:0:0:0:
36,192,35252,1,0,0:0:0:0:
475,192,35657,128,0,36062:0:0:0:0:
182,192,35657,1,0,0:0:0:0:
402,192,35657,1,0,0:0:0:0:
109,192,36062,128,0,36468:0:0:0:0:
329,192,36062,1,0,0:0:0:0:
256,192,36468,128,0,38089:0:0:0:0:
182,192,36468,1,0,0:0:0:0:
36,192,36873,1,0,0:0:0:0:
402,192,37279,1,0,0:0:0:0:
182,192,37279,1,0,0:0:0:0:
109,192,37684,1,0,0:0:0:0:
475,192,38089,1,0,0:0:0:0:
36,192,38089,1,0,0:0:0:0:
329,192,38495,1,0,0:0:0:0:
182,192,38900,1,0,0:0:0:0:
256,192,38900,1,0,0:0:0:0:
109,192,39306,128,0,39711:0:0:0:0:
36,192,39711,1,0,0:0:0:0:
402,192,39711,128,0,39914:0:0:0:0:
329,192,39914,1,0,0:0:0:0:
182,192,40116,128,0,40319:0:0:0:0:
256,192,40116,1,0,0:0:0:0:
475,192,40522,128,0,40725:0:0:0:0:
402,192,40522,1,0,0:0:0:0:
36,192,40927,128,0,41130:0:0:0:0:
109,192,40927,1,0,0:0:0:0:
256,192,41333,128,0,41637:0:0:0:0:
329,192,41333,1,0,0:0:0:0:
256,192,41738,128,0,42143:0:0:0:0:
182,192,41738,1,0,0:0:0:0:
475,192,42143,128,0,42549:0:0:0:0:
36,192,42143,1,0,0:0:0:0:
402,192,42143,1,0,0:0:0:0:
182,192,42549,128,0,42954:0:0:0:0:
329,192,42549,1,0,0:0:0:0:
402,192,42954,128,0,43360:0:0:0:0:
256,192,42954,1,0,0:0:0:0:
109,192,43360,128,0,43765:0:0:0:0:
475,192,43360,1,0,0:0:0:0:
329,192,43765,128,0,44170:0:0:0:0:
182,192,43765,1,0,0:0:0:0:
36,192,44170,128,0,44576:0:0:0:0:
402,192,44170,1,0,0:0:0:0:
475,192,44576,128,0,44981:0:0:0:0:
109,192,44576,1,0,0:0:0:0:
182,192,44981,128,0,45387:0:0:0:0:
256,192,44981,1,0,0:0:0:0:
402,192,45387,128,0,46197:0:0:0:0:
109,192,45387,1,0,0:0:0:0:
329,192,45387,1,0,0:0:0:0:
36,192,45792,1,0,0:0:0:0:
256,192,46197,128,0,47008:0:0:0:0:
475,192,46197,1,0,0:0:0:0:
109,192,46603,1,0,0:0:0:0:
329,192,47008,1,0,0:0:0:0:
36,192,47008,1,0,0:0:0:0:
182,192,47414,1,0,0:0:0:0:
256,192,47819,1,0,0:0:0:0:
402,192,47819,1,0,0:0:0:0:
475,192,48225,1,0,0:0:0:0:
36,192,48630,128,0,49035:0:0:0:0:
109,192,48630,1,0,0:0:0:0:
329,192,48630,1,0,0:0:0:0:
402,192,49035,128,0,49441:0:0:0:0:
475,192,49035,1,0,0:0:0:0:
256,192,49441,128,0,51062:0:0:0:0:
182,192,49441,1,0,0:0:0:0:
402,192,49846,1,0,0:0:0:0:
36,192,50252,1,0,0:0:0:0:
329,192,50252,1,0,0:0:0:0:
402,192,50657,1,0,0:0:0:0:
109,192,51062,1,0,0:0:0:0:
475,192,51062,1,0,0:0:0:0:
329,192,51468,1,0,0:0:0:0:
402,192,52279,128,0,52684:0:0:0:0:
109,192,52684,128,0,52887:0:0:0:0:
256,192,52887,1,0,0:0:0:0:
329,192,53089,128,0,53292:0:0:0:0:
36,192,53495,128,0,53697:0:0:0:0:
475,192,53900,128,0,54103:0:0:0:0:
256,192,54306,128,0,54711:0:0:0:0:
256,192,54812,128,0,56404:0:0:0:0:
36,192,55279,128,0,58279:0:0:0:0:
109,192,55372,128,0,59029:0:0:0:0:
182,192,55466,128,0,59779:0:0:0:0:
475,192,55560,128,0,61279:0:0:0:0:
329,192,55560,128,0,60529:0:0:0:0:
