osu file format v14

[General]
AudioFilename: audio.mp3
AudioLeadIn: 0
PreviewTime: 2312
Countdown: 0
SampleSet: Soft
StackLeniency: 0.2
Mode: 0
LetterboxInBreaks: 0
WidescreenStoryboard: 0

[Editor]
Bookmarks: 1618,14570,27563,37293
DistanceSpacing: 1
BeatDivisor: 8
GridSize: 8
TimelineZoom: 3.299999

[Metadata]
Title:Take the Journey
TitleUnicode:踏上旅途
Artist:HOYO-MiX feat. Anthony Lynch
ArtistUnicode:HOYO-MiX feat. Anthony Lynch
Creator:Ascended
Version:Astral Express
Source:Honkai: Star Rail
Tags:崩坏星穹铁道-失控 Out of Control 制御不能 崩壊: 崩壊:スターレイル Houkai 崩坏: 星穹铁道 english acoustic folk videogame video game gacha guitar male vocals vocalist ost original soundtrack HOYOMiX miHoYo HoYoverse 林一凡 Yifan Lin -ascended- -_ascended_- 旅に出よう Tabi ni deyou ta shang lvtu lutu
BeatmapID:4121113
BeatmapSetID:1984272

[Difficulty]
HPDrainRate:5
CircleSize:5.5
OverallDifficulty:6
ApproachRate:7.5
SliderMultiplier:1.7
SliderTickRate:1

[Events]
//Background and Video events
0,0,"danheng owo yum lwerowelrowe rweor ewrdf.jpg",0,0
//Break Periods
2,52072,54454
//Storyboard Layer 0 (Background)
//Storyboard Layer 1 (Fail)
//Storyboard Layer 2 (Pass)
//Storyboard Layer 3 (Foreground)
//Storyboard Layer 4 (Overlay)
//Storyboard Sound Samples

[TimingPoints]
3225,810.810810810811,4,2,1,50,1,0
3225,-100,4,2,1,50,0,0
5252,-90.9090909090909,4,2,1,50,0,0
5556,-90.9090909090909,4,2,1,5,0,0
5657,-58.8235294117647,4,2,1,50,0,0
5961,-58.8235294117647,4,2,1,5,0,0
6062,-58.8235294117647,4,2,1,50,0,0
6265,-58.8235294117647,4,2,1,5,0,0
6366,-58.8235294117647,4,2,1,5,0,0
6468,-66.6666666666667,4,2,1,50,0,0
7684,-100,4,2,1,50,0,0
8900,-66.6666666666667,4,2,1,50,0,0
9204,-58.8235294117647,4,2,1,5,0,0
9306,-133.333333333333,4,2,1,50,0,0
9508,-100,4,2,1,5,0,0
9610,-100,4,2,1,5,0,0
9711,-66.6666666666667,4,2,1,50,0,0
10420,-58.8235294117647,4,2,1,5,0,0
10522,-100,4,2,1,50,0,0
12447,-58.8235294117647,4,2,1,5,0,0
12549,-66.6666666666667,4,2,1,50,0,0
12751,-66.6666666666667,4,2,1,5,0,0
12852,-58.8235294117647,4,2,1,5,0,0
12953,-55.5555555555556,4,2,1,50,0,0
13663,-58.8235294117647,4,2,1,5,0,0
13765,-66.6666666666667,4,2,1,50,0,0
16196,-100,4,2,1,50,0,0
18223,-90.9090909090909,4,2,1,50,0,0
18527,-90.9090909090909,4,2,1,5,0,0
18628,-58.8235294117647,4,2,1,50,0,0
18932,-58.8235294117647,4,2,1,5,0,0
19033,-58.8235294117647,4,2,1,50,0,0
19236,-58.8235294117647,4,2,1,5,0,0
19337,-58.8235294117647,4,2,1,5,0,0
19439,-66.6666666666667,4,2,1,50,0,0
20655,-100,4,2,1,50,0,0
21871,-66.6666666666667,4,2,1,50,0,0
22175,-58.8235294117647,4,2,1,5,0,0
22277,-133.333333333333,4,2,1,50,0,0
22479,-100,4,2,1,5,0,0
22581,-100,4,2,1,5,0,0
22682,-66.6666666666667,4,2,1,50,0,0
23391,-58.8235294117647,4,2,1,5,0,0
23493,-100,4,2,1,50,0,0
25418,-58.8235294117647,4,2,1,5,0,0
25520,-66.6666666666667,4,2,1,50,0,0
25723,-66.6666666666667,4,2,1,5,0,0
25824,-58.8235294117647,4,2,1,5,0,0
25925,-55.5555555555556,4,2,1,50,0,0
26636,-58.8235294117647,4,2,1,5,0,0
26738,-58.8235294117647,4,2,1,50,0,0
29170,-66.6666666666667,4,2,1,70,0,0
29475,-58.8235294117647,4,2,1,5,0,0
29576,-55.5555555555556,4,2,1,70,0,0
29779,-55.5555555555556,4,2,1,5,0,0
29981,-50,4,2,1,70,0,0
30285,-50,4,2,1,5,0,0
30387,-50,4,2,1,70,0,0
30691,-50,4,2,1,5,0,0
30792,-50,4,2,1,70,0,0
31198,-40,4,2,1,70,0,0
31502,-40,4,2,1,5,0,0
31603,-66.6666666666667,4,2,1,70,0,0
31907,-66.6666666666667,4,2,1,5,0,0
32008,-66.6666666666667,4,2,1,70,0,0
32414,-55.5555555555556,4,2,1,70,0,0
33123,-55.5555555555556,4,2,1,5,0,0
33225,-100,4,2,1,70,0,0
34035,-125,4,2,1,70,0,0
35657,-66.6666666666667,4,2,1,70,0,0
35860,-66.6666666666667,4,2,1,5,0,0
36062,-66.6666666666667,4,2,1,70,0,0
36265,-66.6666666666667,4,2,1,5,0,0
36468,-55.5555555555556,4,2,1,70,0,0
37076,-55.5555555555556,4,2,1,5,0,0
37279,-100,4,2,1,70,0,0
38089,-100,4,2,1,70,0,0
39306,-62.5,4,2,1,70,0,0
39610,-43.4782608695652,4,2,1,5,0,0
39711,-62.5,4,2,1,70,0,0
39812,-62.5,4,2,1,70,0,0
40015,-43.4782608695652,4,2,1,5,0,0
40116,-62.5,4,2,1,70,0,0
40522,-43.4782608695652,4,2,1,70,0,0
40826,-43.4782608695652,4,2,1,5,0,0
40927,-66.6666666666667,4,2,1,70,0,0
41231,-43.4782608695652,4,2,1,5,0,0
41333,-50,4,2,1,70,0,0
41637,-43.4782608695652,4,2,1,5,0,0
41738,-50,4,2,1,70,0,0
42042,-43.4782608695652,4,2,1,5,0,0
42143,-66.6666666666667,4,2,1,70,0,0
42448,-43.4782608695652,4,2,1,5,0,0
42549,-55.5555555555556,4,2,1,70,0,0
42752,-55.5555555555556,4,2,1,5,0,0
42954,-50,4,2,1,70,0,0
43258,-43.4782608695652,4,2,1,5,0,0
43360,-50,4,2,1,70,0,0
43664,-43.4782608695652,4,2,1,5,0,0
43765,-50,4,2,1,70,0,0
44170,-40,4,2,1,70,0,0
44475,-43.4782608695652,4,2,1,5,0,0
44576,-66.6666666666667,4,2,1,70,0,0
44880,-43.4782608695652,4,2,1,5,0,0
44981,-66.6666666666667,4,2,1,70,0,0
45387,-50,4,2,1,70,0,0
46096,-43.4782608695652,4,2,1,5,0,0
46198,-100,4,2,1,70,0,0
47008,-100,4,2,1,70,0,0
48630,-66.6666666666667,4,2,1,70,0,0
48833,-66.6666666666667,4,2,1,5,0,0
49035,-66.6666666666667,4,2,1,70,0,0
49238,-66.6666666666667,4,2,1,5,0,0
49441,-66.6666666666667,4,2,1,70,0,0
50657,-66.6666666666667,4,2,1,70,0,0
50961,-43.4782608695652,4,2,1,5,0,0
51062,-66.6666666666667,4,2,1,70,0,0
51873,-66.6666666666667,4,2,1,40,0,0
55279,750,4,2,1,50,1,0

[Colours]
Combo1 : 64,128,128
Combo2 : 160,207,207

[HitObjects]
512,139,3225,6,0,B|404:116|460:164|340:141,1,170,4|0,0:0|0:0,0:0:0:0:
345,141,4441,1,0,0:0:0:0:
310,203,4846,1,0,0:0:0:0:
381,340,5252,6,0,B|365:343|359:336|347:355|347:355|364:365|385:344,1,70.1250021400452
399,272,5657,2,0,B|420:245|404:214|404:214|383:232|390:255,1,108.375002067089
447,321,6062,2,0,B|455:342|478:343|478:343|479:323|447:314,1,72.2500013780594
318,291,6468,6,0,B|281:243|213:256|213:256|158:323|196:386,1,255.000009727478,8|0,0:1|0:0,0:0:0:0:
301,374,7684,2,0,P|342:370|380:350,1,85,0|0,0:0|0:0,0:0:0:0:
380,350,8495,1,0,0:0:0:0:
213,228,8900,6,0,B|224:211|241:196|241:196|228:224|224:250,1,95.6250036478044
165,281,9306,2,0,B|153:281|142:284|142:284|158:286|171:291,1,47.8125018239022
213,228,9711,6,0,B|230:182|201:125|137:130|137:130|110:172|147:206,1,223.125008511544,8|0,0:2|0:0,0:0:0:0:
83,244,10522,2,0,P|46:222|5:216,1,85
5,215,11333,1,0,0:0:0:0:
23,289,11738,1,0,0:0:0:0:
53,147,12143,6,0,P|38:111|39:75,1,63.75
102,51,12549,2,0,P|125:20|157:2,1,63.7500024318696
328,119,12954,6,0,B|378:144|346:202|346:202|240:187|248:88,1,267.749991828919,8|0,0:3|0:0,0:0:0:0:
304,45,13765,2,0,P|251:60|176:67,1,127.500004863739
179,67,14576,1,0,0:0:0:0:
190,149,14981,1,0,0:0:0:0:
163,263,15387,1,0,0:0:0:0:
20,314,15792,1,0,0:0:0:0:
168,266,16197,6,0,P|259:275|286:341,1,170,4|0,0:2|0:0,0:0:0:0:
359,370,17413,1,0,0:0:0:0:
428,340,17818,1,0,0:0:0:0:
339,165,18224,6,0,B|323:162|317:169|305:150|305:150|322:140|343:161,1,70.1250021400452
357,233,18629,2,0,B|378:260|362:291|362:291|341:273|348:250,1,108.375002067089
405,184,19034,2,0,B|413:163|436:162|436:162|437:182|405:191,1,72.2500013780594
271,227,19441,6,0,P|167:201|144:58,1,255.000009727478,8|0,0:1|0:0,0:0:0:0:
59,143,20657,2,0,P|63:192|62:233,1,85,0|0,0:1|0:0,0:0:0:0:
62,227,21468,1,0,0:0:0:0:
63,341,21873,6,0,B|46:352|31:369|31:369|59:356|85:352,1,95.6250036478044
134,299,22278,2,0,B|134:287|131:276|131:276|129:292|124:305,1,47.8125018239022
63,341,22684,6,0,B|181:303|168:373|286:341,1,223.125008511544,8|0,0:2|0:0,0:0:0:0:
357,373,23495,2,0,P|349:331|349:288,1,85
348,288,24305,1,0,0:0:0:0:
421,316,24710,1,0,0:0:0:0:
488,301,25115,6,0,P|503:265|502:229,1,63.75
460,186,25521,2,0,P|437:155|405:137,1,63.7500024318696
278,264,25927,6,0,B|254:133|332:144|294:0,1,267.749991828919,8|0,0:3|0:0,0:0:0:0:
335,60,26737,2,0,P|381:77|336:57,1,144.500002756119
227,107,27549,5,0,0:0:0:0:
300,148,27954,1,0,0:0:0:0:
310,267,28360,1,0,0:0:0:0:
190,341,28765,1,0,0:0:0:0:
166,266,29170,6,0,P|216:273|252:298,1,95.6250036478044,0|0,1:2|0:0,0:0:0:0:
309,336,29576,2,0,P|317:362|303:341,1,76.4999976654053,2|0,0:0|0:0,0:0:0:0:
166,266,29981,6,0,P|161:202|187:144,1,127.5
249,93,30387,2,0,P|236:51|245:94,1,127.5,0|0,1:0|0:0,0:0:0:0:
262,169,30792,1,2,0:1:0:0:
68,179,31198,6,0,B|54:213|10:231|-23:197|-23:197|-18:159|19:158,1,159.375,0|0,1:0|0:0,0:0:0:0:
113,126,31603,2,0,B|116:93|93:74|93:74|88:94|96:110,1,95.6250036478044,2|0,0:3|0:0,0:0:0:0:
137,209,32008,1,2,0:0:0:0:
137,209,32414,6,0,B|280:169|259:285|394:247,1,267.749991828919,0|0,1:0|0:0,0:0:0:0:
409,239,33225,2,0,P|409:206|397:235,1,85,0|0,0:0|1:0,0:0:0:0:
355,331,34035,5,8,0:1:0:0:
437,354,34441,1,2,0:0:0:0:
355,331,34846,2,0,P|321:338|289:347,1,68,0|2,0:1|0:0,0:0:0:0:
103,294,35657,6,0,B|125:296|139:282|139:282|125:279|115:283,1,63.7500024318696,0|0,1:0|0:0,0:0:0:0:
181,364,36062,6,0,B|201:356|206:336|206:336|192:339|186:349,1,63.7500024318696
93,376,36468,6,0,B|95:326|54:276|-6:296|-6:296|-24:345|16:366,1,229.499992996216,2|0,0:0|0:0,0:0:0:0:
69,205,37279,2,0,P|66:158|69:120,1,85,8|0,0:3|0:0,0:0:0:0:
51,51,38089,2,0,P|26:29|40:59,1,85
140,97,38900,1,0,1:0:0:0:
140,97,39306,6,0,B|201:106|168:78|246:91,1,102
302,120,39711,2,0,B|333:128|337:159|337:159|315:156|307:128,1,102,2|0,0:0|0:0,0:0:0:0:
298,52,40116,1,2,0:3:0:0:
298,52,40522,6,0,B|285:7|321:-21|321:-21|332:9|305:39,1,146.62500279665
239,90,40927,2,0,B|217:112|189:101|189:101|202:84|229:90,1,95.6250036478044,0|0,1:0|0:0,0:0:0:0:
381,50,41333,6,0,B|394:131|361:94|381:187,1,127.500004863739,2|0,0:0|0:0,0:0:0:0:
428,228,41738,6,0,P|480:212|452:164,1,127.5,4|0,0:2|0:0,0:0:0:0:
353,244,42143,6,0,P|303:251|267:276,1,95.6250036478044,0|0,1:2|0:0,0:0:0:0:
214,216,42549,2,0,P|206:190|220:211,1,76.4999976654053,2|0,0:0|0:0,0:0:0:0:
353,244,42954,6,0,P|378:302|386:365,1,127.5
457,357,43360,2,0,P|500:356|458:347,1,127.5,0|0,1:0|0:0,0:0:0:0:
409,298,43765,1,2,0:1:0:0:
234,337,44170,6,0,B|144:314|154:366|77:348,1,159.375,0|0,1:0|0:0,0:0:0:0:
4,335,44576,2,0,B|-12:361|2:392|2:392|16:375|9:345,1,95.6250036478044,2|0,0:3|0:0,0:0:0:0:
105,283,44981,1,0,0:0:0:0:
105,283,45387,6,0,B|146:224|121:146|47:133|47:133|-4:182|35:232,1,297.5,0|0,1:0|0:0,0:0:0:0:
26,239,46198,2,0,P|1:256|17:231,1,85,0|0,0:0|1:0,0:0:0:0:
202,252,47008,6,0,P|210:219|216:162,1,85,8|0,0:1|0:0,0:0:0:0:
285,116,47819,2,0,P|281:73|271:32,1,85
372,247,48630,6,0,B|351:237|348:218|348:218|361:221|368:231,1,63.7500024318696,0|0,1:0|0:0,0:0:0:0:
429,197,49035,6,0,B|416:178|423:160|423:160|432:170|433:182,1,63.7500024318696
496,297,49441,6,0,B|402:281|442:214|347:157|265:205,1,255.000009727478,8|2,0:0|0:3,0:0:0:0:
197,311,50657,6,0,B|172:327|160:342|160:342|180:329|206:322,1,95.6250036478044,0|0,1:0|0:0,0:0:0:0:
248,374,51062,2,0,P|237:315|233:239,2,127.500004863739,2|0|0,0:2|0:0|0:0,0:0:0:0:
248,374,55279,5,0,0:0:0:0:
260,378,55362,1,0,0:0:0:0:
252,379,55445,1,0,0:0:0:0:
256,384,55529,1,4,0:0:0:0:
