osu file format v14

[General]
AudioFilename: audio.mp3
AudioLeadIn: 0
PreviewTime: 2211
Countdown: 0
SampleSet: Normal
StackLeniency: 0.7
Mode: 1
LetterboxInBreaks: 0
WidescreenStoryboard: 1

[Editor]
Bookmarks: 3227,29173,42146,51875
DistanceSpacing: 0.9
BeatDivisor: 4
GridSize: 32
TimelineZoom: 0.5999999

[Metadata]
Title:Take the Journey
TitleUnicode:踏上旅途
Artist:HOYO-MiX feat. Anthony Lynch
ArtistUnicode:HOYO-MiX feat. Anthony Lynch
Creator:Ryxliee
Version:Stompy's Kantan
Source:Honkai: Star Rail
Tags:崩坏星穹铁道-失控 out of control 制御不能 崩壊: 崩壊:スターレイル houkai 崩坏: 星穹铁道 english acoustic folk videogame video game gacha guitar male vocals vocalist ost original soundtrack hoyomix mihoyo hoyoverse 林一凡 yifan lin Stompy_
BeatmapID:4127799
BeatmapSetID:1986961

[Difficulty]
HPDrainRate:10
CircleSize:2
OverallDifficulty:3
ApproachRate:9
SliderMultiplier:1.4
SliderTickRate:1

[Events]
//Background and Video events
0,0,"bg.jpg",0,50
//Break Periods
//Storyboard Layer 0 (Background)
//Storyboard Layer 1 (Fail)
//Storyboard Layer 2 (Pass)
//Storyboard Layer 3 (Foreground)
//Storyboard Layer 4 (Overlay)
//Storyboard Sound Samples

[TimingPoints]
3225,810.810810810811,4,1,0,70,1,0
55116,810.810810810811,4,1,0,70,1,8
55279,750,4,1,0,70,1,0
55279,-108.108108108108,4,1,0,70,0,0

[HitObjects]
257,192,3225,5,0,0:0:0:0:
257,192,4036,1,8,0:0:0:0:
257,192,5657,1,0,0:0:0:0:
257,192,6063,1,0,0:0:0:0:
257,192,6468,1,8,0:0:0:0:
257,192,7279,1,0,0:0:0:0:
257,192,8900,1,8,0:0:0:0:
257,192,9306,1,8,0:0:0:0:
257,192,9711,1,0,0:0:0:0:
257,192,10522,1,0,0:0:0:0:
257,192,12144,1,8,0:0:0:0:
257,192,12549,1,0,0:0:0:0:
257,192,12954,1,8,0:0:0:0:
257,192,13765,1,8,0:0:0:0:
257,192,15387,1,0,0:0:0:0:
257,192,16198,1,8,0:0:0:0:
257,192,17009,1,0,0:0:0:0:
257,192,18630,1,0,0:0:0:0:
257,192,19036,1,0,0:0:0:0:
257,192,19441,1,8,0:0:0:0:
257,192,20252,1,0,0:0:0:0:
257,192,21873,1,0,0:0:0:0:
257,192,22279,1,0,0:0:0:0:
257,192,22684,1,8,0:0:0:0:
257,192,23495,1,0,0:0:0:0:
257,192,25117,1,0,0:0:0:0:
257,192,25927,1,8,0:0:0:0:
257,192,26333,1,0,0:0:0:0:
257,192,26738,1,8,0:0:0:0:
257,192,27549,1,8,0:0:0:0:
257,192,29171,1,0,0:0:0:0:
257,192,29576,1,8,0:0:0:0:
257,192,29982,1,0,0:0:0:0:
257,192,30792,1,0,0:0:0:0:
257,192,31198,1,0,0:0:0:0:
257,192,31603,1,8,0:0:0:0:
257,192,32009,1,0,0:0:0:0:
257,192,32414,1,8,0:0:0:0:
257,192,33225,1,0,0:0:0:0:
257,192,34036,1,8,0:0:0:0:
257,192,35657,1,0,0:0:0:0:
257,192,36063,1,0,0:0:0:0:
257,192,36468,1,8,0:0:0:0:
257,192,37279,1,8,0:0:0:0:
257,192,38090,1,0,0:0:0:0:
257,192,38900,1,8,0:0:0:0:
257,192,39711,1,0,0:0:0:0:
257,192,40116,1,0,0:0:0:0:
257,192,40522,1,8,0:0:0:0:
257,192,42144,1,8,0:0:0:0:
257,192,42549,1,0,0:0:0:0:
257,192,42954,1,8,0:0:0:0:
257,192,43765,1,8,0:0:0:0:
257,192,44171,1,8,0:0:0:0:
257,192,44576,1,0,0:0:0:0:
257,192,44982,1,8,0:0:0:0:
257,192,45387,1,0,0:0:0:0:
257,192,46198,1,0,0:0:0:0:
257,192,47009,1,8,0:0:0:0:
257,192,47819,1,8,0:0:0:0:
257,192,48630,1,0,0:0:0:0:
257,192,49036,1,0,0:0:0:0:
257,192,49441,1,8,0:0:0:0:
257,192,50252,1,0,0:0:0:0:
257,192,51063,1,8,0:0:0:0:
257,192,51468,1,0,0:0:0:0:
256,195,55513,1,8,0:0:0:0:
