osu file format v14

[General]
AudioFilename: Character Demo - Yae Miko Anecdote of a Divine Kitsune Guuji Genshin Impact.ogg
AudioLeadIn: 0
PreviewTime: 104319
Countdown: 0
SampleSet: Soft
StackLeniency: 0.7
Mode: 3
LetterboxInBreaks: 0
SpecialStyle: 0
WidescreenStoryboard: 0

[Editor]
DistanceSpacing: 0.8
BeatDivisor: 2
GridSize: 32
TimelineZoom: 1

[Metadata]
Title:Yae Miko: Anecdote of a Divine Kitsune Guuji
TitleUnicode:Yae Miko: Anecdote of a Divine Kitsune Guuji
Artist:HOYO-MiX
ArtistUnicode:HOYO-MiX
Creator:AutotelicBrown
Version:Lady Guuji | Easy
Source:Genshin Impact
Tags:Hoyoverse MiHoYo 苑迪萌 Dimeng Yuan 顾剑楠 Jiannan Gu 八重神子 宮司 Ratana Therakulsathit Grand Narukami Shrine head shrine maiden fox Yae Publishing House Inazuma original soundtrack character demo video game english
BeatmapID:3478566
BeatmapSetID:1702460

[Difficulty]
HPDrainRate:7
CircleSize:4
OverallDifficulty:7
ApproachRate:5
SliderMultiplier:1.4
SliderTickRate:1

[Events]
//Background and Video events
0,0,"bg_easy.jpg",0,0
Video,-26,"yaelmao.mp4"
//Break Periods
//Storyboard Layer 0 (Background)
//Storyboard Layer 1 (Fail)
//Storyboard Layer 2 (Pass)
//Storyboard Layer 3 (Foreground)
//Storyboard Layer 4 (Overlay)
//Storyboard Sound Samples

[TimingPoints]
3731,441.176471,4,2,1,10,1,0
26672,-100,4,2,1,15,0,0
60201,-100,4,2,1,25,0,1
88436,-100,4,2,1,20,0,0
104319,-100,4,2,1,30,0,1
127260,-100,4,2,1,15,0,0
153289,-100,4,2,1,10,0,0

[HitObjects]
192,192,3731,5,0,0:0:0:0:
448,192,3979,1,0,0:0:0:0:
64,192,5495,1,0,0:0:0:0:
192,192,7260,1,0,0:0:0:0:
320,192,9025,1,0,0:0:0:0:
448,192,9907,1,0,0:0:0:0:
64,192,10789,128,0,12554:0:0:0:0:
192,192,12554,128,0,14319:0:0:0:0:
448,192,14319,128,0,16966:0:0:0:0:
64,192,16966,1,0,0:0:0:0:
320,192,17186,1,0,0:0:0:0:
192,192,17407,1,0,0:0:0:0:
448,192,17628,1,0,0:0:0:0:
64,192,17848,128,0,19613:0:0:0:0:
192,192,19613,128,0,21378:0:0:0:0:
448,192,21378,128,0,23142:0:0:0:0:
64,192,23142,128,0,24025:0:0:0:0:
320,192,24025,128,0,24466:0:0:0:0:
192,192,26672,1,0,0:0:0:0:
448,192,30201,128,0,35936:0:0:0:0:
64,192,37701,1,0,0:0:0:0:
192,192,38142,1,0,0:0:0:0:
448,192,39025,1,0,0:0:0:0:
64,192,41231,1,0,0:0:0:0:
192,192,41672,1,0,0:0:0:0:
448,192,42554,1,0,0:0:0:0:
320,192,44319,128,0,47407:0:0:0:0:
64,192,48289,1,0,0:0:0:0:
192,192,48731,128,0,50054:0:0:0:0:
448,192,51378,1,0,0:0:0:0:
320,192,51378,1,0,0:0:0:0:
192,192,51598,1,0,0:0:0:0:
448,192,52039,1,0,0:0:0:0:
192,192,52260,1,0,0:0:0:0:
320,192,52701,1,0,0:0:0:0:
64,192,52922,1,0,0:0:0:0:
192,192,53363,1,0,0:0:0:0:
448,192,53583,1,0,0:0:0:0:
320,192,54025,1,0,0:0:0:0:
192,192,54245,1,0,0:0:0:0:
448,192,54466,1,0,0:0:0:0:
64,192,54907,1,0,0:0:0:0:
320,192,55128,1,0,0:0:0:0:
448,192,55569,1,0,0:0:0:0:
192,192,56010,1,0,0:0:0:0:
320,192,56231,1,0,0:0:0:0:
64,192,56451,1,0,0:0:0:0:
192,192,57554,128,0,58436:0:0:0:0:
320,192,58436,128,0,60201:0:0:0:0:
448,192,60201,1,0,0:0:0:0:
192,192,60201,1,0,0:0:0:0:
320,192,61856,1,0,0:0:0:0:
64,192,62003,1,0,0:0:0:0:
192,192,62885,1,0,0:0:0:0:
448,192,63731,1,0,0:0:0:0:
64,192,63731,1,0,0:0:0:0:
320,192,64613,1,0,0:0:0:0:
448,192,65054,1,0,0:0:0:0:
64,192,65495,1,0,0:0:0:0:
192,192,66598,1,0,0:0:0:0:
448,192,66819,1,0,0:0:0:0:
64,192,67260,1,0,0:0:0:0:
192,192,68142,1,0,0:0:0:0:
448,192,68583,1,0,0:0:0:0:
320,192,68878,1,0,0:0:0:0:
64,192,69025,1,0,0:0:0:0:
448,192,69907,1,0,0:0:0:0:
192,192,70348,1,0,0:0:0:0:
320,192,70789,1,0,0:0:0:0:
192,192,71451,1,0,0:0:0:0:
320,192,71672,1,0,0:0:0:0:
448,192,72113,1,0,0:0:0:0:
64,192,72499,1,0,0:0:0:0:
320,192,72609,1,0,0:0:0:0:
192,192,73878,1,0,0:0:0:0:
320,192,74098,1,0,0:0:0:0:
448,192,74319,1,0,0:0:0:0:
64,192,74319,1,0,0:0:0:0:
192,192,74760,1,0,0:0:0:0:
448,192,75642,1,0,0:0:0:0:
320,192,75936,1,0,0:0:0:0:
64,192,76083,1,0,0:0:0:0:
448,192,76525,1,0,0:0:0:0:
192,192,76966,1,0,0:0:0:0:
448,192,77407,1,0,0:0:0:0:
64,192,77848,1,0,0:0:0:0:
320,192,78289,1,0,0:0:0:0:
192,192,78731,1,0,0:0:0:0:
448,192,79172,1,0,0:0:0:0:
64,192,79613,1,0,0:0:0:0:
320,192,80054,1,0,0:0:0:0:
192,192,80936,1,0,0:0:0:0:
64,192,81378,1,0,0:0:0:0:
320,192,81819,1,0,0:0:0:0:
192,192,82260,1,0,0:0:0:0:
448,192,82701,1,0,0:0:0:0:
320,192,82995,1,0,0:0:0:0:
64,192,83142,1,0,0:0:0:0:
448,192,83583,1,0,0:0:0:0:
192,192,84466,1,0,0:0:0:0:
320,192,84907,1,0,0:0:0:0:
448,192,85348,1,0,0:0:0:0:
192,192,85569,1,0,0:0:0:0:
320,192,85789,1,0,0:0:0:0:
448,192,86231,1,0,0:0:0:0:
192,192,86451,1,0,0:0:0:0:
320,192,86672,128,0,88436:0:0:0:0:
192,192,88436,1,0,0:0:0:0:
64,192,88436,128,0,90201:0:0:0:0:
448,192,90201,128,0,91966:0:0:0:0:
192,192,91966,128,0,97039:0:0:0:0:
320,192,97260,128,0,99135:0:0:0:0:
448,192,99135,128,0,100569:0:0:0:0:
192,192,100569,1,0,0:0:0:0:
64,192,100789,128,0,103436:0:0:0:0:
320,192,103436,1,0,0:0:0:0:
448,192,104319,1,0,0:0:0:0:
192,192,104319,1,0,0:0:0:0:
64,192,104650,1,0,0:0:0:0:
320,192,104760,1,0,0:0:0:0:
192,192,104981,1,0,0:0:0:0:
64,192,105422,1,0,0:0:0:0:
448,192,105642,1,0,0:0:0:0:
320,192,105863,1,0,0:0:0:0:
192,192,106083,1,0,0:0:0:0:
64,192,106414,1,0,0:0:0:0:
320,192,106525,1,0,0:0:0:0:
192,192,106745,1,0,0:0:0:0:
64,192,107186,1,0,0:0:0:0:
448,192,107407,1,0,0:0:0:0:
192,192,107628,1,0,0:0:0:0:
320,192,107848,1,0,0:0:0:0:
448,192,108289,1,0,0:0:0:0:
64,192,108510,1,0,0:0:0:0:
320,192,109172,1,0,0:0:0:0:
192,192,109392,1,0,0:0:0:0:
448,192,109613,1,0,0:0:0:0:
64,192,109613,1,0,0:0:0:0:
320,192,110054,1,0,0:0:0:0:
192,192,110275,1,0,0:0:0:0:
64,192,110716,1,0,0:0:0:0:
448,192,110936,1,0,0:0:0:0:
320,192,111378,1,0,0:0:0:0:
192,192,111378,1,0,0:0:0:0:
448,192,111819,1,0,0:0:0:0:
64,192,112039,1,0,0:0:0:0:
192,192,112481,1,0,0:0:0:0:
448,192,112701,1,0,0:0:0:0:
320,192,112922,1,0,0:0:0:0:
64,192,113142,1,0,0:0:0:0:
192,192,113473,1,0,0:0:0:0:
320,192,113583,1,0,0:0:0:0:
64,192,113804,1,0,0:0:0:0:
192,192,114245,1,0,0:0:0:0:
448,192,114466,1,0,0:0:0:0:
320,192,114686,1,0,0:0:0:0:
64,192,114907,1,0,0:0:0:0:
448,192,115348,1,0,0:0:0:0:
192,192,115569,1,0,0:0:0:0:
320,192,115789,1,0,0:0:0:0:
448,192,116231,1,0,0:0:0:0:
64,192,116451,1,0,0:0:0:0:
320,192,116672,1,0,0:0:0:0:
192,192,117003,1,0,0:0:0:0:
448,192,117113,1,0,0:0:0:0:
64,192,117444,1,0,0:0:0:0:
192,192,117775,1,0,0:0:0:0:
448,192,117995,1,0,0:0:0:0:
64,192,118216,1,0,0:0:0:0:
320,192,118436,1,0,0:0:0:0:
192,192,118436,1,0,0:0:0:0:
448,192,118878,1,0,0:0:0:0:
192,192,119098,1,0,0:0:0:0:
64,192,119539,1,0,0:0:0:0:
448,192,119760,1,0,0:0:0:0:
320,192,119981,1,0,0:0:0:0:
192,192,120201,1,0,0:0:0:0:
64,192,120532,1,0,0:0:0:0:
320,192,120642,1,0,0:0:0:0:
192,192,120863,1,0,0:0:0:0:
320,192,121304,1,0,0:0:0:0:
448,192,121525,1,0,0:0:0:0:
192,192,121745,1,0,0:0:0:0:
64,192,121966,1,0,0:0:0:0:
448,192,122407,1,0,0:0:0:0:
64,192,122628,1,0,0:0:0:0:
192,192,123069,1,0,0:0:0:0:
320,192,123289,1,0,0:0:0:0:
64,192,123510,1,0,0:0:0:0:
448,192,123731,1,0,0:0:0:0:
320,192,124061,1,0,0:0:0:0:
192,192,124392,1,0,0:0:0:0:
448,192,124613,1,0,0:0:0:0:
64,192,124944,1,0,0:0:0:0:
192,192,125275,1,0,0:0:0:0:
320,192,125495,1,0,0:0:0:0:
64,192,126267,1,0,0:0:0:0:
448,192,126819,128,0,127260:0:0:0:0:
192,192,127260,1,0,0:0:0:0:
320,192,128583,1,0,0:0:0:0:
192,192,130458,1,0,0:0:0:0:
448,192,130606,1,0,0:0:0:0:
64,192,131120,1,0,0:0:0:0:
320,192,134319,128,0,135826:0:0:0:0:
448,192,135826,1,0,0:0:0:0:
192,192,136047,1,0,0:0:0:0:
320,192,137775,1,0,0:0:0:0:
64,192,137903,1,0,0:0:0:0:
192,192,138731,1,0,0:0:0:0:
64,192,139723,1,0,0:0:0:0:
448,192,140128,128,0,145348:0:0:0:0:
64,192,145789,128,0,148253:0:0:0:0:
320,192,148253,128,0,148822:0:0:0:0:
192,192,153289,1,0,0:0:0:0:
448,192,153537,1,0,0:0:0:0:
64,192,155054,1,0,0:0:0:0:
192,192,156819,1,0,0:0:0:0:
320,192,158583,1,0,0:0:0:0:
448,192,159466,1,0,0:0:0:0:
64,192,160348,1,0,0:0:0:0:
192,192,161672,128,0,166525:0:0:0:0:
