osu file format v14

[General]
AudioFilename: audio.mp3
AudioLeadIn: 0
PreviewTime: 44757
Countdown: 0
SampleSet: Soft
StackLeniency: 0.7
Mode: 0
LetterboxInBreaks: 0
WidescreenStoryboard: 0

[Editor]
DistanceSpacing: 0.3
BeatDivisor: 4
GridSize: 32
TimelineZoom: 1.2

[Metadata]
Title:Thanks for Your Patronage!
TitleUnicode:多谢惠顾!
Artist:HOYO-MiX
ArtistUnicode:HOYO-MiX
Creator:Dustinati
Version:Insane
Source:Genshin Impact
Tags:instrumental video game hoyo mix hoyoverse 原神 mihoyo yu-peng chen yu peng dori 多莉 generous purchase 毎度ありですわ! the stellar moments sumeru OST original sound track soundtrack videogame 陈致逸 volume vol. 3 vol.3 闪耀的群星3 ドリー
BeatmapID:3969510
BeatmapSetID:1922929

[Difficulty]
HPDrainRate:5.5
CircleSize:4
OverallDifficulty:8
ApproachRate:9
SliderMultiplier:2.2
SliderTickRate:1

[Events]
//Background and Video events
0,0,"doribg.png",0,0
//Break Periods
//Storyboard Layer 0 (Background)
//Storyboard Layer 1 (Fail)
//Storyboard Layer 2 (Pass)
//Storyboard Layer 3 (Foreground)
//Storyboard Layer 4 (Overlay)
//Storyboard Sound Samples

[TimingPoints]
296,359.281437125748,4,2,1,40,1,0
296,-125,4,2,1,40,0,0
1733,-125,4,2,1,50,0,0
6852,-125,4,2,1,5,0,0
6942,-125,4,2,1,50,0,0
16104,-100,4,2,1,70,0,0
16373,-100,4,2,1,5,0,0
16463,-100,4,2,1,70,0,0
21852,-100,4,2,1,60,0,0
22122,-100,4,2,1,5,0,0
22212,-100,4,2,1,60,0,0
24996,-100,4,2,1,5,0,0
25086,-100,4,2,1,60,0,0
27870,-100,4,2,1,5,0,0
27960,-100,4,2,1,60,0,0
30834,-100,4,2,1,70,0,0
31104,-100,4,2,1,5,0,0
31194,-100,4,2,1,60,0,0
31733,-100,4,2,1,70,0,0
31912,-100,4,2,1,60,0,0
40894,-100,4,2,1,70,0,0
41074,-100,4,2,1,60,0,0
41613,-100,4,2,1,70,0,0
41793,-100,4,2,1,60,0,0
42331,-100,4,2,1,70,0,0
42601,-100,4,2,1,5,0,0
42691,-100,4,2,1,60,0,0
43230,-100,4,2,1,70,0,0
43409,-100,4,2,1,60,0,0
44846,710.059171597633,4,2,1,60,1,0
45556,689.655172413793,4,2,1,60,1,0
46245,655.737704918033,4,2,1,61,1,0
46900,645.161290322581,4,2,1,61,1,0
47545,621.761658031088,4,2,1,62,1,0
48166,606.060606060606,4,2,1,62,1,0
48772,591.133004926108,4,2,1,63,1,0
49363,574.162679425837,4,2,1,63,1,0
49937,552.995391705069,4,2,1,64,1,0
50489,545.454545454546,4,2,1,64,1,0
51034,530.973451327434,4,2,1,65,1,0
51564,517.241379310345,4,2,1,65,1,0
52081,504.201680672269,4,2,1,66,1,0
52585,491.803278688525,4,2,1,66,1,0
53076,480,4,2,1,67,1,0
53556,474.308300395257,4,2,1,67,1,0
54030,461.538461538462,4,2,1,68,1,0
54491,454.545454545454,4,2,1,68,1,0
54945,441.176470588235,4,2,1,69,1,0
55386,434.782608695652,4,2,1,69,1,0
55819,427.046263345196,4,2,1,70,1,0
56246,413.793103448276,4,2,1,70,1,0
56659,409.556313993174,4,2,1,71,1,0
57068,402.684563758389,4,2,1,71,1,0
57470,393.44262295082,4,2,1,72,1,0
57863,389.61038961039,4,2,1,72,1,0
58252,380.952380952381,4,2,1,73,1,0
58632,377.358490566038,4,2,1,73,1,0
59009,365.853658536585,4,2,1,74,1,0
59374,362.537764350453,4,2,1,74,1,0
59736,356.083086053412,4,2,1,75,1,0
60092,352.941176470588,4,2,1,76,1,0
60444,344.827586206897,4,2,1,77,1,0
61133,333.333333333333,4,2,1,78,1,0
61799,324.324324324324,4,2,1,79,1,0
62447,319.148936170213,4,2,1,80,1,0
63085,312.5,4,2,1,81,1,0
63708,307.692307692308,4,2,1,82,1,0
64323,303.79746835443,4,2,1,83,1,0
64930,300,4,2,1,84,1,0
65530,334.261838440111,4,2,1,60,1,0
66867,-100,4,2,1,70,0,0

[Colours]
Combo1 : 214,139,216
Combo2 : 255,94,255
Combo3 : 150,65,207
Combo4 : 250,173,242

[HitObjects]
94,133,1014,5,8,0:1:0:0:
167,95,1194,1,8,0:1:0:0:
167,95,1284,1,8,0:1:0:0:
167,95,1373,1,8,0:1:0:0:
181,181,1553,1,8,0:1:0:0:
63,285,1733,6,0,P|128:270|181:261,1,88,2|0,0:0|0:0,0:0:0:0:
211,359,2092,1,2,3:2:0:0:
303,280,2272,1,2,0:0:0:0:
303,280,2361,1,2,0:0:0:0:
303,280,2451,2,0,P|374:290|405:296,2,88,2|2|2,0:0|3:2|1:2,0:0:0:0:
242,220,2990,1,0,0:0:0:0:
209,91,3170,6,0,P|218:33|226:-14,1,88,2|0,0:0|0:0,0:0:0:0:
333,153,3529,1,2,3:2:0:0:
194,182,3709,1,2,0:0:0:0:
173,178,3798,1,2,0:0:0:0:
151,175,3888,2,0,P|144:131|138:95,2,44,2|2|0,0:0|0:0|3:2,0:0:0:0:
90,265,4248,2,0,P|51:267|6:225,1,88,2|2,1:2|0:0,0:0:0:0:
219,261,4607,6,0,P|210:319|202:366,1,88,2|0,0:0|0:0,0:0:0:0:
297,242,4966,1,2,3:2:0:0:
350,361,5146,1,2,0:0:0:0:
350,361,5235,1,2,0:0:0:0:
350,361,5325,2,0,P|399:359|443:310,2,88,2|2|2,0:0|3:2|1:2,0:0:0:0:
306,270,5864,1,0,0:0:0:0:
198,339,6044,5,2,0:0:0:0:
176,344,6133,1,2,0:0:0:0:
155,344,6223,1,2,0:0:0:0:
134,336,6313,1,2,0:0:0:0:
117,322,6403,1,2,3:2:0:0:
5,202,6583,2,0,P|18:253|33:337,1,132,2|0,0:0|0:0,0:0:0:0:
22,346,6942,1,2,3:2:0:0:
106,254,7122,1,2,1:2:0:0:
219,311,7301,1,2,0:0:0:0:
272,176,7481,6,0,P|211:177|175:207,1,88,2|0,0:0|0:0,0:0:0:0:
81,280,7840,1,2,3:2:0:0:
202,384,8020,1,2,0:0:0:0:
202,384,8109,1,2,0:0:0:0:
202,384,8200,2,0,P|213:321|218:284,2,88,2|2|2,0:0|3:2|1:2,0:0:0:0:
96,272,8739,1,0,0:0:0:0:
243,228,8918,6,0,P|300:238|342:245,1,88,2|0,0:0|0:0,0:0:0:0:
272,132,9278,1,2,3:2:0:0:
163,236,9457,1,2,0:0:0:0:
167,257,9546,1,2,0:0:0:0:
171,279,9637,2,0,P|179:322|184:353,2,44,2|2|2,0:0|0:0|3:2,0:0:0:0:
130,122,9996,2,0,P|72:126|40:159,1,88,2|2,1:2|0:0,0:0:0:0:
77,305,10355,6,0,P|88:250|100:183,1,88,2|0,0:0|0:0,0:0:0:0:
160,348,10715,1,2,3:2:0:0:
230,253,10894,1,2,0:0:0:0:
230,253,10984,1,2,0:0:0:0:
230,253,11074,2,0,P|283:239|327:261,2,88,2|2|2,0:0|3:2|1:2,0:0:0:0:
175,327,11613,1,0,0:0:0:0:
313,375,11793,5,2,0:0:0:0:
317,354,11882,1,2,0:0:0:0:
320,332,11972,1,2,0:0:0:0:
323,310,12062,1,2,0:0:0:0:
327,289,12152,1,2,3:2:0:0:
241,218,12331,2,0,P|177:229|113:239,1,88,2|0,0:0|0:0,0:0:0:0:
309,101,12691,1,2,3:2:0:0:
239,240,12870,1,2,1:2:0:0:
179,126,13050,1,2,0:0:0:0:
358,168,13230,6,0,P|367:224|346:263,1,88,2|0,0:0|0:0,0:0:0:0:
282,342,13589,1,2,3:2:0:0:
426,359,13769,1,2,0:0:0:0:
426,359,13858,1,2,0:0:0:0:
426,359,13948,2,0,P|433:316|440:263,2,88,2|2|2,0:0|3:2|1:2,0:0:0:0:
356,262,14487,1,0,0:0:0:0:
278,367,14667,6,0,P|213:358|163:352,1,88,2|2,0:0|0:0,0:0:0:0:
144,259,15026,1,2,3:2:0:0:
255,137,15206,2,0,P|244:207|235:259,1,88,2|2,0:0|0:0,0:0:0:0:
85,376,15565,1,2,3:2:0:0:
85,376,15655,1,2,0:0:0:0:
85,376,15745,2,0,P|77:332|71:289,1,88,2|2,1:2|0:0,0:0:0:0:
60,132,16104,6,0,P|99:67|197:74,1,165,6|0,1:2|0:0,0:0:0:0:
192,75,16463,1,0,1:2:0:0:
304,160,16643,1,2,0:0:0:0:
375,28,16822,2,0,P|291:38|243:43,1,110,2|0,1:2|0:0,0:0:0:0:
413,127,17182,1,0,1:2:0:0:
310,260,17361,6,0,P|297:189|286:129,1,110,2|0,0:0|1:2,0:0:0:0:
176,54,17721,2,0,P|166:108|156:162,1,110,2|0,0:0|1:2,0:0:0:0:
188,269,18080,1,2,0:0:0:0:
275,157,18260,2,0,P|362:174|385:218,1,110,2|0,1:2|0:0,0:0:0:0:
177,280,18619,2,0,P|123:282|79:250,1,110,2|0,1:2|1:2,0:0:0:0:
286,103,18978,6,0,L|272:169,1,55,2|0,1:2|0:0,0:0:0:0:
203,163,19158,2,0,L|217:229,1,55,2|0,0:0|0:0,0:0:0:0:
302,232,19337,6,0,L|316:298,1,55,10|0,0:0|0:0,0:0:0:0:
394,283,19517,2,0,L|380:349,1,55,2|0,1:2|0:0,0:0:0:0:
475,238,19697,6,0,P|467:187|442:170,1,55,2|0,1:2|0:0,0:0:0:0:
512,103,19876,2,0,P|464:84|437:97,1,55,2|0,0:0|0:0,0:0:0:0:
395,194,20056,6,0,P|349:177|318:186,1,55,10|0,0:0|0:0,0:0:0:0:
300,81,20236,2,0,P|276:94|249:97,1,55,2|0,1:2|0:0,0:0:0:0:
116,163,20415,5,2,0:0:0:0:
73,158,20504,1,2,0:0:0:0:
34,175,20594,1,2,1:2:0:0:
8,208,20684,1,2,0:0:0:0:
2,250,20774,1,10,0:0:0:0:
17,290,20864,1,2,0:0:0:0:
49,317,20954,2,0,L|107:304,1,55,2|2,1:2|0:0,0:0:0:0:
177,205,21134,5,2,1:2:0:0:
206,173,21224,1,2,0:0:0:0:
248,163,21314,1,2,0:0:0:0:
289,176,21404,1,2,0:0:0:0:
315,212,21493,2,0,L|299:278,1,55,10|0,0:0|0:0,0:0:0:0:
199,79,21673,2,0,L|212:25,1,55,2|0,1:2|0:0,0:0:0:0:
315,115,21852,6,0,P|407:99|488:85,1,165,6|0,1:2|0:0,0:0:0:0:
498,95,22212,1,10,0:0:0:0:
405,292,22391,2,0,P|378:235|397:177,1,110,2|0,0:0|1:2,0:0:0:0:
159,78,22751,1,2,0:0:0:0:
186,74,22841,1,2,0:0:0:0:
213,70,22930,1,10,0:0:0:0:
309,133,23110,1,2,0:0:0:0:
93,250,23290,6,0,P|76:176|65:119,1,110,0|2,1:2|0:0,0:0:0:0:
51,125,23559,1,2,0:0:0:0:
51,125,23649,1,10,0:0:0:0:
224,206,23828,1,0,0:0:0:0:
134,73,24008,1,0,1:2:0:0:
3,251,24188,1,2,0:0:0:0:
3,251,24278,1,2,0:0:0:0:
3,251,24367,2,0,P|105:236|148:231,1,110,10|2,0:0|0:0,0:0:0:0:
249,81,24727,6,0,P|335:95|366:175,1,165,2|0,1:2|0:0,0:0:0:0:
365,175,25086,1,10,0:0:0:0:
248,304,25266,2,0,P|234:225|226:171,1,110,2|0,0:0|1:2,0:0:0:0:
362,301,25625,1,2,0:0:0:0:
366,328,25714,1,2,0:0:0:0:
370,355,25804,1,10,0:0:0:0:
475,202,25984,6,0,P|420:173|363:190,1,110,2|0,0:0|1:2,0:0:0:0:
264,325,26343,1,2,0:0:0:0:
237,321,26433,1,2,0:0:0:0:
210,317,26522,1,10,0:0:0:0:
93,173,26703,1,0,0:0:0:0:
7,288,26882,2,0,P|61:316|119:305,1,110,0|2,1:2|0:0,0:0:0:0:
122,301,27152,1,2,0:0:0:0:
122,301,27242,2,0,P|109:191|105:153,1,110,10|2,0:0|0:0,0:0:0:0:
201,29,27601,6,0,P|260:20|326:120,1,165,2|0,1:2|0:0,0:0:0:0:
327,107,27960,1,10,0:0:0:0:
107,68,28140,2,0,P|31:86|-32:101,1,110,2|0,0:0|1:2,0:0:0:0:
229,137,28499,1,2,0:0:0:0:
225,164,28588,1,2,0:0:0:0:
221,191,28679,1,10,0:0:0:0:
106,300,28858,2,0,P|74:246|90:189,1,110,2|0,0:0|1:2,0:0:0:0:
180,352,29218,5,2,0:0:0:0:
207,349,29307,1,2,0:0:0:0:
234,347,29397,1,10,0:0:0:0:
262,344,29487,1,2,0:0:0:0:
289,342,29577,2,0,L|376:330,1,55,2|2,0:0|0:0,0:0:0:0:
493,233,29757,2,0,P|510:279|502:308,3,55,2|2|2|2,1:2|0:0|0:0|0:0,0:0:0:0:
455,383,30116,2,0,P|420:325|434:274,1,110,10|2,0:0|0:0,0:0:0:0:
453,156,30475,5,2,1:2:0:0:
273,208,30655,1,2,1:2:0:0:
332,22,30834,2,0,P|354:117|376:217,1,165,14|0,0:0|0:0,0:0:0:0:
370,199,31194,1,2,1:2:0:0:
220,137,31373,1,2,1:2:0:0:
141,272,31553,1,10,0:0:0:0:
89,256,31642,1,2,0:0:0:0:
46,240,31733,6,0,P|28:159|16:99,1,110,6|0,1:2|0:0,0:0:0:0:
282,27,32092,2,0,P|270:80|258:134,1,110,2|0,1:2|0:0,0:0:0:0:
114,48,32451,1,2,1:2:0:0:
236,221,32631,2,0,P|289:221|338:179,1,110,10|0,0:0|1:2,0:0:0:0:
109,39,32990,2,0,P|54:39|12:72,1,110,10|0,0:0|1:2,0:0:0:0:
83,239,33349,6,0,L|96:112,2,110,2|2|10,1:2|0:0|0:0,0:0:0:0:
194,345,33888,2,0,P|271:328|292:293,1,110,2|0,0:0|1:2,0:0:0:0:
83,239,34248,2,0,L|19:251,3,36.6666666666667,2|2|2|10,0:0|0:0|0:0|0:0,0:0:0:0:
157,171,34607,1,2,0:0:0:0:
299,328,34787,6,0,P|308:244|315:186,1,110,2|2,1:2|0:0,0:0:0:0:
230,130,35146,1,10,0:0:0:0:
98,274,35325,2,0,P|89:190|82:132,1,110,2|0,0:0|1:2,0:0:0:0:
188,0,35685,1,2,0:0:0:0:
184,27,35774,1,2,0:0:0:0:
181,54,35864,1,10,0:0:0:0:
239,149,36044,1,0,0:0:0:0:
367,51,36224,6,0,P|427:48|474:92,1,110,2|2,1:2|0:0,0:0:0:0:
404,204,36583,1,10,0:0:0:0:
280,12,36763,2,0,P|293:81|300:132,1,110,2|0,0:0|1:2,0:0:0:0:
175,215,37122,2,0,L|187:151,3,36.6666666666667,2|2|2|10,0:0|0:0|0:0|0:0,0:0:0:0:
263,259,37481,1,2,0:0:0:0:
194,93,37661,5,2,1:2:0:0:
166,89,37750,1,2,0:0:0:0:
140,95,37840,1,2,0:0:0:0:
117,110,37930,1,2,0:0:0:0:
101,132,38020,1,10,0:0:0:0:
1,257,38200,2,0,P|70:245|138:237,1,110,2|0,0:0|1:2,0:0:0:0:
231,381,38559,1,2,0:0:0:0:
235,353,38648,1,2,0:0:0:0:
239,326,38738,1,10,0:0:0:0:
301,222,38918,1,0,0:0:0:0:
380,340,39098,5,2,1:2:0:0:
225,181,39278,1,2,0:0:0:0:
436,213,39457,1,10,0:0:0:0:
284,375,39637,2,0,P|274:297|263:227,1,110,2|0,0:0|1:2,0:0:0:0:
403,129,39996,1,2,0:0:0:0:
403,129,40086,1,2,0:0:0:0:
403,129,40176,2,0,P|395:183|388:238,1,110,10|2,0:0|0:0,0:0:0:0:
246,142,40535,5,2,1:2:0:0:
380,314,40715,1,2,0:0:0:0:
380,314,40804,1,2,0:0:0:0:
380,314,40894,2,0,P|454:305|479:273,1,110,14|2,0:0|0:0,0:0:0:0:
368,112,41254,1,2,1:2:0:0:
372,139,41343,1,2,0:0:0:0:
375,166,41433,1,2,0:0:0:0:
379,193,41523,1,2,0:0:0:0:
382,221,41613,1,14,0:0:0:0:
301,341,41793,1,2,0:0:0:0:
189,225,41972,5,2,1:2:0:0:
309,358,42152,1,2,1:2:0:0:
456,181,42331,2,0,P|417:113|305:126,1,165,14|0,0:0|0:0,0:0:0:0:
321,111,42691,1,2,1:2:0:0:
222,3,42870,1,2,1:2:0:0:
146,158,43050,1,10,0:0:0:0:
92,149,43139,1,2,0:0:0:0:
39,132,43230,6,0,P|72:85|135:84,1,110,6|0,1:2|0:0,0:0:0:0:
275,291,43589,2,0,P|219:277|194:224,1,110,2|0,1:2|0:0,0:0:0:0:
252,59,43948,1,2,1:2:0:0:
366,307,44128,2,0,P|358:247|350:178,1,110,10|0,0:0|1:2,0:0:0:0:
234,40,44487,2,0,P|227:94|220:149,1,110,10|0,0:0|1:2,0:0:0:0:
33,342,44846,6,0,P|82:296|161:317,1,110,6|2,1:2|0:0,0:0:0:0:
174,352,45378,1,2,0:0:0:0:
174,352,45556,2,0,P|236:337|299:326,1,110,10|2,0:0|0:0,0:0:0:0:
418,336,46073,1,2,0:0:0:0:
418,336,46245,6,0,P|355:301|358:245,1,110,2|2,1:2|0:0,0:0:0:0:
440,181,46736,1,2,0:0:0:0:
440,181,46900,2,0,P|428:239|425:259,1,55,10|0,0:0|0:0,0:0:0:0:
329,268,47222,2,0,P|323:240|317:214,1,55,2|0,0:0|0:0,0:0:0:0:
246,135,47545,6,0,P|187:136|142:194,1,110,2|2,1:2|0:0,0:0:0:0:
70,246,48011,1,2,0:0:0:0:
70,246,48166,2,0,P|53:177|34:119,1,110,10|2,0:0|0:0,0:0:0:0:
41,139,48620,1,2,0:0:0:0:
105,47,48772,5,2,1:2:0:0:
105,47,49067,2,0,L|179:57,1,55,2|2,0:0|0:0,0:0:0:0:
242,4,49363,1,10,0:0:0:0:
316,49,49650,1,2,0:0:0:0:
412,3,49937,6,0,P|474:12|511:76,1,110,2|2,1:2|0:0,0:0:0:0:
452,182,50351,1,2,0:0:0:0:
452,182,50489,2,0,P|444:117|436:67,1,110,10|2,0:0|0:0,0:0:0:0:
357,172,50898,1,2,0:0:0:0:
357,172,51034,6,0,P|287:158|217:153,1,110,2|2,1:2|0:0,0:0:0:0:
166,207,51432,1,2,0:0:0:0:
166,207,51564,2,0,P|123:164|132:112,1,110,10|2,0:0|0:0,0:0:0:0:
302,167,52081,5,2,1:2:0:0:
316,190,52207,1,2,0:0:0:0:
318,217,52333,1,2,0:0:0:0:
308,242,52459,1,2,0:0:0:0:
288,261,52585,1,10,0:0:0:0:
211,335,52830,1,2,0:0:0:0:
85,277,53076,6,0,P|149:265|221:251,1,110,0|2,1:2|0:0,0:0:0:0:
193,256,53436,1,2,0:0:0:0:
292,151,53556,2,0,P|249:99|152:118,1,165,10|0,0:0|0:0,0:0:0:0:
147,122,54030,6,0,P|72:108|29:100,1,110,2|2,1:2|0:0,0:0:0:0:
5,205,54376,1,2,0:0:0:0:
5,205,54491,2,0,P|74:213|103:259,1,110,10|2,0:0|0:0,0:0:0:0:
171,319,54831,1,2,0:0:0:0:
171,319,54945,6,0,P|252:302|323:288,1,110,2|2,1:2|0:0,0:0:0:0:
404,253,55275,1,2,0:0:0:0:
404,253,55386,2,0,P|395:301|391:326,1,55,10|0,0:0|0:0,0:0:0:0:
333,173,55603,2,0,P|328:145|322:118,1,55,2|0,0:0|0:0,0:0:0:0:
488,98,55819,6,0,P|516:158|503:207,1,110,2|2,1:2|0:0,0:0:0:0:
377,160,56139,1,2,0:0:0:0:
377,160,56246,2,0,P|304:171|257:183,1,110,10|2,0:0|0:0,0:0:0:0:
208,252,56556,1,2,0:0:0:0:
208,252,56659,5,2,1:2:0:0:
0,215,56863,2,0,P|12:198|66:185,1,55,2|2,0:0|0:0,0:0:0:0:
125,241,57068,1,10,0:0:0:0:
195,116,57269,1,2,0:0:0:0:
287,255,57470,6,0,P|274:182|265:121,1,110,2|2,1:2|0:0,0:0:0:0:
307,59,57765,1,2,0:0:0:0:
307,59,57863,2,0,P|373:69|399:138,1,110,10|2,0:0|0:0,0:0:0:0:
384,209,58155,1,2,0:0:0:0:
384,209,58252,6,0,P|449:185|529:176,1,110,2|2,1:2|0:0,0:0:0:0:
349,322,58537,1,2,0:0:0:0:
349,322,58632,2,0,P|276:292|274:244,1,110,10|2,0:0|0:0,0:0:0:0:
125,170,59009,5,2,1:2:0:0:
138,146,59100,1,2,0:0:0:0:
160,129,59191,1,2,0:0:0:0:
186,122,59283,1,2,0:0:0:0:
213,126,59374,1,10,0:0:0:0:
313,175,59555,1,2,0:0:0:0:
260,66,59736,5,0,1:2:0:0:
192,206,59914,1,2,0:0:0:0:
192,206,60003,1,2,0:0:0:0:
192,206,60092,2,0,P|205:263|212:320,1,110,10|0,0:0|0:0,0:0:0:0:
337,370,60444,6,0,P|410:355|462:351,1,110,2|2,1:2|0:0,0:0:0:0:
461,356,60702,1,2,0:0:0:0:
461,356,60788,2,0,P|486:288|462:249,1,110,10|2,0:0|0:0,0:0:0:0:
289,135,61133,5,2,1:2:0:0:
391,280,61299,1,2,0:0:0:0:
395,252,61382,1,2,0:0:0:0:
400,225,61465,1,10,0:0:0:0:
481,121,61633,1,2,0:0:0:0:
285,216,61799,6,0,P|217:197|160:189,1,110,2|2,1:2|0:0,0:0:0:0:
163,182,62042,1,2,0:0:0:0:
163,182,62123,2,0,P|138:113|157:63,1,110,10|2,0:0|0:0,0:0:0:0:
158,67,62366,1,2,0:0:0:0:
158,67,62447,5,2,1:2:0:0:
281,123,62606,1,2,0:0:0:0:
308,118,62686,1,2,0:0:0:0:
335,113,62765,1,10,0:0:0:0:
425,33,62925,1,2,0:0:0:0:
493,135,63085,6,0,P|497:191|451:233,1,110,2|2,1:2|1:2,0:0:0:0:
446,229,63319,1,2,0:0:0:0:
446,229,63397,2,0,P|343:211|315:209,1,110,10|2,0:0|1:2,0:0:0:0:
321,213,63631,1,2,0:0:0:0:
321,213,63708,6,0,P|314:264|328:286,3,55,2|0|2|2,1:2|0:0|1:2|0:0,0:0:0:0:
396,358,64015,2,0,P|403:307|389:285,3,55,10|0|2|0,0:0|0:0|1:2|0:0,0:0:0:0:
310,374,64323,5,2,1:2:0:0:
208,290,64474,1,2,1:2:0:0:
208,290,64550,1,2,0:0:0:0:
208,290,64626,2,0,P|150:278|87:262,1,110,10|2,0:0|1:2,0:0:0:0:
0,155,64930,5,8,1:2:0:0:
6,142,65005,1,8,1:2:0:0:
14,132,65080,1,8,1:2:0:0:
25,122,65155,1,8,1:2:0:0:
36,115,65230,1,8,1:2:0:0:
49,110,65305,1,8,1:2:0:0:
62,107,65380,6,0,L|127:120,2,55,8|8|2,1:2|1:2|0:0,0:0:0:0:
209,200,65697,1,2,0:0:0:0:
209,200,65780,1,2,0:0:0:0:
209,200,65864,2,0,P|260:188|334:178,1,110,2|2,0:0|0:0,0:0:0:0:
329,190,66114,1,2,0:0:0:0:
329,190,66198,2,0,P|361:144|350:91,1,110,2|2,0:0|0:0,0:0:0:0:
340,81,66449,1,2,0:0:0:0:
340,81,66532,1,2,0:0:0:0:
247,12,66699,1,2,0:0:0:0:
210,169,66867,5,10,1:2:0:0:
325,7,67034,1,10,1:2:0:0:
126,54,67201,1,10,1:2:0:0:
350,180,67368,1,6,1:2:0:0:
