osu file format v14

[General]
AudioFilename: audio.mp3
AudioLeadIn: 0
PreviewTime: 44757
Countdown: 0
SampleSet: Soft
StackLeniency: 0.7
Mode: 0
LetterboxInBreaks: 0
WidescreenStoryboard: 0

[Editor]
DistanceSpacing: 1.2
BeatDivisor: 4
GridSize: 32
TimelineZoom: 1.2

[Metadata]
Title:Thanks for Your Patronage!
TitleUnicode:多谢惠顾!
Artist:HOYO-MiX
ArtistUnicode:HOYO-MiX
Creator:Dustinati
Version:Hard
Source:Genshin Impact
Tags:instrumental video game hoyo mix hoyoverse 原神 mihoyo yu-peng chen yu peng dori 多莉 generous purchase 毎度ありですわ! the stellar moments sumeru OST original sound track soundtrack videogame 陈致逸 volume vol. 3 vol.3 闪耀的群星3 ドリー
BeatmapID:3970287
BeatmapSetID:1922929

[Difficulty]
HPDrainRate:5
CircleSize:3.5
OverallDifficulty:6
ApproachRate:8
SliderMultiplier:1.6
SliderTickRate:1

[Events]
//Background and Video events
0,0,"doribg.png",0,0
//Break Periods
//Storyboard Layer 0 (Background)
//Storyboard Layer 1 (Fail)
//Storyboard Layer 2 (Pass)
//Storyboard Layer 3 (Foreground)
//Storyboard Layer 4 (Overlay)
//Storyboard Sound Samples

[TimingPoints]
296,359.281437125748,4,2,1,40,1,0
296,-111.111111111111,4,2,1,40,0,0
1733,-111.111111111111,4,2,1,50,0,0
16104,-100,4,2,1,70,0,0
21852,-100,4,2,1,60,0,0
30834,-100,4,2,1,70,0,0
31194,-100,4,2,1,60,0,0
31733,-100,4,2,1,70,0,0
32092,-100,4,2,1,60,0,0
40894,-100,4,2,1,70,0,0
41074,-100,4,2,1,60,0,0
41613,-100,4,2,1,70,0,0
41793,-100,4,2,1,60,0,0
42331,-100,4,2,1,70,0,0
42691,-100,4,2,1,60,0,0
43230,-100,4,2,1,70,0,0
43409,-100,4,2,1,60,0,0
44846,710.059171597633,4,2,1,60,1,0
45556,689.655172413793,4,2,1,60,1,0
46245,655.737704918033,4,2,1,61,1,0
46900,645.161290322581,4,2,1,61,1,0
47545,621.761658031088,4,2,1,62,1,0
48166,606.060606060606,4,2,1,62,1,0
48772,591.133004926108,4,2,1,63,1,0
49363,574.162679425837,4,2,1,63,1,0
49937,552.995391705069,4,2,1,64,1,0
50489,545.454545454546,4,2,1,64,1,0
51034,530.973451327434,4,2,1,65,1,0
51564,517.241379310345,4,2,1,65,1,0
52081,504.201680672269,4,2,1,66,1,0
52585,491.803278688525,4,2,1,66,1,0
53076,480,4,2,1,67,1,0
53556,474.308300395257,4,2,1,67,1,0
54030,461.538461538462,4,2,1,68,1,0
54491,454.545454545454,4,2,1,68,1,0
54945,441.176470588235,4,2,1,69,1,0
55386,434.782608695652,4,2,1,69,1,0
55819,427.046263345196,4,2,1,70,1,0
56246,413.793103448276,4,2,1,70,1,0
56659,409.556313993174,4,2,1,71,1,0
57068,402.684563758389,4,2,1,71,1,0
57470,393.44262295082,4,2,1,72,1,0
57863,389.61038961039,4,2,1,72,1,0
58252,380.952380952381,4,2,1,73,1,0
58632,377.358490566038,4,2,1,73,1,0
59009,365.853658536585,4,2,1,74,1,0
59374,362.537764350453,4,2,1,74,1,0
59736,356.083086053412,4,2,1,75,1,0
60092,352.941176470588,4,2,1,76,1,0
60444,344.827586206897,4,2,1,77,1,0
61133,333.333333333333,4,2,1,78,1,0
61799,324.324324324324,4,2,1,79,1,0
62447,319.148936170213,4,2,1,80,1,0
63085,312.5,4,2,1,81,1,0
63708,307.692307692308,4,2,1,82,1,0
64323,303.79746835443,4,2,1,83,1,0
64930,300,4,2,1,84,1,0
65530,334.261838440111,4,2,1,60,1,0
66867,-100,4,2,1,70,0,0

[Colours]
Combo1 : 214,139,216
Combo2 : 255,94,255
Combo3 : 150,65,207
Combo4 : 250,173,242

[HitObjects]
130,156,1014,6,0,P|204:169|226:172,1,71.9999978027344,8|8,0:1|0:1,0:0:0:0:
246,191,1284,1,8,0:1:0:0:
246,191,1373,2,0,P|259:117|262:95,1,71.9999978027344,8|8,0:1|0:1,0:0:0:0:
278,35,1733,6,0,P|349:34|397:105,1,143.999995605469,2|2,0:0|3:2,0:0:0:0:
370,169,2272,2,0,L|384:225,2,35.9999989013672,2|2|2,0:0|0:0|0:0,0:0:0:0:
309,107,2631,1,2,3:2:0:0:
250,169,2810,2,0,P|190:178|156:160,1,71.9999978027344,2|0,1:2|0:0,0:0:0:0:
115,117,3170,6,0,L|128:32,2,71.9999978027344,2|0|2,0:0|0:0|3:2,0:0:0:0:
43,166,3709,1,2,0:0:0:0:
43,166,3798,1,2,0:0:0:0:
43,166,3888,2,0,L|66:319,1,143.999995605469,2|2,0:0|1:2,0:0:0:0:
226,369,4607,6,0,P|297:357|390:339,1,143.999995605469,2|2,0:0|3:2,0:0:0:0:
415,271,5146,2,0,L|477:289,2,35.9999989013672,2|2|2,0:0|0:0|0:0,0:0:0:0:
346,217,5505,1,2,3:2:0:0:
266,252,5685,2,0,P|251:182|245:152,1,71.9999978027344,2|0,1:2|0:0,0:0:0:0:
218,101,6044,6,0,P|174:80|97:139,1,143.999995605469,2|2,0:0|3:2,0:0:0:0:
70,208,6583,1,2,0:0:0:0:
1,49,6942,1,2,3:2:0:0:
79,12,7122,2,0,L|158:0,1,71.9999978027344,2|2,1:2|0:0,0:0:0:0:
236,0,7481,6,0,P|298:6|340:77,1,143.999995605469,2|2,0:0|3:2,0:0:0:0:
311,151,8020,2,0,L|320:200,2,35.9999989013672,2|2|2,0:0|0:0|0:0,0:0:0:0:
243,96,8379,1,2,3:2:0:0:
188,162,8559,2,0,P|200:226|207:264,1,71.9999978027344,2|0,1:2|0:0,0:0:0:0:
268,287,8918,6,0,P|320:283|357:248,2,71.9999978027344,2|0|2,0:0|0:0|3:2,0:0:0:0:
201,232,9457,1,2,0:0:0:0:
201,232,9547,1,2,0:0:0:0:
201,232,9637,2,0,P|153:228|111:311,1,143.999995605469,2|2,0:0|1:2,0:0:0:0:
262,380,10355,6,0,P|282:284|301:220,1,143.999995605469,2|2,0:0|3:2,0:0:0:0:
240,171,10894,2,0,L|199:182,2,35.9999989013672,2|2|2,0:0|0:0|0:0,0:0:0:0:
288,98,11254,1,2,3:2:0:0:
358,148,11433,2,0,P|418:167|457:153,1,71.9999978027344,2|0,1:2|0:0,0:0:0:0:
471,92,11793,6,0,L|464:51,4,35.9999989013672,2|2|2|2|2,0:0|0:0|0:0|0:0|3:2,0:0:0:0:
512,167,12331,1,2,0:0:0:0:
437,323,12691,1,2,3:2:0:0:
370,267,12871,2,0,P|332:273|296:279,1,71.9999978027344,2|2,1:2|0:0,0:0:0:0:
213,278,13230,6,0,P|147:274|98:215,1,143.999995605469,2|2,0:0|3:2,0:0:0:0:
61,139,13769,2,0,L|25:143,2,35.9999989013672,2|2|2,0:0|0:0|0:0,0:0:0:0:
124,80,14128,1,2,3:2:0:0:
199,121,14307,2,0,P|211:174|216:200,1,71.9999978027344,2|0,1:2|0:0,0:0:0:0:
214,278,14667,6,0,P|261:280|324:193,1,143.999995605469,2|2,0:0|3:2,0:0:0:0:
348,130,15206,2,0,P|338:82|325:27,1,71.9999978027344,2|2,0:0|0:0,0:0:0:0:
259,13,15565,1,2,3:2:0:0:
186,60,15745,1,2,1:2:0:0:
176,70,16104,6,0,P|270:81|330:19,1,160,6|0,1:2|1:2,0:0:0:0:
405,4,16643,1,2,0:0:0:0:
427,97,16822,2,0,P|418:159|399:288,1,160,2|0,1:2|1:2,0:0:0:0:
330,317,17361,6,0,P|271:305|235:297,1,80,2|0,0:0|1:2,0:0:0:0:
186,229,17721,2,0,P|134:232|101:262,1,80,2|0,0:0|1:2,0:0:0:0:
57,326,18080,1,2,0:0:0:0:
18,237,18260,2,0,L|40:128,1,80,2|0,1:2|0:0,0:0:0:0:
0,69,18619,1,2,1:2:0:0:
179,9,18978,6,0,P|242:9|273:31,2,80,2|2|10,1:2|0:0|0:0,0:0:0:0:
98,60,19517,1,2,1:2:0:0:
177,114,19697,2,0,P|166:191|155:279,1,160,2|10,1:2|0:0,0:0:0:0:
218,345,20236,1,2,1:2:0:0:
305,304,20415,6,0,L|363:314,3,40,2|2|2|2,0:0|0:0|1:2|0:0,0:0:0:0:
388,290,20775,2,0,L|446:280,3,40,10|2|2|2,0:0|0:0|1:2|0:0,0:0:0:0:
467,255,21134,2,0,P|472:217|449:170,1,80,2|2,1:2|0:0,0:0:0:0:
391,106,21493,1,10,0:0:0:0:
319,179,21673,1,2,1:2:0:0:
233,118,21852,6,0,P|232:33|314:4,1,160,6|10,1:2|0:0,0:0:0:0:
385,17,22391,2,0,P|460:30|496:34,1,80,2|0,0:0|1:2,0:0:0:0:
491,123,22751,2,0,L|484:162,2,40,2|2|10,0:0|0:0|0:0,0:0:0:0:
394,128,23110,6,0,P|318:106|249:142,1,160,2|2,0:0|0:0,0:0:0:0:
213,174,23559,1,2,0:0:0:0:
213,174,23649,2,0,P|205:116|201:82,1,80,10|0,0:0|0:0,0:0:0:0:
144,18,24008,1,0,1:2:0:0:
80,90,24188,1,2,0:0:0:0:
80,90,24278,1,2,0:0:0:0:
80,90,24367,2,0,P|87:140|91:177,1,80,10|2,0:0|0:0,0:0:0:0:
167,264,24727,6,0,P|245:288|316:238,1,160,2|10,1:2|0:0,0:0:0:0:
353,165,25266,2,0,P|360:125|366:86,1,80,2|0,0:0|1:2,0:0:0:0:
438,22,25625,2,0,L|477:15,2,40,2|2|10,0:0|0:0|0:0,0:0:0:0:
343,3,25984,6,0,P|266:16|236:98,1,160,2|2,0:0|0:0,0:0:0:0:
227,133,26433,1,2,0:0:0:0:
227,133,26523,2,0,P|292:120|335:112,1,80,10|0,0:0|0:0,0:0:0:0:
390,162,26882,1,0,1:2:0:0:
321,229,27062,1,2,0:0:0:0:
321,229,27152,1,2,0:0:0:0:
321,229,27242,2,0,P|330:284|338:328,1,80,10|2,0:0|0:0,0:0:0:0:
454,324,27601,6,0,P|438:233|423:143,1,160,2|10,1:2|0:0,0:0:0:0:
357,99,28140,2,0,P|295:94|271:113,1,80,2|0,0:0|1:2,0:0:0:0:
215,171,28499,2,0,P|218:190|221:210,2,40,2|2|10,0:0|0:0|0:0,0:0:0:0:
139,112,28858,6,0,P|132:72|125:33,1,80,2|0,0:0|1:2,0:0:0:0:
45,87,29218,1,2,0:0:0:0:
45,87,29307,1,2,0:0:0:0:
45,87,29397,2,0,L|36:141,3,40,10|2|2|2,0:0|0:0|0:0|0:0,0:0:0:0:
16,160,29757,2,0,L|22:199,3,40,2|2|2|2,1:2|0:0|0:0|0:0,0:0:0:0:
53,224,30116,2,0,P|106:238|144:223,1,80,10|2,0:0|0:0,0:0:0:0:
216,191,30475,5,2,1:2:0:0:
216,191,30655,1,2,1:2:0:0:
306,270,30834,2,0,P|319:206|324:174,1,80,14|2,0:0|0:0,0:0:0:0:
340,96,31194,1,2,1:2:0:0:
340,96,31373,1,2,1:2:0:0:
236,35,31553,1,10,0:0:0:0:
236,35,31643,1,2,0:0:0:0:
236,35,31733,6,0,L|65:67,2,160,6|2|2,1:2|1:2|1:2,0:0:0:0:
332,31,32631,2,0,P|357:75|352:118,1,80,10|0,0:0|1:2,0:0:0:0:
304,183,32990,2,0,P|306:222|328:255,1,80,10|0,0:0|1:2,0:0:0:0:
409,306,33349,6,0,P|458:297|509:290,2,80,2|2|10,1:2|0:0|0:0,0:0:0:0:
319,341,33888,2,0,P|250:324|160:310,1,160,2|2,0:0|0:0,0:0:0:0:
115,321,34337,1,2,0:0:0:0:
115,321,34427,2,0,P|97:275|115:231,1,80,10|2,0:0|0:0,0:0:0:0:
148,160,34787,5,2,1:2:0:0:
230,111,34967,1,2,0:0:0:0:
287,187,35146,1,10,0:0:0:0:
356,121,35325,2,0,P|417:114|471:106,1,80,2|0,0:0|1:2,0:0:0:0:
490,190,35685,1,2,0:0:0:0:
490,190,35775,1,2,0:0:0:0:
490,190,35864,2,0,P|498:235|476:273,1,80,10|0,0:0|0:0,0:0:0:0:
369,301,36224,6,0,P|308:310|252:317,2,80,2|2|10,1:2|0:0|0:0,0:0:0:0:
413,215,36763,2,0,P|365:189|263:252,1,160,2|2,0:0|0:0,0:0:0:0:
237,258,37212,1,2,0:0:0:0:
237,258,37301,2,0,P|226:199|221:161,1,80,10|2,0:0|0:0,0:0:0:0:
142,125,37661,6,0,L|92:133,4,40,2|2|2|2|10,1:2|0:0|0:0|0:0|0:0,0:0:0:0:
210,58,38200,2,0,P|270:40|346:102,1,160,2|2,0:0|0:0,0:0:0:0:
359,139,38649,1,2,0:0:0:0:
359,139,38739,2,0,P|411:155|461:132,1,80,10|0,0:0|0:0,0:0:0:0:
505,51,39098,6,0,P|509:103|515:156,1,80,2|2,1:2|0:0,0:0:0:0:
493,225,39457,1,10,0:0:0:0:
434,149,39637,2,0,P|362:150|330:243,1,160,2|2,0:0|0:0,0:0:0:0:
313,267,40086,1,2,0:0:0:0:
313,267,40176,2,0,P|270:279|231:263,1,80,10|2,0:0|0:0,0:0:0:0:
152,224,40535,5,2,1:2:0:0:
228,131,40715,1,2,0:0:0:0:
228,131,40804,1,2,0:0:0:0:
228,131,40894,2,0,P|215:56|208:24,1,80,14|2,0:0|0:0,0:0:0:0:
120,28,41254,2,0,L|58:45,3,40,2|2|2|2,1:2|0:0|0:0|0:0,0:0:0:0:
34,27,41613,2,0,P|23:65|33:103,1,80,14|2,0:0|0:0,0:0:0:0:
68,194,41972,5,2,1:2:0:0:
68,194,42152,1,2,1:2:0:0:
163,267,42331,2,0,P|212:273|262:277,1,80,14|2,0:0|0:0,0:0:0:0:
315,212,42691,1,2,1:2:0:0:
315,212,42870,1,2,1:2:0:0:
411,140,43050,1,10,0:0:0:0:
411,140,43140,1,2,0:0:0:0:
411,140,43230,6,0,P|437:181|429:223,1,80,6|0,1:2|0:0,0:0:0:0:
360,272,43589,2,0,P|309:260|271:255,1,80,2|0,1:2|0:0,0:0:0:0:
198,304,43948,1,2,1:2:0:0:
130,234,44128,2,0,P|163:164|247:175,1,160,10|10,0:0|0:0,0:0:0:0:
454,222,44846,6,0,P|474:175|450:122,1,80,6|2,1:2|0:0,0:0:0:0:
420,84,45378,1,2,0:0:0:0:
343,118,45556,2,0,P|257:96|235:91,1,80,10|2,0:0|0:0,0:0:0:0:
202,48,46073,1,2,0:0:0:0:
142,106,46245,2,0,P|159:195|163:219,1,80,2|2,1:2|0:0,0:0:0:0:
165,264,46736,1,2,0:0:0:0:
236,224,46900,2,0,P|260:221|298:236,1,40,10|0,0:0|0:0,0:0:0:0:
331,280,47222,2,0,P|350:282|370:279,1,40,2|0,0:0|0:0,0:0:0:0:
430,221,47545,6,0,P|417:138|413:114,1,80,2|2,1:2|0:0,0:0:0:0:
353,93,48011,1,2,0:0:0:0:
385,17,48166,2,0,P|459:25|483:49,1,80,10|2,0:0|0:0,0:0:0:0:
499,96,48620,1,2,0:0:0:0:
493,178,48772,2,0,P|481:246|475:285,1,80,2|2,1:2|0:0,0:0:0:0:
440,326,49215,1,2,0:0:0:0:
364,358,49363,2,0,P|309:368|259:343,1,80,10|2,0:0|0:0,0:0:0:0:
269,196,49937,6,0,P|191:208|173:210,1,80,2|2,1:2|0:0,0:0:0:0:
118,243,50351,1,2,0:0:0:0:
46,281,50489,2,0,P|18:231|31:187,1,80,10|2,0:0|0:0,0:0:0:0:
60,141,50898,1,2,0:0:0:0:
124,90,51034,2,0,P|209:104|237:108,1,80,2|2,1:2|0:0,0:0:0:0:
274,68,51432,1,2,0:0:0:0:
316,137,51564,2,0,P|355:140|393:127,1,80,10|2,0:0|0:0,0:0:0:0:
504,7,52081,5,2,1:2:0:0:
499,26,52207,1,2,0:0:0:0:
495,46,52333,1,2,0:0:0:0:
491,65,52459,1,2,0:0:0:0:
487,85,52585,1,10,0:0:0:0:
508,202,52830,1,2,0:0:0:0:
415,282,53076,2,0,P|352:279|323:248,1,80,0|2,1:2|0:0,0:0:0:0:
294,230,53436,1,2,0:0:0:0:
294,230,53556,2,0,P|224:246|181:255,1,80,10|0,0:0|0:0,0:0:0:0:
134,144,54030,6,0,P|176:112|236:112,1,80,2|2,1:2|0:0,0:0:0:0:
261,118,54376,1,2,0:0:0:0:
261,118,54491,2,0,P|275:40|280:7,2,80,10|2|2,0:0|0:0|1:2,0:0:0:0:
296,232,55165,1,2,0:0:0:0:
296,232,55275,1,2,0:0:0:0:
296,232,55386,2,0,P|347:259|398:246,1,80,10|2,0:0|0:0,0:0:0:0:
450,169,55819,6,0,P|440:112|434:54,1,80,2|2,1:2|0:0,0:0:0:0:
393,48,56139,1,2,0:0:0:0:
393,48,56246,2,0,P|347:39|307:33,2,80,10|2|2,0:0|0:0|1:2,0:0:0:0:
355,161,56863,1,2,0:0:0:0:
355,161,56966,1,2,0:0:0:0:
355,161,57068,2,0,P|306:191|266:187,1,80,10|2,0:0|0:0,0:0:0:0:
167,156,57470,6,0,P|120:161|78:168,1,80,2|2,1:2|0:0,0:0:0:0:
36,199,57765,1,2,0:0:0:0:
36,199,57863,2,0,P|20:146|10:115,1,80,10|2,0:0|0:0,0:0:0:0:
50,75,58155,1,2,0:0:0:0:
50,75,58252,2,0,P|66:22|78:-16,2,80,2|2|10,1:2|0:0|0:0,0:0:0:0:
145,146,58820,1,2,0:0:0:0:
206,38,59009,6,0,L|195:-9,4,40,2|2|2|2|10,1:2|0:0|0:0|0:0|0:0,0:0:0:0:
265,142,59555,1,2,0:0:0:0:
340,46,59736,2,0,P|395:55|441:61,1,79.1999997583008,0|2,1:2|0:0,0:0:0:0:
476,40,60003,1,2,0:0:0:0:
476,40,60092,2,0,P|492:90|478:126,1,80,10|0,0:0|0:0,0:0:0:0:
419,218,60444,6,0,P|439:273|448:315,1,80,2|2,1:2|0:0,0:0:0:0:
368,324,60788,2,0,P|357:285|342:248,1,80,10|2,0:0|0:0,0:0:0:0:
314,218,61047,1,2,0:0:0:0:
314,218,61133,2,0,P|268:201|214:218,1,80,2|2,1:2|0:0,0:0:0:0:
177,257,61466,2,0,P|137:260|101:244,1,80,10|2,0:0|0:0,0:0:0:0:
52,178,61799,6,0,P|61:120|68:84,1,80,2|2,1:2|0:0,0:0:0:0:
58,59,62042,1,2,0:0:0:0:
58,59,62123,2,0,P|112:38|156:52,1,80,10|2,0:0|0:0,0:0:0:0:
178,107,62447,2,0,P|213:107|258:59,1,80,2|2,1:2|0:0,0:0:0:0:
314,38,62766,2,0,P|366:47|417:52,1,80,10|2,0:0|0:0,0:0:0:0:
433,121,63085,6,0,P|468:115|527:104,2,80,2|2|10,1:2|1:2|0:0,0:0:0:0:
352,142,63553,1,2,1:2:0:0:
417,197,63708,2,0,P|431:250|417:284,1,80,2|2,1:2|1:2,0:0:0:0:
374,340,64015,2,0,P|321:354|283:329,1,80,10|2,0:0|1:2,0:0:0:0:
236,288,64323,6,0,L|175:299,4,40,2|2|2|2|10,1:2|0:0|1:2|0:0|0:0,0:0:0:0:
293,225,64778,1,2,1:2:0:0:
234,164,64930,2,0,P|194:155|149:167,1,80,8|8,1:2|1:2,0:0:0:0:
91,217,65230,2,0,P|58:222|10:202,1,80,8|8,1:2|1:2,0:0:0:0:
0,121,65530,6,0,P|7:69|13:24,1,80,2|2,0:0|0:0,0:0:0:0:
40,4,65780,1,2,0:0:0:0:
40,4,65864,2,0,P|77:-7|138:28,1,80,2|2,0:0|0:0,0:0:0:0:
179,75,66198,2,0,P|216:86|254:74,1,80,2|2,0:0|0:0,0:0:0:0:
292,44,66449,1,2,0:0:0:0:
292,44,66532,2,0,P|300:114|303:140,1,80,2|2,0:0|0:0,0:0:0:0:
248,222,66867,6,0,P|215:236|168:224,1,80,10|10,1:2|1:2,0:0:0:0:
82,161,67201,1,10,1:2:0:0:
171,93,67368,1,6,1:2:0:0:
