osu file format v14

[General]
AudioFilename: audio.mp3
AudioLeadIn: 0
PreviewTime: 44574
Countdown: 0
SampleSet: Normal
StackLeniency: 0.7
Mode: 1
LetterboxInBreaks: 0
WidescreenStoryboard: 0

[Editor]
Bookmarks: 1466,4340,7214,10088,12963,15837,18711,21585,24460,27334,30208,33082,35957,38831,41705,44574,47273,49665,51809,53758,55547,57198,58737,60172,61527,62813,64051,65258,66595,67096
DistanceSpacing: 1.4
BeatDivisor: 4
GridSize: 32
TimelineZoom: 2.2

[Metadata]
Title:Thanks for Your Patronage!
TitleUnicode:多谢惠顾!
Artist:HOYO-MiX
ArtistUnicode:HOYO-MiX
Creator:Annabel
Version:Merchant
Source:Genshin Impact
Tags:Ayyri eiri- Electronic Instrumental Video Game hoyoverse 原神 mihoyo Dori 多莉 Generous Purchase 毎度ありですわ! The Stellar Moments Sumeru OST Original Sound Track Soundtrack ドリー Volume Vol. 3 Vol.3 闪耀的群星3
BeatmapID:3963646
BeatmapSetID:1920451

[Difficulty]
HPDrainRate:6
CircleSize:2
OverallDifficulty:6
ApproachRate:10
SliderMultiplier:1.4
SliderTickRate:1

[Events]
//Background and Video events
0,0,"Dori 273.jpg",0,0
//Break Periods
//Storyboard Layer 0 (Background)
//Storyboard Layer 1 (Fail)
//Storyboard Layer 2 (Pass)
//Storyboard Layer 3 (Foreground)
//Storyboard Layer 4 (Overlay)
//Storyboard Sound Samples

[TimingPoints]
1466,359.281437125748,4,1,0,75,1,0
15834,-72.7272727272727,4,1,0,75,0,0
16193,-76.1879514878388,4,1,0,75,0,0
16373,-78.0501052345713,4,1,0,75,0,0
16552,-79.9944332335954,4,1,0,75,0,0
16912,-84.213610724489,4,1,0,75,0,0
17091,-86.4816068607538,4,1,0,75,0,0
17271,-88.8888888888889,4,1,0,75,0,0
17451,-91.434025292293,4,1,0,75,0,0
17810,-96.9717418810629,4,1,0,75,0,0
17989,-99.9913020788032,4,1,0,75,0,0
18349,-106.671615477406,4,1,0,75,0,0
18528,-110.336884537864,4,1,0,75,0,0
18618,-112.276589510694,4,1,0,75,0,0
18708,-114.285714285714,4,1,0,75,0,0
18888,-111.111111111111,4,1,0,75,0,0
19067,-106.671615477406,4,1,0,75,0,0
19247,-103.223489270001,4,1,0,75,0,0
19427,-99.9913020788032,4,1,0,75,0,0
19606,-96.1538461538461,4,1,0,75,0,0
19786,-94.1137945149407,4,1,0,75,0,0
19965,-91.434025292293,4,1,0,75,0,0
20145,-89.2857142857143,4,1,0,75,0,0
20238,-87.719298245614,4,1,0,75,0,0
20325,-86.2068965517241,4,1,0,75,0,0
20418,-84.7457627118644,4,1,0,75,0,0
20504,-83.3333333333333,4,1,0,75,0,0
20597,-81.3008130081301,4,1,0,75,0,0
20684,-80,4,1,0,75,0,0
20777,-78.7401574803149,4,1,0,75,0,0
20864,-76.9230769230769,4,1,0,75,0,0
21043,-75.187969924812,4,1,0,75,0,0
21223,-74.0740740740741,4,1,0,75,0,0
21582,-93.0232558139535,4,1,0,75,0,0
30385,-86.0034736779062,4,1,0,75,0,0
30564,-80,4,1,0,75,0,0
30924,-93.0232558139535,4,1,0,75,0,0
31103,-86.0395446375075,4,1,0,75,0,0
31283,-80,4,1,0,75,0,0
31462,-66.6666666666667,4,1,0,75,0,0
31642,-68.8378033205619,4,1,0,75,0,0
31822,-71.1551155115512,4,1,0,75,0,0
32181,-76.2762833590811,4,1,0,75,0,0
32361,-79.1318497131042,4,1,0,75,0,0
32720,-85.517095486157,4,1,0,75,0,0
33079,-93.0232558139535,4,1,0,75,0,0
41882,-86.0034736779062,4,1,0,75,0,0
42061,-80,4,1,0,75,0,0
42421,-93.0232558139535,4,1,0,75,0,0
42600,-86.0395446375075,4,1,0,75,0,0
42780,-80,4,1,0,75,0,0
42960,-66.6666666666667,4,1,0,75,0,0
43140,-68.8378033205619,4,1,0,75,0,0
43320,-71.1551155115512,4,1,0,75,0,0
43679,-76.2762833590811,4,1,0,75,0,0
43859,-79.1318497131042,4,1,0,75,0,0
44218,-85.517095486157,4,1,0,75,0,0
44574,710.059171597633,4,1,0,75,1,0
44574,-47.0686533908926,4,1,0,75,0,0
44926,-97.64613886529,4,1,0,75,0,0
45103,-96.5134423680729,4,1,0,75,0,0
45284,689.655172413793,4,1,0,75,1,8
45284,-98.2230438309083,4,1,0,75,0,8
45625,-96.0818882422789,4,1,0,75,0,8
45798,-95.0399815149999,4,1,0,75,0,8
45973,655.737704918033,4,1,0,75,1,8
45973,-98.889686866267,4,1,0,75,0,8
46297,-96.9242272428741,4,1,0,75,0,8
46461,-95.9676193897089,4,1,0,75,0,8
46628,645.161290322581,4,1,0,75,1,8
46628,-96.58757384864,4,1,0,75,0,8
46947,-94.769067149793,4,1,0,75,0,8
47273,621.761658031088,4,1,0,75,1,0
47273,-96.5129009833255,4,1,0,75,0,0
47580,-94.82595531273,4,1,0,75,0,0
47736,-93.9991513237018,4,1,0,75,0,0
47894,606.060606060606,4,1,0,75,1,8
47894,-95.6060999219163,4,1,0,75,0,8
48194,-94.0273928672292,4,1,0,75,0,8
48345,-93.2599510683813,4,1,0,75,0,8
48500,591.133004926108,4,1,0,75,1,8
48500,-94.8358340321356,4,1,0,75,0,8
48792,-93.3593110911171,4,1,0,75,0,8
48940,-92.6357320671686,4,1,0,75,0,8
49091,574.162679425837,4,1,0,75,1,8
49091,-94.6402272672023,4,1,0,75,0,8
49375,-93.2494998675429,4,1,0,75,0,8
49665,552.995391705069,4,1,0,75,1,0
49665,-95.4167208297056,4,1,0,75,0,0
49938,-94.1061039893021,4,1,0,75,0,0
50076,-93.46420516799,4,1,0,75,0,0
50217,545.454545454546,4,1,0,75,1,8
50217,-94.1143817526405,4,1,0,75,0,8
50486,-92.8742110454858,4,1,0,75,0,8
50623,-92.2618615678852,4,1,0,75,0,8
50762,530.973451327434,4,1,0,75,1,8
50762,-94.1617869480269,4,1,0,75,0,8
51024,-92.9836311008093,4,1,0,75,0,8
51157,-92.4033724281791,4,1,0,75,0,8
51292,517.241379310345,4,1,0,75,1,8
51292,-94.2726797349662,4,1,0,75,0,8
51547,-93.1519685019719,4,1,0,75,0,8
51809,504.201680672269,4,1,0,75,1,0
51809,-94.434089784712,4,1,0,75,0,0
51932,-93.8953851041484,4,1,0,75,0,0
52058,-93.3627917049152,4,1,0,75,0,0
52184,-92.8362061803269,4,1,0,75,0,0
52313,491.803278688525,4,1,0,75,1,8
52313,-94.6428096480133,4,1,0,75,0,8
52555,-93.6218113066029,4,1,0,75,0,8
52804,480,4,1,0,75,1,8
52804,-94.8960779249179,4,1,0,75,0,8
53041,-93.9142506139199,4,1,0,75,0,8
53161,-93.4309164893348,4,1,0,75,0,8
53284,474.308300395257,4,1,0,75,1,8
53284,-94.0679622782842,4,1,0,75,0,8
53383,-86.0034736779062,4,1,0,75,0,0
53518,-93.1262337750134,4,1,0,75,0,8
53562,-80,4,1,0,75,0,0
53758,461.538461538462,4,1,0,75,1,0
53758,-94.754249906919,4,1,0,75,0,0
53985,-93.8514772150807,4,1,0,75,0,0
54101,-93.4026604044566,4,1,0,75,0,0
54219,454.545454545455,4,1,0,75,1,8
54219,-94.392113565956,4,1,0,75,0,8
54443,-93.5210474543874,4,1,0,75,0,8
54556,-93.0933990251023,4,1,0,75,0,8
54673,441.176470588235,4,1,0,75,1,8
54673,-95.4739689366399,4,1,0,75,0,8
54890,-94.6353278041619,4,1,0,75,0,8
55000,-94.2215080317173,4,1,0,75,0,8
55114,433.212996389892,4,1,0,75,1,8
55114,-95.5319827545754,4,1,0,75,0,8
55327,-94.7222182268755,4,1,0,75,0,8
55547,427.046263345196,4,1,0,75,1,0
55547,-95.2786915851075,4,1,0,75,0,0
55757,-94.4955066219802,4,1,0,75,0,0
55864,-94.1069142568944,4,1,0,75,0,0
55974,413.793103448276,4,1,0,75,1,8
55974,-96.7232611888528,4,1,0,75,0,8
56177,-95.9665949552894,4,1,0,75,0,8
56281,-95.5890681702046,4,1,0,75,0,8
56387,409.556313993174,4,1,0,75,1,8
56387,-96.2031024198473,4,1,0,75,0,8
56588,-95.4692658971876,4,1,0,75,0,8
56691,-95.1029873681956,4,1,0,75,0,8
56796,402.684563758389,4,1,0,75,1,8
56796,-96.359799354454,4,1,0,75,0,8
56994,-95.6464069924042,4,1,0,75,0,8
57198,393.44262295082,4,1,0,75,1,0
57198,-97.1737165381252,4,1,0,75,0,0
57391,-96.4823046717677,4,1,0,75,0,0
57490,-96.1367977194375,4,1,0,75,0,0
57591,389.61038961039,4,1,0,75,1,8
57591,-96.7394769411319,4,1,0,75,0,8
57782,-96.0677135731638,4,1,0,75,0,8
57880,-95.7319035743911,4,1,0,75,0,8
57980,380.952380952381,4,1,0,75,1,8
57980,-97.5700473853193,4,1,0,75,0,8
58167,-96.9155062484373,4,1,0,75,0,8
58262,-96.5915178748675,4,1,0,75,0,8
58360,377.358490566038,4,1,0,75,1,8
58360,-97.1865426449383,4,1,0,75,0,8
58545,-96.5499333797049,4,1,0,75,0,8
58737,365.853658536585,4,1,0,75,1,0
58737,-98.9345880455206,4,1,0,75,0,0
58825,-98.6239303480231,4,1,0,75,0,0
58916,-98.3152174934103,4,1,0,75,0,0
59008,-98.0050706333839,4,1,0,75,0,0
59102,362.537764350453,4,1,0,75,1,8
59102,-98.5938134653046,4,1,0,75,0,8
59280,-97.9875585155246,4,1,0,75,0,8
59464,356.083086053412,4,1,0,75,1,8
59464,-99.1540680710533,4,1,0,75,0,8
59639,-98.5616982414252,4,1,0,75,0,8
59728,-98.2681596397516,4,1,0,75,0,8
59820,352.941176470588,4,1,0,75,1,8
59820,-98.8485574463633,4,1,0,75,0,8
59993,-98.271504310522,4,1,0,75,0,8
60172,344.827586206897,4,1,0,75,1,0
60341,-98.2320617890976,4,1,0,75,0,0
60427,-97.3713293203387,4,1,0,75,0,0
60513,-96.5255497124476,4,1,0,75,0,0
60686,-94.8678989225199,4,1,0,75,0,0
60772,-94.0648711337601,4,1,0,75,0,0
60861,333.333333333333,4,1,0,75,1,8
60861,-96.4917144881929,4,1,0,75,0,8
61024,-94.9533106951184,4,1,0,75,0,8
61108,-94.1933836255983,4,1,0,75,0,8
61191,-93.454356868606,4,1,0,75,0,8
61358,-92.0019931887359,4,1,0,75,0,8
61527,324.324324324324,4,1,0,75,1,0
61527,-93.1191159633378,4,1,0,75,0,0
61686,-91.7568705699412,4,1,0,75,0,0
61767,-91.0905856220989,4,1,0,75,0,0
61848,-90.4339072631949,4,1,0,75,0,0
62010,-89.148551069356,4,1,0,75,0,0
62091,-88.5194780653798,4,1,0,75,0,0
62175,319.148936170213,4,1,0,75,1,8
62175,-89.3246136786551,4,1,0,75,0,8
62331,-88.1126673309276,4,1,0,75,0,8
62411,-87.5152349286006,4,1,0,75,0,8
62491,-86.9258495350453,4,1,0,75,0,8
62650,-85.7777031672251,4,1,0,75,0,8
62813,311.688311688312,4,1,0,75,1,0
62813,-86.6788089747865,4,1,0,75,0,0
62965,-85.5911879905596,4,1,0,75,0,0
63043,-85.0541278230249,4,1,0,75,0,0
63121,-84.5237654260759,4,1,0,75,0,0
63277,-83.482638942821,4,1,0,75,0,0
63355,-82.9716349308135,4,1,0,75,0,0
63436,307.692307692308,4,1,0,75,1,8
63436,-83.5378466881141,4,1,0,75,0,8
63586,-82.5526885662779,4,1,0,75,0,8
63663,-82.065627679073,4,1,0,75,0,8
63740,-81.5842804003365,4,1,0,75,0,8
63894,-80.6383291803058,4,1,0,75,0,8
64051,303.79746835443,4,1,0,75,1,0
64051,-80.7360378729971,4,1,0,75,0,0
64123,-80.2878644215797,4,1,0,75,0,0
64199,-79.8387625963131,4,1,0,75,0,0
64275,-79.3946570561148,4,1,0,75,0,0
64351,-78.9554648862385,4,1,0,75,0,0
64503,-78.091498071378,4,1,0,75,0,0
64658,300,4,1,0,75,1,8
64658,-78.2240348738913,4,1,0,75,0,8
64730,-77.8084755679999,4,1,0,75,0,8
64805,-77.3973081855031,4,1,0,75,0,8
64880,-76.9904634669831,4,1,0,75,0,8
64955,-76.5878736016762,4,1,0,75,0,8
65030,-76.1894721897942,4,1,0,75,0,8
65105,-75.7951942060157,4,1,0,75,0,8
65180,-75.4049759641052,4,1,0,75,0,8
65258,334.261838440111,4,1,0,75,1,0
65258,-67.3293354520529,4,1,0,75,0,0
65422,-70.1937885491312,4,1,0,75,0,0
65505,-71.7100676210067,4,1,0,75,0,0
65589,-73.312801687138,4,1,0,75,0,0
65756,-76.7218864025874,4,1,0,75,0,0
65839,-78.5369576270212,4,1,0,75,0,0
65923,-80.4634815795854,4,1,0,75,0,0
66090,-84.5887292258579,4,1,0,75,0,0
66174,-86.8278264388922,4,1,0,75,0,0
66257,-89.1598260165564,4,1,0,75,0,0
66424,-94.2531808454908,4,1,0,75,0,0
66592,-66.6666666666667,4,1,0,75,0,0

[HitObjects]
256,192,747,5,8,0:0:0:0:
256,192,927,1,8,0:0:0:0:
256,192,1016,1,8,0:0:0:0:
256,192,1106,1,8,0:0:0:0:
256,192,1286,1,8,0:0:0:0:
256,192,1466,1,0,0:0:0:0:
256,192,1645,1,0,0:0:0:0:
256,192,1825,1,8,0:0:0:0:
256,192,2004,1,0,0:0:0:0:
256,192,2094,1,8,0:0:0:0:
256,192,2184,1,0,0:0:0:0:
256,192,2364,1,0,0:0:0:0:
256,192,2543,1,8,0:0:0:0:
256,192,2723,1,8,0:0:0:0:
256,192,2903,1,0,0:0:0:0:
256,192,3082,1,0,0:0:0:0:
256,192,3262,1,8,0:0:0:0:
256,192,3442,1,0,0:0:0:0:
256,192,3531,1,8,0:0:0:0:
256,192,3621,1,0,0:0:0:0:
256,192,3711,1,0,0:0:0:0:
256,192,3801,1,8,0:0:0:0:
256,192,3891,1,0,0:0:0:0:
256,192,3980,1,8,0:0:0:0:
256,192,4160,1,8,0:0:0:0:
256,192,4250,1,8,0:0:0:0:
256,192,4340,1,0,0:0:0:0:
256,192,4519,1,0,0:0:0:0:
256,192,4699,1,8,0:0:0:0:
256,192,4878,1,0,0:0:0:0:
256,192,4968,1,8,0:0:0:0:
256,192,5058,1,0,0:0:0:0:
256,192,5238,1,0,0:0:0:0:
256,192,5417,1,8,0:0:0:0:
256,192,5597,1,8,0:0:0:0:
256,192,5778,1,0,0:0:0:0:
256,192,5867,1,8,0:0:0:0:
256,192,5957,1,0,0:0:0:0:
256,192,6047,1,8,0:0:0:0:
256,192,6137,1,0,0:0:0:0:
256,192,6316,1,8,0:0:0:0:
256,192,6675,1,0,0:0:0:0:
256,192,6765,1,0,0:0:0:0:
256,192,6855,1,8,0:0:0:0:
256,192,7034,1,8,0:0:0:0:
256,192,7214,1,0,0:0:0:0:
256,192,7393,1,0,0:0:0:0:
256,192,7573,1,8,0:0:0:0:
256,192,7752,1,0,0:0:0:0:
256,192,7842,1,8,0:0:0:0:
256,192,7932,1,0,0:0:0:0:
256,192,8112,1,0,0:0:0:0:
256,192,8291,1,8,0:0:0:0:
256,192,8471,1,8,0:0:0:0:
256,192,8651,1,0,0:0:0:0:
256,192,8830,1,0,0:0:0:0:
256,192,9010,1,8,0:0:0:0:
256,192,9190,1,0,0:0:0:0:
256,192,9279,1,8,0:0:0:0:
256,192,9369,1,0,0:0:0:0:
256,192,9460,1,0,0:0:0:0:
256,192,9549,1,8,0:0:0:0:
256,192,9639,1,0,0:0:0:0:
256,192,9728,1,8,0:0:0:0:
256,192,9909,1,8,0:0:0:0:
256,192,9998,1,8,0:0:0:0:
256,192,10088,1,0,0:0:0:0:
256,192,10267,1,0,0:0:0:0:
256,192,10447,1,8,0:0:0:0:
256,192,10626,1,0,0:0:0:0:
256,192,10716,1,8,0:0:0:0:
256,192,10806,1,0,0:0:0:0:
256,192,10986,1,0,0:0:0:0:
256,192,11165,1,8,0:0:0:0:
256,192,11345,1,8,0:0:0:0:
256,192,11526,1,0,0:0:0:0:
256,192,11615,1,8,0:0:0:0:
256,192,11705,1,0,0:0:0:0:
256,192,11795,1,8,0:0:0:0:
256,192,11885,1,0,0:0:0:0:
256,192,12064,1,8,0:0:0:0:
256,192,12423,1,0,0:0:0:0:
256,192,12513,1,0,0:0:0:0:
256,192,12603,1,8,0:0:0:0:
256,192,12782,1,8,0:0:0:0:
256,192,12873,1,8,0:0:0:0:
256,192,12963,1,0,0:0:0:0:
256,192,13142,1,0,0:0:0:0:
256,192,13322,1,8,0:0:0:0:
256,192,13501,1,0,0:0:0:0:
256,192,13591,1,8,0:0:0:0:
256,192,13681,1,0,0:0:0:0:
256,192,13861,1,0,0:0:0:0:
256,192,14040,1,8,0:0:0:0:
256,192,14220,1,8,0:0:0:0:
256,192,14400,1,0,0:0:0:0:
256,192,14489,1,0,0:0:0:0:
256,192,14579,1,0,0:0:0:0:
256,192,14669,1,0,0:0:0:0:
256,192,14759,1,8,0:0:0:0:
256,192,14849,1,8,0:0:0:0:
256,192,14939,1,0,0:0:0:0:
256,192,15028,1,0,0:0:0:0:
256,192,15118,1,8,0:0:0:0:
256,192,15208,1,0,0:0:0:0:
256,192,15298,1,8,0:0:0:0:
256,192,15388,1,8,0:0:0:0:
256,192,15477,1,0,0:0:0:0:
256,192,15567,1,0,0:0:0:0:
256,192,15657,1,0,0:0:0:0:
256,192,15747,1,0,0:0:0:0:
256,192,15837,1,12,0:0:0:0:
256,192,16196,1,8,0:0:0:0:
256,192,16376,1,0,0:0:0:0:
256,192,16555,1,8,0:0:0:0:
256,192,16915,1,8,0:0:0:0:
256,192,17094,1,0,0:0:0:0:
256,192,17454,1,0,0:0:0:0:
256,192,17813,1,0,0:0:0:0:
256,192,17992,1,8,0:0:0:0:
256,192,18352,1,8,0:0:0:0:
256,192,18531,1,0,0:0:0:0:
256,192,18621,1,0,0:0:0:0:
256,192,18711,1,8,0:0:0:0:
256,192,18891,1,8,0:0:0:0:
256,192,19070,1,8,0:0:0:0:
256,192,19250,1,0,0:0:0:0:
256,192,19430,1,8,0:0:0:0:
256,192,19609,1,8,0:0:0:0:
256,192,19789,1,8,0:0:0:0:
256,192,19968,1,0,0:0:0:0:
256,192,20148,1,8,0:0:0:0:
256,192,20238,1,0,0:0:0:0:
256,192,20328,1,8,0:0:0:0:
256,192,20418,1,0,0:0:0:0:
256,192,20507,1,8,0:0:0:0:
256,192,20597,1,8,0:0:0:0:
256,192,20687,1,0,0:0:0:0:
256,192,20777,1,0,0:0:0:0:
256,192,20867,1,8,0:0:0:0:
256,192,21046,1,0,0:0:0:0:
256,192,21226,1,12,0:0:0:0:
256,192,21585,1,4,0:0:0:0:
256,192,21765,1,0,0:0:0:0:
256,192,21855,1,0,0:0:0:0:
256,192,21945,1,8,0:0:0:0:
256,192,22124,1,0,0:0:0:0:
256,192,22483,1,8,0:0:0:0:
256,192,22573,1,8,0:0:0:0:
256,192,22663,1,0,0:0:0:0:
256,192,22843,1,8,0:0:0:0:
256,192,23022,1,0,0:0:0:0:
256,192,23202,1,0,0:0:0:0:
256,192,23292,1,0,0:0:0:0:
256,192,23382,1,8,0:0:0:0:
256,192,23561,1,8,0:0:0:0:
256,192,23741,1,0,0:0:0:0:
256,192,23921,1,8,0:0:0:0:
256,192,24010,1,8,0:0:0:0:
256,192,24100,1,8,0:0:0:0:
256,192,24280,1,8,0:0:0:0:
256,192,24460,1,0,0:0:0:0:
256,192,24639,1,0,0:0:0:0:
256,192,24729,1,0,0:0:0:0:
256,192,24819,1,8,0:0:0:0:
256,192,24998,1,0,0:0:0:0:
256,192,25358,1,8,0:0:0:0:
256,192,25448,1,8,0:0:0:0:
256,192,25537,1,0,0:0:0:0:
256,192,25717,1,8,0:0:0:0:
256,192,25897,1,0,0:0:0:0:
256,192,26076,1,0,0:0:0:0:
256,192,26166,1,0,0:0:0:0:
256,192,26256,1,8,0:0:0:0:
256,192,26436,1,8,0:0:0:0:
256,192,26615,1,0,0:0:0:0:
256,192,26795,1,8,0:0:0:0:
256,192,26885,1,8,0:0:0:0:
256,192,26974,1,8,0:0:0:0:
256,192,27154,1,8,0:0:0:0:
256,192,27334,1,0,0:0:0:0:
256,192,27513,1,0,0:0:0:0:
256,192,27603,1,0,0:0:0:0:
256,192,27693,1,8,0:0:0:0:
256,192,27873,1,8,0:0:0:0:
256,192,28052,1,0,0:0:0:0:
256,192,28232,1,8,0:0:0:0:
256,192,28322,1,8,0:0:0:0:
256,192,28412,1,0,0:0:0:0:
256,192,28591,1,8,0:0:0:0:
256,192,28771,1,0,0:0:0:0:
256,192,28951,1,0,0:0:0:0:
256,192,29040,1,0,0:0:0:0:
256,192,29130,1,8,0:0:0:0:
256,192,29310,1,0,0:0:0:0:
256,192,29400,1,0,0:0:0:0:
256,192,29489,1,8,0:0:0:0:
256,192,29579,1,0,0:0:0:0:
256,192,29669,1,8,0:0:0:0:
256,192,29759,1,0,0:0:0:0:
256,192,29849,1,8,0:0:0:0:
256,192,30028,1,8,0:0:0:0:
256,192,30208,1,0,0:0:0:0:
256,192,30388,1,0,0:0:0:0:
256,192,30567,1,12,0:0:0:0:
256,192,30927,1,0,0:0:0:0:
256,192,31106,1,0,0:0:0:0:
256,192,31286,1,12,0:0:0:0:
256,192,31465,1,4,0:0:0:0:
256,192,31825,1,4,0:0:0:0:
256,192,32184,1,4,0:0:0:0:
256,192,32364,1,12,0:0:0:0:
256,192,32723,1,12,0:0:0:0:
256,192,33082,1,4,0:0:0:0:
256,192,33262,1,0,0:0:0:0:
256,192,33352,1,0,0:0:0:0:
256,192,33442,1,8,0:0:0:0:
256,192,33621,1,8,0:0:0:0:
256,192,33711,1,8,0:0:0:0:
256,192,33801,1,8,0:0:0:0:
256,192,33980,1,8,0:0:0:0:
256,192,34040,1,8,0:0:0:0:
256,192,34100,1,8,0:0:0:0:
256,192,34160,1,0,0:0:0:0:
256,192,34340,1,8,0:0:0:0:
256,192,34519,1,0,0:0:0:0:
256,192,34699,1,0,0:0:0:0:
256,192,34879,1,8,0:0:0:0:
256,192,35058,1,8,0:0:0:0:
256,192,35148,1,8,0:0:0:0:
256,192,35238,1,0,0:0:0:0:
256,192,35418,1,0,0:0:0:0:
256,192,35507,1,0,0:0:0:0:
256,192,35597,1,8,0:0:0:0:
256,192,35957,1,0,0:0:0:0:
256,192,36137,1,0,0:0:0:0:
256,192,36227,1,0,0:0:0:0:
256,192,36317,1,8,0:0:0:0:
256,192,36496,1,8,0:0:0:0:
256,192,36586,1,8,0:0:0:0:
256,192,36676,1,8,0:0:0:0:
256,192,36855,1,8,0:0:0:0:
256,192,36915,1,8,0:0:0:0:
256,192,36975,1,8,0:0:0:0:
256,192,37035,1,0,0:0:0:0:
256,192,37215,1,8,0:0:0:0:
256,192,37394,1,0,0:0:0:0:
256,192,37483,1,8,0:0:0:0:
256,192,37574,1,0,0:0:0:0:
256,192,37663,1,8,0:0:0:0:
256,192,37754,1,0,0:0:0:0:
256,192,37933,1,8,0:0:0:0:
256,192,38112,1,0,0:0:0:0:
256,192,38293,1,0,0:0:0:0:
256,192,38382,1,0,0:0:0:0:
256,192,38472,1,8,0:0:0:0:
256,192,38831,1,0,0:0:0:0:
256,192,39011,1,0,0:0:0:0:
256,192,39101,1,0,0:0:0:0:
256,192,39191,1,8,0:0:0:0:
256,192,39370,1,8,0:0:0:0:
256,192,39460,1,8,0:0:0:0:
256,192,39550,1,8,0:0:0:0:
256,192,39729,1,8,0:0:0:0:
256,192,39789,1,8,0:0:0:0:
256,192,39849,1,8,0:0:0:0:
256,192,39909,1,0,0:0:0:0:
256,192,40089,1,8,0:0:0:0:
256,192,40268,1,0,0:0:0:0:
256,192,40448,1,0,0:0:0:0:
256,192,40537,1,0,0:0:0:0:
256,192,40628,1,8,0:0:0:0:
256,192,40807,1,8,0:0:0:0:
256,192,40897,1,8,0:0:0:0:
256,192,40987,1,0,0:0:0:0:
256,192,41076,1,8,0:0:0:0:
256,192,41167,1,0,0:0:0:0:
256,192,41256,1,0,0:0:0:0:
256,192,41346,1,8,0:0:0:0:
256,192,41525,1,8,0:0:0:0:
256,192,41705,1,0,0:0:0:0:
256,192,41885,1,0,0:0:0:0:
256,192,42064,1,12,0:0:0:0:
256,192,42424,1,0,0:0:0:0:
256,192,42603,1,0,0:0:0:0:
256,192,42783,1,12,0:0:0:0:
256,192,42962,1,4,0:0:0:0:
256,192,43322,1,4,0:0:0:0:
256,192,43681,1,4,0:0:0:0:
256,192,43861,1,12,0:0:0:0:
256,192,44220,1,12,0:0:0:0:
256,192,44574,1,4,0:0:0:0:
256,192,44929,1,0,0:0:0:0:
256,192,45106,1,0,0:0:0:0:
256,192,45284,1,8,0:0:0:0:
256,192,45628,1,0,0:0:0:0:
256,192,45801,1,8,0:0:0:0:
256,192,45973,1,0,0:0:0:0:
256,192,46300,1,8,0:0:0:0:
256,192,46464,1,8,0:0:0:0:
256,192,46628,1,0,0:0:0:0:
256,192,46950,1,8,0:0:0:0:
256,192,47273,1,0,0:0:0:0:
256,192,47583,1,0,0:0:0:0:
256,192,47739,1,0,0:0:0:0:
256,192,47894,1,8,0:0:0:0:
256,192,48197,1,0,0:0:0:0:
256,192,48348,1,8,0:0:0:0:
256,192,48500,1,0,0:0:0:0:
256,192,48795,1,8,0:0:0:0:
256,192,48943,1,8,0:0:0:0:
256,192,49091,1,0,0:0:0:0:
256,192,49378,1,8,0:0:0:0:
256,192,49665,1,0,0:0:0:0:
256,192,49941,1,0,0:0:0:0:
256,192,50079,1,0,0:0:0:0:
256,192,50217,1,8,0:0:0:0:
256,192,50489,1,0,0:0:0:0:
256,192,50626,1,8,0:0:0:0:
256,192,50762,1,0,0:0:0:0:
256,192,51027,1,8,0:0:0:0:
256,192,51160,1,8,0:0:0:0:
256,192,51292,1,0,0:0:0:0:
256,192,51550,1,8,0:0:0:0:
256,192,51809,1,0,0:0:0:0:
256,192,51935,1,8,0:0:0:0:
256,192,52061,1,0,0:0:0:0:
256,192,52187,1,0,0:0:0:0:
256,192,52313,1,8,0:0:0:0:
256,192,52558,1,0,0:0:0:0:
256,192,52804,1,8,0:0:0:0:
256,192,53044,1,0,0:0:0:0:
256,192,53164,1,0,0:0:0:0:
256,192,53284,1,8,0:0:0:0:
256,192,53521,1,8,0:0:0:0:
256,192,53758,1,0,0:0:0:0:
256,192,53988,1,0,0:0:0:0:
256,192,54104,1,0,0:0:0:0:
256,192,54219,1,8,0:0:0:0:
256,192,54446,1,0,0:0:0:0:
256,192,54559,1,8,0:0:0:0:
256,192,54673,1,0,0:0:0:0:
256,192,54893,1,8,0:0:0:0:
256,192,55003,1,8,0:0:0:0:
256,192,55114,1,0,0:0:0:0:
256,192,55330,1,8,0:0:0:0:
256,192,55547,1,0,0:0:0:0:
256,192,55760,1,0,0:0:0:0:
256,192,55867,1,0,0:0:0:0:
256,192,55974,1,8,0:0:0:0:
256,192,56180,1,0,0:0:0:0:
256,192,56284,1,8,0:0:0:0:
256,192,56387,1,0,0:0:0:0:
256,192,56591,1,8,0:0:0:0:
256,192,56694,1,8,0:0:0:0:
256,192,56796,1,0,0:0:0:0:
256,192,56997,1,8,0:0:0:0:
256,192,57198,1,0,0:0:0:0:
256,192,57394,1,0,0:0:0:0:
256,192,57493,1,0,0:0:0:0:
256,192,57591,1,8,0:0:0:0:
256,192,57785,1,0,0:0:0:0:
256,192,57883,1,8,0:0:0:0:
256,192,57980,1,0,0:0:0:0:
256,192,58170,1,8,0:0:0:0:
256,192,58265,1,8,0:0:0:0:
256,192,58360,1,0,0:0:0:0:
256,192,58548,1,8,0:0:0:0:
256,192,58737,1,0,0:0:0:0:
256,192,58828,1,8,0:0:0:0:
256,192,58919,1,0,0:0:0:0:
256,192,59011,1,0,0:0:0:0:
256,192,59102,1,8,0:0:0:0:
256,192,59283,1,0,0:0:0:0:
256,192,59464,1,8,0:0:0:0:
256,192,59642,1,0,0:0:0:0:
256,192,59731,1,0,0:0:0:0:
256,192,59820,1,8,0:0:0:0:
256,192,59996,1,8,0:0:0:0:
256,192,60172,1,0,0:0:0:0:
256,192,60344,1,0,0:0:0:0:
256,192,60430,1,0,0:0:0:0:
256,192,60516,1,8,0:0:0:0:
256,192,60689,1,0,0:0:0:0:
256,192,60775,1,8,0:0:0:0:
256,192,60861,1,0,0:0:0:0:
256,192,61027,1,8,0:0:0:0:
256,192,61111,1,8,0:0:0:0:
256,192,61194,1,0,0:0:0:0:
256,192,61361,1,8,0:0:0:0:
256,192,61527,1,0,0:0:0:0:
256,192,61689,1,0,0:0:0:0:
256,192,61770,1,0,0:0:0:0:
256,192,61851,1,8,0:0:0:0:
256,192,62013,1,0,0:0:0:0:
256,192,62094,1,8,0:0:0:0:
256,192,62175,1,0,0:0:0:0:
256,192,62334,1,8,0:0:0:0:
256,192,62414,1,8,0:0:0:0:
256,192,62494,1,0,0:0:0:0:
256,192,62653,1,8,0:0:0:0:
256,192,62813,1,0,0:0:0:0:
256,192,62968,1,0,0:0:0:0:
256,192,63046,1,0,0:0:0:0:
256,192,63124,1,8,0:0:0:0:
256,192,63280,1,0,0:0:0:0:
256,192,63358,1,8,0:0:0:0:
256,192,63436,1,0,0:0:0:0:
256,192,63589,1,8,0:0:0:0:
256,192,63666,1,8,0:0:0:0:
256,192,63743,1,0,0:0:0:0:
256,192,63897,1,8,0:0:0:0:
256,192,64051,1,0,0:0:0:0:
256,192,64126,1,8,0:0:0:0:
256,192,64202,1,0,0:0:0:0:
256,192,64278,1,0,0:0:0:0:
256,192,64354,1,8,0:0:0:0:
256,192,64506,1,0,0:0:0:0:
256,192,64658,1,0,0:0:0:0:
256,192,64733,1,0,0:0:0:0:
256,192,64808,1,0,0:0:0:0:
256,192,64883,1,0,0:0:0:0:
256,192,64958,1,8,0:0:0:0:
256,192,65033,1,8,0:0:0:0:
256,192,65108,1,8,0:0:0:0:
256,192,65183,1,8,0:0:0:0:
256,192,65258,1,0,0:0:0:0:
256,192,65425,1,0,0:0:0:0:
256,192,65508,1,0,0:0:0:0:
256,192,65592,1,8,0:0:0:0:
256,192,65759,1,0,0:0:0:0:
256,192,65842,1,8,0:0:0:0:
256,192,65926,1,0,0:0:0:0:
256,192,66093,1,8,0:0:0:0:
256,192,66177,1,8,0:0:0:0:
256,192,66260,1,0,0:0:0:0:
256,192,66427,1,8,0:0:0:0:
256,192,66595,1,4,0:0:0:0:
256,192,66762,1,4,0:0:0:0:
256,192,66929,1,12,0:0:0:0:
256,192,67096,1,4,0:0:0:0:
