osu file format v14

[General]
AudioFilename: audio.mp3
AudioLeadIn: 0
PreviewTime: 44574
Countdown: 0
SampleSet: Normal
StackLeniency: 0.7
Mode: 1
LetterboxInBreaks: 0
WidescreenStoryboard: 0

[Editor]
Bookmarks: 1466,4340,7214,10088,12963,15837,18711,21585,24460,27334,30208,33082,35957,38831,41705,44574,47273,49665,51809,53758,55547,57198,58737,60172,61527,62813,64051,65258,66595,67096
DistanceSpacing: 1.4
BeatDivisor: 4
GridSize: 32
TimelineZoom: 2.2

[Metadata]
Title:Thanks for Your Patronage!
TitleUnicode:多谢惠顾!
Artist:HOYO-MiX
ArtistUnicode:HOYO-MiX
Creator:Annabel
Version:Futsuu
Source:Genshin Impact
Tags:Ayyri eiri- Electronic Instrumental Video Game hoyoverse 原神 mihoyo Dori 多莉 Generous Purchase 毎度ありですわ! The Stellar Moments Sumeru OST Original Sound Track Soundtrack ドリー Volume Vol. 3 Vol.3 闪耀的群星3
BeatmapID:4001772
BeatmapSetID:1920451

[Difficulty]
HPDrainRate:9
CircleSize:2
OverallDifficulty:4
ApproachRate:10
SliderMultiplier:1.4
SliderTickRate:1

[Events]
//Background and Video events
0,0,"Dori 273.jpg",0,0
//Break Periods
//Storyboard Layer 0 (Background)
//Storyboard Layer 1 (Fail)
//Storyboard Layer 2 (Pass)
//Storyboard Layer 3 (Foreground)
//Storyboard Layer 4 (Overlay)
//Storyboard Sound Samples

[TimingPoints]
1466,359.281437125748,4,1,0,75,1,0
44574,710.059171597633,4,1,0,75,1,0
44574,-48.5206344680329,4,1,0,75,0,0
45284,689.655172413793,4,1,0,75,1,8
45284,-49.9067480169078,4,1,0,75,0,8
45973,655.737704918033,4,1,0,75,1,8
45973,-52.4378046913693,4,1,0,75,0,8
46628,645.161290322581,4,1,0,75,1,8
46628,-96.58757384864,4,1,0,75,0,8
47273,621.761658031088,4,1,0,75,1,0
47273,-55.2033909552233,4,1,0,75,0,0
47894,606.060606060606,4,1,0,75,1,8
47894,-56.5847196617282,4,1,0,75,0,8
48500,591.133004926108,4,1,0,75,1,8
48500,-57.9648740960867,4,1,0,75,0,8
49091,574.162679425837,4,1,0,75,1,8
49091,-94.6402272672023,4,1,0,75,0,8
49665,552.995391705069,4,1,0,75,1,0
49665,-61.8625087303273,4,1,0,75,0,0
50217,545.454545454546,4,1,0,75,1,8
50217,-62.6698561154111,4,1,0,75,0,8
50762,530.973451327434,4,1,0,75,1,8
50762,-64.3305310862635,4,1,0,75,0,8
51292,517.241379310345,4,1,0,75,1,8
51292,-94.2726797349662,4,1,0,75,0,8
51809,504.201680672269,4,1,0,75,1,0
51809,-67.6483979975635,4,1,0,75,0,0
52313,491.803278688525,4,1,0,75,1,8
52313,-69.3055990460038,4,1,0,75,0,8
52804,480,4,1,0,75,1,8
52804,-70.9617757834162,4,1,0,75,0,8
53284,474.308300395257,4,1,0,75,1,8
53284,-94.0679622782842,4,1,0,75,0,8
53758,461.538461538462,4,1,0,75,1,0
53758,-73.7033167355082,4,1,0,75,0,0
54219,454.545454545455,4,1,0,75,1,8
54219,-74.7897494136505,4,1,0,75,0,8
54673,441.176470588235,4,1,0,75,1,8
54673,-77.0080046010155,4,1,0,75,0,8
55114,433.212996389892,4,1,0,75,1,8
55114,-95.5319827545754,4,1,0,75,0,8
55547,427.046263345196,4,1,0,75,1,0
55547,-79.4605721583843,4,1,0,75,0,0
55974,413.793103448276,4,1,0,75,1,8
55974,-81.95751507483,4,1,0,75,0,8
56387,409.556313993174,4,1,0,75,1,8
56387,-82.7584329796999,4,1,0,75,0,8
56796,402.684563758389,4,1,0,75,1,8
56796,-96.359799354454,4,1,0,75,0,8
57198,393.44262295082,4,1,0,75,1,0
57198,-86.0521331587592,4,1,0,75,0,0
57591,389.61038961039,4,1,0,75,1,8
57591,-86.8517774208863,4,1,0,75,0,8
57980,380.952380952381,4,1,0,75,1,8
57980,-88.7783797358221,4,1,0,75,0,8
58360,377.358490566038,4,1,0,75,1,8
58360,-97.1865426449383,4,1,0,75,0,8
58737,365.853658536585,4,1,0,75,1,0
58737,-92.3465716394443,4,1,0,75,0,0
59102,362.537764350453,4,1,0,75,1,8
59102,-93.1447135024507,4,1,0,75,0,8
59464,356.083086053412,4,1,0,75,1,8
59464,-94.786247167792,4,1,0,75,0,8
59820,352.941176470588,4,1,0,75,1,8
59820,-98.8485574463633,4,1,0,75,0,8
60172,344.827586206897,4,1,0,75,1,0
60172,-97.7855884757115,4,1,0,75,0,0
60861,333.333333333333,4,1,0,75,1,8
60861,-101.062485782077,4,1,0,75,0,8
61527,324.324324324324,4,1,0,75,1,0
61527,-103.775548628614,4,1,0,75,0,0
62175,319.148936170213,4,1,0,75,1,8
62175,-105.365393541922,4,1,0,75,0,8
62813,311.688311688312,4,1,0,75,1,0
62813,-107.79383774402,4,1,0,75,0,0
63436,307.692307692308,4,1,0,75,1,8
63436,-109.101337050887,4,1,0,75,0,8
64051,303.79746835443,4,1,0,75,1,0
64051,-110.407824302235,4,1,0,75,0,0
64658,300,4,1,0,75,1,8
64658,-111.713343378803,4,1,0,75,0,8
65258,334.261838440111,4,1,0,75,1,0

[HitObjects]
256,192,747,5,8,0:0:0:0:
256,192,1106,1,8,0:0:0:0:
256,192,1286,1,8,0:0:0:0:
256,192,1466,1,0,0:0:0:0:
256,192,1825,1,8,0:0:0:0:
256,192,2004,1,0,0:0:0:0:
256,192,2184,1,8,0:0:0:0:
256,192,2543,1,8,0:0:0:0:
256,192,2903,1,0,0:0:0:0:
256,192,3262,1,8,0:0:0:0:
256,192,3442,1,8,0:0:0:0:
256,192,3621,1,0,0:0:0:0:
256,192,4340,1,0,0:0:0:0:
256,192,4699,1,8,0:0:0:0:
256,192,4879,1,0,0:0:0:0:
256,192,5058,1,8,0:0:0:0:
256,192,5417,1,8,0:0:0:0:
256,192,5778,1,0,0:0:0:0:
256,192,6137,1,0,0:0:0:0:
256,192,6316,1,8,0:0:0:0:
256,192,7214,1,0,0:0:0:0:
256,192,7573,1,8,0:0:0:0:
256,192,7753,1,0,0:0:0:0:
256,192,7932,1,8,0:0:0:0:
256,192,8291,1,8,0:0:0:0:
256,192,8651,1,0,0:0:0:0:
256,192,9010,1,8,0:0:0:0:
256,192,9190,1,8,0:0:0:0:
256,192,9369,1,0,0:0:0:0:
256,192,10088,1,0,0:0:0:0:
256,192,10447,1,8,0:0:0:0:
256,192,10626,1,0,0:0:0:0:
256,192,10806,1,8,0:0:0:0:
256,192,11165,1,8,0:0:0:0:
256,192,11526,1,0,0:0:0:0:
256,192,11885,1,0,0:0:0:0:
256,192,12064,1,8,0:0:0:0:
256,192,12963,1,0,0:0:0:0:
256,192,13322,1,8,0:0:0:0:
256,192,13501,1,0,0:0:0:0:
256,192,13681,1,8,0:0:0:0:
256,192,14040,1,8,0:0:0:0:
256,192,14400,1,0,0:0:0:0:
256,192,14579,1,0,0:0:0:0:
256,192,14759,1,8,0:0:0:0:
256,192,15118,1,0,0:0:0:0:
256,192,15837,1,12,0:0:0:0:
256,192,16376,1,0,0:0:0:0:
256,192,16555,1,8,0:0:0:0:
256,192,17094,1,0,0:0:0:0:
256,192,17454,1,0,0:0:0:0:
256,192,17813,1,0,0:0:0:0:
256,192,17992,1,8,0:0:0:0:
256,192,18352,1,8,0:0:0:0:
256,192,18711,1,8,0:0:0:0:
256,192,19250,1,0,0:0:0:0:
256,192,19430,1,8,0:0:0:0:
256,192,19968,1,0,0:0:0:0:
256,192,20148,1,8,0:0:0:0:
256,192,20328,1,0,0:0:0:0:
256,192,20687,1,0,0:0:0:0:
256,192,20867,1,8,0:0:0:0:
256,192,21585,1,4,0:0:0:0:
256,192,21945,1,8,0:0:0:0:
256,192,22483,1,8,0:0:0:0:
256,192,22663,1,0,0:0:0:0:
256,192,22843,1,8,0:0:0:0:
256,192,23202,1,0,0:0:0:0:
256,192,23382,1,8,0:0:0:0:
256,192,24100,1,8,0:0:0:0:
256,192,24460,1,0,0:0:0:0:
256,192,24819,1,8,0:0:0:0:
256,192,25358,1,8,0:0:0:0:
256,192,25537,1,0,0:0:0:0:
256,192,25717,1,8,0:0:0:0:
256,192,26076,1,0,0:0:0:0:
256,192,26256,1,8,0:0:0:0:
256,192,26974,1,8,0:0:0:0:
256,192,27334,1,0,0:0:0:0:
256,192,27693,1,8,0:0:0:0:
256,192,28232,1,8,0:0:0:0:
256,192,28412,1,0,0:0:0:0:
256,192,28591,1,8,0:0:0:0:
256,192,28951,1,0,0:0:0:0:
256,192,29130,1,8,0:0:0:0:
256,192,29489,1,8,0:0:0:0:
256,192,30208,1,0,0:0:0:0:
256,192,30567,1,12,0:0:0:0:
256,192,30927,1,0,0:0:0:0:
256,192,31286,1,12,0:0:0:0:
256,192,31465,1,4,0:0:0:0:
256,192,31825,1,4,0:0:0:0:
256,192,32184,1,4,0:0:0:0:
256,192,32364,1,12,0:0:0:0:
256,192,33082,1,4,0:0:0:0:
256,192,33442,1,8,0:0:0:0:
256,192,33980,1,8,0:0:0:0:
256,192,34160,1,0,0:0:0:0:
256,192,34519,1,0,0:0:0:0:
256,192,34879,1,8,0:0:0:0:
256,192,35058,1,0,0:0:0:0:
256,192,35957,1,0,0:0:0:0:
256,192,36317,1,8,0:0:0:0:
256,192,36855,1,8,0:0:0:0:
256,192,37035,1,0,0:0:0:0:
256,192,37394,1,0,0:0:0:0:
256,192,37754,1,0,0:0:0:0:
256,192,37933,1,8,0:0:0:0:
256,192,38831,1,0,0:0:0:0:
256,192,39191,1,8,0:0:0:0:
256,192,39729,1,8,0:0:0:0:
256,192,39909,1,0,0:0:0:0:
256,192,40268,1,0,0:0:0:0:
256,192,40627,1,8,0:0:0:0:
256,192,40986,1,0,0:0:0:0:
256,192,41705,1,0,0:0:0:0:
256,192,42064,1,12,0:0:0:0:
256,192,42424,1,0,0:0:0:0:
256,192,42783,1,12,0:0:0:0:
256,192,42962,1,4,0:0:0:0:
256,192,43322,1,4,0:0:0:0:
256,192,43681,1,4,0:0:0:0:
256,192,43861,1,12,0:0:0:0:
256,192,44574,1,12,0:0:0:0:
256,192,44929,1,0,0:0:0:0:
256,192,45284,1,8,0:0:0:0:
256,192,45973,1,0,0:0:0:0:
256,192,47273,1,8,0:0:0:0:
256,192,47583,1,0,0:0:0:0:
256,192,47894,1,8,0:0:0:0:
256,192,48500,1,0,0:0:0:0:
256,192,49665,1,8,0:0:0:0:
256,192,49941,1,0,0:0:0:0:
256,192,50217,1,8,0:0:0:0:
256,192,50762,1,0,0:0:0:0:
256,192,51809,1,0,0:0:0:0:
256,192,52061,1,0,0:0:0:0:
256,192,52313,1,8,0:0:0:0:
256,192,52804,1,8,0:0:0:0:
256,192,53758,1,8,0:0:0:0:
256,192,53988,1,0,0:0:0:0:
256,192,54219,1,8,0:0:0:0:
256,192,54673,1,0,0:0:0:0:
256,192,55547,1,8,0:0:0:0:
256,192,55760,1,0,0:0:0:0:
256,192,55974,1,8,0:0:0:0:
256,192,56387,1,0,0:0:0:0:
256,192,57198,1,8,0:0:0:0:
256,192,57394,1,0,0:0:0:0:
256,192,57591,1,8,0:0:0:0:
256,192,57980,1,0,0:0:0:0:
256,192,58737,1,0,0:0:0:0:
256,192,58919,1,0,0:0:0:0:
256,192,59102,1,8,0:0:0:0:
256,192,59464,1,8,0:0:0:0:
256,192,60172,1,8,0:0:0:0:
256,192,60344,1,0,0:0:0:0:
256,192,60516,1,8,0:0:0:0:
256,192,60861,1,0,0:0:0:0:
256,192,61527,1,8,0:0:0:0:
256,192,61689,1,0,0:0:0:0:
256,192,61851,1,8,0:0:0:0:
256,192,62175,1,0,0:0:0:0:
256,192,62813,1,8,0:0:0:0:
256,192,62968,1,0,0:0:0:0:
256,192,63124,1,8,0:0:0:0:
256,192,63436,1,0,0:0:0:0:
256,192,64051,1,0,0:0:0:0:
256,192,64202,1,0,0:0:0:0:
256,192,64354,1,8,0:0:0:0:
256,192,64658,1,0,0:0:0:0:
256,192,65258,1,8,0:0:0:0:
256,192,65425,1,0,0:0:0:0:
256,192,65592,1,8,0:0:0:0:
256,192,65926,1,0,0:0:0:0:
256,192,66260,1,8,0:0:0:0:
256,192,66595,1,4,0:0:0:0:
256,192,66929,1,12,0:0:0:0:
256,192,67096,1,4,0:0:0:0:
