osu file format v14

[General]
AudioFilename: audio.mp3
AudioLeadIn: 0
PreviewTime: 64601
Countdown: 0
SampleSet: Soft
StackLeniency: 0.4
Mode: 0
LetterboxInBreaks: 0
WidescreenStoryboard: 1

[Editor]
Bookmarks: 17310,25643,51502,52335,99002,125773,152309
DistanceSpacing: 0.9
BeatDivisor: 4
GridSize: 4
TimelineZoom: 0.7000004

[Metadata]
Title:Termination of Desires
TitleUnicode:何妄何执
Artist:HOYO-MiX
ArtistUnicode:HOYO-MiX
Creator:ScubDomino
Version:Lanzhu's Normal
Source:Genshin Impact
Tags:Raiden Shogun Ei Beelzebul Baal Theme The Stellar Moments vol. volume 2 inaugural character album Mihoyo OST demo trailer Inazuma Shogunate Archons Archon instrumental electronic japanese folk orchestral trap video game games gacha electro 沢城みゆき miyuki sawashiro haruto -haruto aizawa haruto_aizawa 3772301 ascended -ascended- -_ascended_- 4564285 Mildly Accurate KnucklesGuy 7269198 Itsuki Hako hokichi hoki 6607303 Hiedraa Changes -Senko- Erisu Lanzhu 12469536 nemanjaduc AlwaysChoke Ducky- DuckyMomo 9351565 anime girl anime_girl jungkyuyoung natsume shiki natsume_shiki scub domino [keqing] 8972308 角色演示 「雷电将军:净土裁断」 雷電将軍 雷電影 らいでんしょうぐん らいでんえい Dimeng Yuan 苑迪萌 @HOYO-MiX Yu-Peng Chen Zhiyi 陈致逸 RPG action open world 原神 Yuánshén yuanshen fantasy Imperatrix Umbrosa Narukami Reign of Serenity Plane Euthymia Immortal Eternity Almighty Ogosho Shadow Kagemusha God Wy5Vq funny sled 89 おもしれーいそり89 奉使登终南山 wang wan At what vanity and what desires 妄念と執念
BeatmapID:3291219
BeatmapSetID:1585145

[Difficulty]
HPDrainRate:3.6
CircleSize:3.5
OverallDifficulty:4
ApproachRate:5
SliderMultiplier:1.2
SliderTickRate:0.5

[Events]
//Background and Video events
0,0,"Wy5Vq.jpg",0,0
//Break Periods
2,81572,90171
//Storyboard Layer 0 (Background)
//Storyboard Layer 1 (Fail)
//Storyboard Layer 2 (Pass)
//Storyboard Layer 3 (Foreground)
//Storyboard Layer 4 (Overlay)
//Storyboard Sound Samples
Sample,78664,0,"raiden.ogg",90

[TimingPoints]
1200,1121.4953271028,4,2,1,50,1,0
2321,970.873786407767,4,2,1,50,1,0
2806,736.196319018405,4,2,1,50,1,0
3174,598.503740648379,4,2,1,50,1,0
3772,536.912751677852,4,2,1,50,1,0
4040,664.819944598338,4,2,1,50,1,0
4706,833.333333333333,4,2,3,50,1,0
9705,-100,4,2,1,50,0,0
11372,-50,4,2,1,65,0,0
12205,-50,4,2,1,50,0,0
13039,-50,4,2,1,65,0,0
13872,-50,4,2,1,50,0,0
14705,-50,4,2,1,65,0,0
15538,-50,4,2,1,50,0,0
16372,-50,4,2,1,65,0,0
17205,-50,4,2,1,50,0,0
18039,-50,4,2,1,65,0,0
18872,-50,4,2,1,50,0,0
19705,-50,4,2,1,65,0,0
20538,-50,4,2,1,50,0,0
21372,-50,4,2,1,65,0,0
23039,-50,4,2,1,75,0,0
24705,-50,4,2,1,70,0,0
48455,-50,4,2,1,80,0,0
48872,-50,4,2,1,90,0,0
49705,-50,4,2,3,95,0,0
51372,416.666666666667,4,2,2,95,1,0
64080,-100,4,2,1,95,0,0
64288,-100,4,2,2,95,0,0
64705,-100,4,2,1,100,0,1
64757,-100,4,2,1,100,0,0
65122,-100,4,2,1,90,0,0
68038,-100,4,2,1,90,0,1
68090,-100,4,2,1,90,0,0
71372,-100,4,2,1,90,0,1
71424,-100,4,2,1,90,0,0
74705,-100,4,2,1,90,0,1
74757,-100,4,2,1,90,0,0
75121,-100,4,2,2,90,0,0
75538,-100,4,2,2,90,0,1
75590,-100,4,2,2,90,0,0
76372,-100,4,2,2,90,0,1
76424,-100,4,2,2,90,0,0
76788,-100,4,2,2,90,0,1
76840,-100,4,2,2,90,0,0
77205,-100,4,2,2,90,0,1
78039,1666.66666666667,4,2,1,80,1,0
84705,833.333333333333,4,2,1,80,1,0
91371,-50,4,2,1,80,0,0
94705,-50,4,2,1,85,0,0
96371,-50,4,2,1,90,0,0
98039,416.666666666667,4,2,2,95,1,0
109705,-100,4,2,3,85,0,0
111372,-100,4,2,2,95,0,0
123039,-100,4,2,3,95,0,0
124705,-100,4,2,1,100,0,0
124914,-100,4,2,1,85,0,0
131372,833.333333333333,4,2,3,75,1,0
133039,-100,4,2,3,65,0,0
134705,-100,4,2,3,55,0,0
138039,1666.66666666667,4,2,3,55,1,0
144705,-100,4,2,1,50,0,0

[Colours]
Combo1 : 219,205,187
Combo2 : 122,101,167
Combo3 : 192,116,183
Combo4 : 219,181,198

[HitObjects]
35,328,4706,6,0,P|82:294|160:314,1,120,4|0,2:0|2:0,2:0:0:0:
230,360,5956,2,0,L|245:319,1,30,0|0,2:0|2:0,2:0:0:0:
279,293,6372,2,0,L|401:272,1,120,2|0,2:0|2:0,2:0:0:0:
487,212,7622,2,0,L|472:170,1,30,0|0,2:0|2:0,2:0:0:0:
439,144,8039,6,0,L|317:123,1,120,2|0,2:1|2:0,2:0:0:0:
228,35,9289,2,0,L|182:58,1,30,0|0,2:0|2:0,2:0:0:0:
187,100,9705,2,0,L|59:82,1,120,2|0,2:1|2:0,2:0:0:0:
16,238,11164,1,0,2:0:0:0:
16,238,11372,6,0,B|156:183|129:295|270:221,1,240,4|0,1:0|1:0,2:0:0:0:
442,138,13039,2,0,P|384:53|257:113,1,240,0|0,1:0|1:0,2:0:0:0:
186,160,14289,1,0,2:0:0:0:
93,104,14705,2,0,P|104:138|123:356,1,240,4|0,1:0|1:0,2:0:0:0:
338,371,16372,2,0,P|334:251|306:134,1,240,0|0,1:0|1:0,2:0:0:0:
297,27,17622,1,0,2:0:0:0:
389,83,18039,6,0,P|417:199|420:319,1,240,4|0,1:0|1:0,2:0:0:0:
242,196,19705,2,0,B|132:183|132:183|99:225|99:225|0:247,1,240,0|0,1:0|1:0,2:0:0:0:
218,337,21372,2,0,B|328:324|328:324|361:366|361:366|460:388,1,240,4|0,1:0|1:0,2:0:0:0:
468,168,23039,2,0,P|436:54|352:69,1,180,4|0,1:0|1:0,2:0:0:0:
355,87,23872,2,0,L|279:71,1,60,4|0,1:0|1:0,2:0:0:0:
251,43,24289,2,0,L|175:59,1,60,0|0,1:0|1:0,2:0:0:0:
139,42,24705,5,6,1:0:0:0:
7,213,25539,2,0,B|112:218|112:218|159:252|159:252|253:257,1,240,10|4,2:0|1:0,2:0:0:0:
419,143,27205,1,4,2:0:0:0:
487,226,27622,1,4,1:3:0:0:
436,321,28039,2,0,B|313:262|313:343|172:342,1,240,12|10,1:0|2:0,2:0:0:0:
120,274,29289,1,0,2:0:0:0:
12,265,29705,2,0,L|29:383,2,120,4|0|4,1:0|2:0|2:0,2:0:0:0:
42,161,30955,1,4,3:0:0:0:
132,102,31372,6,0,B|242:37|231:174|392:146,1,240,6|10,1:0|2:0,2:0:0:0:
510,2,33039,2,0,B|431:21|370:121|278:27,1,240,4|4,1:0|2:0,2:0:0:0:
187,8,34289,1,4,1:3:0:0:
132,102,34705,2,0,L|169:345,1,240,12|10,1:0|2:0,2:0:0:0:
380,381,36372,2,0,L|417:138,1,240,4|4,1:0|2:0,2:0:0:0:
362,49,37622,1,4,3:0:0:0:
294,133,38039,6,0,P|236:114|169:107,1,120,6|0,1:0|2:0,2:0:0:0:
81,57,38872,2,0,P|41:100|45:197,1,120,10|0,2:0|2:0,2:0:0:0:
105,237,39705,2,0,L|233:213,1,120,4|0,1:0|2:0,2:0:0:0:
301,140,40539,1,4,2:0:0:0:
390,200,40955,1,4,1:3:0:0:
333,292,41372,6,0,L|215:314,1,120,12|0,1:0|2:0,2:0:0:0:
112,347,42205,1,10,2:0:0:0:
29,277,42622,1,0,2:0:0:0:
103,198,43039,2,0,L|240:216,1,120,4|0,1:0|2:0,2:0:0:0:
294,293,43872,2,0,L|436:257,1,120,4|4,2:0|3:0,2:0:0:0:
512,223,44705,5,6,1:0:0:0:
512,223,44914,1,0,3:2:0:0:
479,328,45330,1,0,3:0:0:0:
479,328,45539,2,0,L|406:357,1,60,6|8,1:2|3:2,2:0:0:0:
369,376,45955,1,8,2:0:0:0:
280,313,46372,1,4,1:0:0:0:
181,356,46789,1,8,2:0:0:0:
88,300,47205,6,0,L|66:229,1,60,8|8,2:3|2:0,2:0:0:0:
37,199,47622,2,0,L|55:128,1,60,4|0,2:3|1:0,2:0:0:0:
104,117,48039,5,4,1:0:0:0:
185,46,48455,1,8,2:0:0:0:
82,12,48872,1,8,2:3:0:0:
4,87,49289,2,0,L|24:152,1,60,4|0,2:3|1:0,2:0:0:0:
45,192,49705,1,0,1:0:0:0:
144,234,50122,2,0,L|126:316,1,60,8|0,2:1|3:0,2:0:0:0:
107,341,50539,1,0,1:0:0:0:
207,379,50955,2,0,L|280:364,1,60,8|8,2:1|2:3,2:0:0:0:
287,317,51372,5,4,1:0:0:0:
388,352,51788,2,0,P|431:334|446:332,1,60,0|0,3:0|1:0,2:0:0:0:
462,281,52205,2,0,P|483:224|455:159,1,120,8|0,3:2|3:0,2:0:0:0:
416,160,52830,1,0,1:0:0:0:
416,160,53038,1,0,3:2:0:0:
438,54,53455,1,0,1:0:0:0:
330,48,53872,2,0,L|202:76,1,120,8|0,3:2|3:2,2:0:0:0:
163,88,54497,1,0,3:2:0:0:
163,88,54705,5,0,1:2:0:0:
80,157,55122,1,0,3:0:0:0:
158,233,55538,1,8,3:2:0:0:
105,327,55955,2,0,P|67:327|47:303,1,60,0|0,1:0|3:2,2:0:0:0:
21,275,56372,1,0,3:2:0:0:
21,275,56580,1,0,3:2:0:0:
68,177,56997,1,8,3:2:0:0:
155,241,57413,1,8,1:3:0:0:
155,241,57622,2,0,L|221:229,1,60,8|8,1:3|1:3,2:0:0:0:
264,250,58038,5,0,1:3:0:0:
370,270,58455,2,0,P|388:252|392:206,1,60,2|0,3:0|1:0,2:0:0:0:
359,178,58872,1,8,3:2:0:0:
270,115,59288,2,0,L|210:137,1,60,0|0,3:2|1:0,2:0:0:0:
190,184,59705,1,0,3:2:0:0:
121,268,60122,1,0,1:0:0:0:
35,204,60538,2,0,L|46:134,1,60,8|0,3:2|1:0,2:0:0:0:
92,118,60955,2,0,L|82:58,1,60,0|0,3:2|3:2,2:0:0:0:
120,20,61372,6,0,P|161:36|255:48,1,120,0|0,1:0|3:2,2:0:0:0:
290,55,61997,1,0,1:0:0:0:
290,55,62205,1,8,3:2:0:0:
388,11,62622,2,0,L|411:77,1,60,0|0,1:0|3:2,2:0:0:0:
445,106,63038,1,0,1:3:0:0:
406,208,63455,1,8,2:1:0:0:
464,298,63872,2,0,P|437:325|394:325,1,60,0|2,3:0|3:2,2:0:0:0:
375,295,64288,2,0,L|314:286,1,60,8|0,2:1|2:0,2:0:0:0:
267,260,64705,5,4,1:0:0:0:
171,313,65122,1,8,2:3:0:0:
116,219,65538,2,0,L|44:244,2,60,8|8|8,2:3|2:3|2:3,2:0:0:0:
213,171,66372,2,0,P|216:117|167:70,1,120,8|8,1:3|2:3,2:0:0:0:
71,34,67205,1,8,2:3:0:0:
71,34,67413,2,0,P|46:60|39:108,1,60,10|14,1:3|1:3,2:0:0:0:
53,134,67830,1,0,2:0:0:0:
53,134,68038,6,0,P|185:120|186:120,1,120,4|8,1:0|2:3,2:0:0:0:
270,73,68872,1,8,2:3:0:0:
368,115,69288,1,8,2:3:0:0:
450,45,69705,2,0,L|474:116,1,60,8|8,1:3|1:3,2:0:0:0:
490,151,70122,1,8,2:3:0:0:
433,244,70538,1,8,2:3:0:0:
433,244,70747,2,0,L|424:330,1,60,10|14,1:3|1:3,2:0:0:0:
350,380,71372,6,0,P|300:358|217:366,1,120,4|8,1:0|2:3,2:0:0:0:
127,357,72205,1,8,2:3:0:0:
74,262,72622,1,8,2:3:0:0:
177,233,73038,2,0,P|196:203|196:164,1,60,8|8,1:3|1:3,2:0:0:0:
195,125,73455,1,8,2:3:0:0:
100,84,73872,1,8,2:3:0:0:
100,84,74080,2,0,P|79:111|71:154,1,60,10|10,1:3|1:3,2:0:0:0:
13,226,74705,6,0,P|26:257|41:355,1,120,4|8,1:0|2:0,2:0:0:0:
148,356,75538,1,0,1:0:0:0:
234,291,75955,1,8,2:0:0:0:
336,326,76372,2,0,L|320:398,2,60,0|0|8,1:0|1:0|2:0,2:0:0:0:
377,291,76997,1,8,2:0:0:0:
377,291,77205,2,0,P|418:296|452:347,2,80,8|8|8,2:0|2:0|2:0,2:0:0:0:
325,227,78039,5,4,1:0:0:0:
256,192,78143,12,0,81372,2:0:0:0:
35,76,91371,6,0,P|101:66|146:204,1,240,4|0,1:0|1:0,2:0:0:0:
25,382,93038,2,0,P|55:280|170:305,1,240,4|0,1:0|1:0,2:0:0:0:
380,328,94705,6,0,P|314:338|269:200,1,240,4|0,1:0|1:0,2:0:0:0:
295,154,95746,1,0,1:0:0:0:
295,154,95955,1,0,3:2:0:0:
327,51,96371,2,0,L|404:75,1,60,4|0,1:0|1:0,2:0:0:0:
438,66,96788,1,0,1:3:0:0:
491,159,97205,2,0,L|472:244,1,60,4|0,1:0|1:0,2:0:0:0:
441,257,97621,2,0,L|454:315,1,60,4|0,1:0|1:0,2:0:0:0:
436,367,98039,6,0,P|382:341|313:374,1,120,4|8,1:0|2:1,2:0:0:0:
274,346,98664,1,0,3:0:0:0:
168,322,99080,2,0,L|145:246,1,60,8|0,2:1|3:0,2:0:0:0:
117,222,99497,1,0,3:0:0:0:
117,222,99705,2,0,L|134:164,1,60,0|0,1:0|3:0,2:0:0:0:
180,136,100122,1,8,2:1:0:0:
117,47,100539,2,0,P|83:54|63:76,1,60,0|8,1:0|2:1,2:0:0:0:
20,101,100955,2,0,L|32:179,1,60,0|0,3:0|3:0,2:0:0:0:
64,201,101372,6,0,L|40:341,1,120,0|8,1:0|2:1,2:0:0:0:
148,361,102205,1,0,3:0:0:0:
148,361,102414,2,0,P|184:325|251:352,1,120,8|0,2:1|3:0,2:0:0:0:
297,355,103039,2,0,P|348:337|357:335,1,60,0|0,1:0|1:0,2:0:0:0:
387,293,103455,1,8,2:1:0:0:
451,207,103872,1,0,1:0:0:0:
451,207,104080,2,0,L|419:126,1,60,8|2,2:1|3:0,2:0:0:0:
388,124,104497,1,0,1:3:0:0:
388,124,104705,5,0,1:0:0:0:
422,24,105122,1,8,2:1:0:0:
315,12,105539,1,0,3:0:0:0:
315,12,105747,2,0,L|230:36,1,60,8|0,2:1|3:0,2:0:0:0:
217,64,106164,1,0,3:0:0:0:
217,64,106372,1,0,1:0:0:0:
113,32,106789,2,0,P|68:84|71:146,1,120,8|0,2:1|1:0,2:0:0:0:
105,170,107414,2,0,L|83:246,1,60,8|0,2:1|3:0,2:0:0:0:
95,285,107830,1,0,3:0:0:0:
95,285,108039,5,0,1:0:0:0:
201,304,108455,2,0,P|260:304|286:253,1,120,8|0,2:1|3:0,2:0:0:0:
266,204,109080,1,8,2:1:0:0:
307,106,109497,1,0,3:0:0:0:
307,106,109705,2,0,L|366:121,1,60,0|0,1:0|1:0,2:0:0:0:
414,143,110122,1,8,2:1:0:0:
470,234,110539,2,2,L|411:249,1,60,0|8,1:0|2:1,3:2:0:0:
368,280,110955,2,0,L|309:265,1,60,8|8,2:1|2:3,2:0:0:0:
266,233,111372,5,0,1:0:0:0:
172,286,111789,2,0,P|138:276|118:247,1,60,8|0,2:1|3:0,2:0:0:0:
119,204,112205,1,0,3:0:0:0:
119,204,112414,1,0,1:0:0:0:
42,128,112830,2,0,P|83:86|141:82,1,120,8|0,2:1|1:0,2:0:0:0:
232,151,113664,1,0,3:0:0:0:
232,151,113872,2,0,P|297:144|335:97,1,120,0|8,1:0|2:1,2:0:0:0:
369,66,114497,1,0,3:0:0:0:
369,66,114705,5,0,1:0:0:0:
459,125,115122,2,0,L|444:206,1,60,8|0,2:1|3:0,2:0:0:0:
440,240,115539,1,0,3:0:0:0:
440,240,115747,1,0,3:0:0:0:
337,272,116164,2,0,L|310:191,1,60,0|0,1:0|1:0,2:0:0:0:
283,173,116580,1,8,2:1:0:0:
287,68,116997,1,0,3:0:0:0:
287,68,117205,2,0,L|356:47,2,60,0|8|0,1:0|2:1|1:0,2:0:0:0:
237,61,117830,1,0,1:0:0:0:
237,61,118039,5,0,1:0:0:0:
128,61,118455,2,0,L|143:138,1,60,8|0,2:1|3:0,2:0:0:0:
123,173,118872,1,0,3:0:0:0:
123,173,119080,1,0,1:0:0:0:
173,268,119497,2,0,P|231:268|275:229,1,120,8|0,2:1|1:0,2:0:0:0:
311,131,120330,1,0,3:0:0:0:
311,131,120539,2,0,P|348:150|440:168,1,120,0|0,1:0|3:1,2:0:0:0:
474,199,121164,1,0,3:0:0:0:
474,199,121372,5,0,1:3:0:0:
422,294,121789,2,0,L|346:268,1,60,8|0,2:1|3:1,2:0:0:0:
313,290,122205,1,0,1:3:0:0:
313,290,122414,1,8,2:1:0:0:
222,231,122830,1,0,1:3:0:0:
222,231,123039,2,0,L|162:264,1,60,0|0,1:0|1:0,2:0:0:0:
119,239,123455,1,8,2:1:0:0:
55,151,123872,2,2,L|-10:175,2,60,0|8|8,1:0|2:1|2:1,3:2:0:0:
151,101,124705,5,4,1:2:0:0:
151,101,124914,2,0,L|337:135,1,180,0|0,1:0|2:0,2:0:0:0:
434,117,125955,2,0,L|445:56,2,60,0|0|0,2:0|2:0|2:0,2:0:0:0:
174,310,127622,2,0,L|185:371,2,60,0|0|4,2:0|2:0|1:0,2:0:0:0:
106,88,129289,2,0,L|117:27,2,60,0|0|4,2:0|2:0|2:0,2:0:0:0:
250,248,130539,1,0,2:0:0:0:
300,38,131372,5,4,2:0:0:0:
256,192,131788,12,0,137205,2:0:0:0:
256,192,138039,12,8,144705,2:1:0:0:
