osu file format v14

[General]
AudioFilename: audio.mp3
AudioLeadIn: 0
PreviewTime: 64601
Countdown: 0
SampleSet: Soft
StackLeniency: 0.4
Mode: 0
LetterboxInBreaks: 0
WidescreenStoryboard: 1

[Editor]
Bookmarks: 25643,51502,52335,99002,125773,152309
DistanceSpacing: 0.8
BeatDivisor: 6
GridSize: 32
TimelineZoom: 2.5

[Metadata]
Title:Termination of Desires
TitleUnicode:何妄何执
Artist:HOYO-MiX
ArtistUnicode:HOYO-MiX
Creator:ScubDomino
Version:Ducky's Insane
Source:Genshin Impact
Tags:Raiden Shogun Ei Beelzebul Baal Theme The Stellar Moments vol. volume 2 inaugural character album Mihoyo OST demo trailer Inazuma Shogunate Archons Archon instrumental electronic japanese folk orchestral trap video game games gacha electro 沢城みゆき miyuki sawashiro haruto -haruto aizawa haruto_aizawa 3772301 ascended -ascended- -_ascended_- 4564285 Mildly Accurate KnucklesGuy 7269198 Itsuki Hako hokichi hoki 6607303 Hiedraa Changes -Senko- Erisu Lanzhu 12469536 nemanjaduc AlwaysChoke Ducky- DuckyMomo 9351565 anime girl anime_girl jungkyuyoung natsume shiki natsume_shiki scub domino [keqing] 8972308 角色演示 「雷电将军:净土裁断」 雷電将軍 雷電影 らいでんしょうぐん らいでんえい Dimeng Yuan 苑迪萌 @HOYO-MiX Yu-Peng Chen Zhiyi 陈致逸 RPG action open world 原神 Yuánshén yuanshen fantasy Imperatrix Umbrosa Narukami Reign of Serenity Plane Euthymia Immortal Eternity Almighty Ogosho Shadow Kagemusha God Wy5Vq funny sled 89 おもしれーいそり89 奉使登终南山 wang wan At what vanity and what desires 妄念と執念
BeatmapID:3244497
BeatmapSetID:1585145

[Difficulty]
HPDrainRate:5
CircleSize:4
OverallDifficulty:8
ApproachRate:9
SliderMultiplier:1.8
SliderTickRate:0.5

[Events]
//Background and Video events
0,0,"Wy5Vq.jpg",0,0
//Break Periods
2,78239,83689
//Storyboard Layer 0 (Background)
//Storyboard Layer 1 (Fail)
//Storyboard Layer 2 (Pass)
//Storyboard Layer 3 (Foreground)
//Storyboard Layer 4 (Overlay)
//Storyboard Sound Samples
Sample,78664,0,"raiden.ogg",95

[TimingPoints]
1200,1121.4953271028,4,2,1,50,1,0
2321,970.873786407767,4,2,1,50,1,0
2806,736.196319018405,4,2,1,50,1,0
3174,598.503740648379,4,2,1,50,1,0
3772,536.912751677852,4,2,1,50,1,0
4040,664.819944598338,4,2,1,50,1,0
4706,833.333333333333,4,2,3,50,1,0
4706,-200,4,2,3,50,0,0
9705,-200,4,2,1,50,0,0
11372,-333.333333333333,4,2,1,65,0,0
12205,-333.333333333333,4,2,1,50,0,0
13038,-333.333333333333,4,2,1,65,0,0
13872,-333.333333333333,4,2,1,50,0,0
14705,-333.333333333333,4,2,1,65,0,0
15539,-333.333333333333,4,2,1,50,0,0
16372,-333.333333333333,4,2,1,65,0,0
17205,-333.333333333333,4,2,1,50,0,0
18039,-333.333333333333,4,2,1,65,0,0
18872,-133.333333333333,4,2,1,50,0,0
19705,-133.333333333333,4,2,1,65,0,0
20539,-133.333333333333,4,2,1,50,0,0
21372,-133.333333333333,4,2,1,65,0,0
21580,-100,4,2,1,65,0,0
23039,-100,4,2,1,75,0,0
23872,-66.6666666666667,4,2,1,75,0,0
24705,-66.6666666666667,4,2,1,70,0,0
24914,-50,4,2,1,70,0,0
33247,-41.6666666666667,4,2,1,70,0,0
35747,-50,4,2,1,70,0,0
38247,-66.6666666666667,4,2,1,70,0,0
41580,-50,4,2,1,70,0,0
42205,-66.6666666666667,4,2,1,70,0,0
48247,-66.6666666666667,4,2,1,75,0,0
48351,-66.6666666666667,4,2,2,75,0,0
48455,-66.6666666666667,4,2,1,80,0,0
48768,-66.6666666666667,4,2,2,80,0,0
48872,-66.6666666666667,4,2,1,90,0,0
49185,-66.6666666666667,4,2,2,90,0,0
49497,-66.6666666666667,4,2,1,90,0,0
49601,-66.6666666666667,4,2,2,90,0,0
49705,-66.6666666666667,4,2,3,95,0,0
51372,416.666666666667,4,2,2,95,1,0
52830,-133.333333333333,4,2,2,95,0,0
54080,-50,4,2,2,95,0,0
54288,-100,4,2,2,95,0,0
56788,-50,4,2,2,95,0,0
57413,-100,4,2,2,95,0,0
58663,-50,4,2,2,95,0,0
58872,-100,4,2,2,95,0,0
59705,-66.6666666666667,4,2,2,95,0,0
63767,-66.6666666666667,4,2,1,95,0,0
63872,-66.6666666666667,4,2,2,95,0,0
64080,-66.6666666666667,4,2,1,95,0,0
64184,-66.6666666666667,4,2,2,95,0,0
64288,-83.3333333333333,4,2,2,95,0,0
64393,-83.3333333333333,4,2,1,95,0,0
64705,-83.3333333333333,4,2,1,100,0,0
64913,-83.3333333333333,4,2,1,90,0,0
70955,-66.6666666666667,4,2,1,90,0,0
71788,-100,4,2,1,90,0,0
74288,-66.6666666666667,4,2,1,90,0,0
74913,-66.6666666666667,4,2,2,90,0,0
77622,-66.6666666666667,4,2,1,90,0,0
77760,-66.6666666666667,4,2,2,90,0,0
77899,-66.6666666666667,4,2,1,90,0,0
78039,1666.66666666667,4,2,1,80,1,0
84705,833.333333333333,4,2,1,80,1,0
87621,-100,4,2,1,60,0,0
87830,-100,4,2,1,80,0,0
94705,-100,4,2,1,85,0,0
95538,-71.4285714285714,4,2,1,85,0,0
96371,-55.5555555555556,4,2,1,90,0,0
98039,416.666666666667,4,2,2,95,1,0
98039,-66.6666666666667,4,2,2,95,0,0
100122,-55.5555555555556,4,2,2,95,0,0
101789,-66.6666666666667,4,2,2,95,0,0
102414,-55.5555555555556,4,2,2,95,0,0
103039,-66.6666666666667,4,2,2,95,0,0
103455,-55.5555555555556,4,2,2,95,0,0
103872,-66.6666666666667,4,2,2,95,0,0
104080,-55.5555555555556,4,2,2,95,0,0
104705,-50,4,2,2,95,0,0
105122,-55.5555555555556,4,2,2,95,0,0
105539,-66.6666666666667,4,2,2,95,0,0
105747,-55.5555555555556,4,2,2,95,0,0
106789,-66.6666666666667,4,2,2,95,0,0
107414,-55.5555555555556,4,2,2,95,0,0
108039,-50,4,2,2,95,0,0
108455,-55.5555555555556,4,2,2,95,0,0
108872,-66.6666666666667,4,2,2,95,0,0
109080,-55.5555555555556,4,2,2,95,0,0
109705,-50,4,2,3,85,0,0
110539,-66.6666666666667,4,2,3,85,0,0
111059,-55.5555555555556,4,2,3,85,0,0
111372,-66.6666666666667,4,2,2,95,0,0
111789,-55.5555555555556,4,2,2,95,0,0
112101,-66.6666666666667,4,2,2,95,0,0
113872,-50,4,2,2,95,0,0
114705,-66.6666666666667,4,2,2,95,0,0
116164,-55.5555555555556,4,2,2,95,0,0
116893,-66.6666666666667,4,2,2,95,0,0
117414,-55.5555555555556,4,2,2,95,0,0
118039,-50,4,2,2,95,0,0
118455,-55.5555555555556,4,2,2,95,0,0
119080,-66.6666666666667,4,2,2,95,0,0
120226,-55.5555555555556,4,2,2,95,0,0
120539,-66.6666666666667,4,2,2,95,0,0
120747,-55.5555555555556,4,2,2,95,0,0
121372,-133.333333333333,4,2,2,95,0,0
121789,-55.5555555555556,4,2,2,95,0,0
122205,-66.6666666666667,4,2,2,95,0,0
123039,-50,4,2,3,95,0,0
124705,-50,4,2,1,100,0,0
124914,-50,4,2,1,85,0,0
131372,833.333333333333,4,2,3,75,1,0
133038,-100,4,2,3,65,0,0
134705,-222.222222222222,4,2,3,55,0,0
138039,1666.66666666667,4,2,1,50,1,0
138039,-1000,4,2,1,50,0,0

[Colours]
Combo1 : 219,205,187
Combo2 : 122,101,167
Combo3 : 192,116,183
Combo4 : 219,181,198

[HitObjects]
23,351,1200,5,0,2:0:0:0:
30,340,2321,1,0,2:0:0:0:
47,348,2806,1,0,2:0:0:0:
56,324,3174,1,0,2:0:0:0:
87,335,3473,1,0,2:0:0:0:
108,298,3772,1,0,2:0:0:0:
154,306,4040,1,0,2:0:0:0:
240,285,4483,2,0,L|274:296,1,30,0|0,2:0|2:0,2:0:0:0:
283,291,4706,6,0,P|295:234|306:205,1,90,4|0,2:0|2:0,2:0:0:0:
491,4,5956,1,0,2:0:0:0:
491,4,6164,1,0,2:0:0:0:
446,71,6372,6,0,P|401:63|353:53,1,90,2|0,2:0|2:0,2:0:0:0:
93,76,7622,1,0,2:0:0:0:
93,76,7830,1,0,2:0:0:0:
158,18,8039,6,0,P|166:53|195:116,1,90,2|0,2:1|2:0,2:0:0:0:
362,279,9289,1,0,2:0:0:0:
362,279,9497,1,0,2:0:0:0:
430,240,9705,6,0,P|413:198|399:138,1,90,2|0,2:1|2:0,2:0:0:0:
60,309,11164,1,0,2:0:0:0:
60,309,11372,2,0,L|115:296,2,54.0000000000001,4|0|0,1:0|1:0|1:0,2:0:0:0:
363,362,13872,1,0,1:0:0:0:
363,362,14289,1,0,2:0:0:0:
482,384,14705,5,4,1:0:0:0:
432,327,15539,1,0,1:0:0:0:
464,257,16372,2,0,L|469:228,1,27,0|0,1:0|2:0,2:0:0:0:
486,160,17205,1,0,1:0:0:0:
411,138,17622,1,0,2:0:0:0:
339,120,18039,5,4,1:0:0:0:
281,8,18455,1,0,2:0:0:0:
281,8,18664,1,0,2:0:0:0:
209,65,18872,6,0,L|203:95,1,16.875,0|0,1:0|2:0,2:0:0:0:
215,75,19080,2,0,L|209:105,1,16.875,0|0,1:0|2:0,2:0:0:0:
59,161,19705,6,0,L|65:191,1,16.875,0|0,1:0|2:0,2:0:0:0:
53,171,19914,2,0,L|59:201,1,16.875,0|0,1:0|2:0,2:0:0:0:
204,310,20539,6,0,L|198:340,1,16.875,0|0,1:0|2:0,2:0:0:0:
210,320,20747,2,0,L|204:350,1,16.875,0|0,1:0|2:0,2:0:0:0:
0,375,21372,5,4,1:0:0:0:
32,302,21580,2,0,P|72:297|125:285,1,90,0|0,1:0|2:0,2:0:0:0:
226,185,22205,5,0,1:0:0:0:
247,264,22414,1,0,1:0:0:0:
512,275,23039,5,4,1:0:0:0:
486,384,23247,1,0,1:0:0:0:
270,384,23664,5,0,1:0:0:0:
274,371,23872,6,0,L|265:325,1,33.75,4|0,1:0|2:0,2:0:0:0:
351,328,24080,6,0,L|360:282,1,33.75,0|0,1:0|2:0,2:0:0:0:
265,225,24289,6,0,L|256:179,1,33.75,0|0,1:0|2:0,2:0:0:0:
394,168,24497,6,0,L|403:122,1,33.75,0|0,1:0|2:0,2:0:0:0:
212,109,24705,5,6,1:0:0:0:
278,17,24914,2,0,L|76:56,1,180,0|0,1:0|1:0,2:0:0:0:
0,134,25539,2,0,P|44:126|86:246,1,180,10|0,2:0|2:0,2:0:0:0:
460,384,26372,5,4,1:0:0:0:
342,300,26580,1,0,1:0:0:0:
445,92,27205,2,0,L|413:295,1,180,4|4,2:0|1:3,2:0:0:0:
191,11,28039,5,12,1:0:0:0:
348,58,28247,1,0,1:0:0:0:
118,287,28664,1,0,1:0:0:0:
118,287,28872,2,0,P|176:271|257:260,1,135,10|0,2:0|2:0,2:0:0:0:
370,273,29289,2,0,P|325:229|276:165,1,135,0|0,2:0|2:0,2:0:0:0:
166,59,29705,5,4,1:0:0:0:
166,59,29914,1,0,1:0:0:0:
218,112,30122,2,0,P|205:162|178:226,1,90,0|0,2:0|1:0,2:0:0:0:
314,136,30539,5,4,2:0:0:0:
314,136,30747,1,0,1:0:0:0:
388,136,30955,2,0,P|414:180|441:244,1,90,4|0,3:0|1:0,2:0:0:0:
316,384,31372,5,6,1:0:0:0:
435,319,31580,1,0,1:0:0:0:
101,272,32205,5,10,2:0:0:0:
170,316,32414,1,0,1:0:0:0:
435,319,32622,6,0,P|416:314|326:288,1,90,0|0,2:0|2:0,2:0:0:0:
374,384,33039,1,4,1:0:0:0:
374,384,33247,2,0,P|386:292|424:147,1,216,0|0,1:0|1:0,2:0:0:0:
415,172,33872,5,4,2:0:0:0:
350,109,34080,1,0,3:0:0:0:
275,209,34289,1,4,1:3:0:0:
267,37,34497,1,0,1:0:0:0:
147,297,34705,5,12,1:0:0:0:
147,297,34914,1,0,1:0:0:0:
21,142,35539,5,10,2:0:0:0:
21,142,35747,2,0,B|44:135|44:135|49:139|49:139|78:129|78:129|82:133|82:133|103:125|103:125|108:129|108:129|133:120|133:120|139:123|139:123|163:113|163:113|169:117|169:117|212:109,1,180,0|0,1:0|2:0,2:0:0:0:
381,82,36372,5,4,1:0:0:0:
267,37,36580,1,0,1:0:0:0:
216,358,37205,1,4,2:0:0:0:
216,358,37414,1,0,1:0:0:0:
327,384,37622,5,4,3:0:0:0:
281,305,37830,1,0,1:0:0:0:
451,206,38039,1,6,1:0:0:0:
387,301,38247,6,0,P|360:210|344:142,1,135,0|0,1:0|1:0,2:0:0:0:
399,25,38872,5,10,2:0:0:0:
327,90,39080,1,0,1:0:0:0:
0,27,39705,5,4,1:0:0:0:
141,62,39914,1,0,1:0:0:0:
26,327,40539,5,4,2:0:0:0:
26,327,40747,1,0,3:0:0:0:
253,109,40955,1,4,1:3:0:0:
253,109,41164,1,0,1:0:0:0:
91,112,41372,5,12,1:0:0:0:
115,189,41580,2,0,L|331:244,1,180,0|0,1:0|1:0,2:0:0:0:
453,384,42205,6,0,L|428:302,1,67.5,10|0,2:0|1:0,2:0:0:0:
374,264,42622,2,0,L|389:178,1,67.5,0|0,2:0|2:0,2:0:0:0:
485,23,43039,5,4,1:0:0:0:
485,23,43247,1,0,1:0:0:0:
440,94,43455,2,0,L|356:123,1,67.5,0|0,2:0|1:0,2:0:0:0:
199,264,43872,5,4,2:0:0:0:
199,264,44080,1,0,1:0:0:0:
244,193,44289,2,0,L|328:164,1,67.5,4|0,3:0|1:0,2:0:0:0:
512,383,44705,5,6,1:0:0:0:
420,357,44914,1,0,3:2:0:0:
292,330,45122,1,8,2:0:0:0:
162,303,45330,1,0,3:0:0:0:
162,303,45435,1,0,2:0:0:0:
162,303,45539,1,6,1:2:0:0:
132,212,45747,1,8,3:2:0:0:
272,40,45955,5,8,2:0:0:0:
281,72,46060,1,0,2:0:0:0:
282,105,46164,1,0,1:0:0:0:
270,136,46268,1,0,2:0:0:0:
251,164,46372,5,4,1:0:0:0:
343,147,46580,1,8,2:0:0:0:
408,78,46789,1,8,2:0:0:0:
500,61,46997,1,0,1:0:0:0:
322,16,47205,5,8,2:3:0:0:
344,135,47414,1,8,2:0:0:0:
433,220,47622,1,4,2:3:0:0:
455,339,47830,1,0,1:0:0:0:
439,208,48039,5,4,1:0:0:0:
311,218,48247,1,8,2:0:0:0:
300,224,48351,1,0,3:0:0:0:
291,229,48455,1,8,2:0:0:0:
177,237,48664,1,0,1:0:0:0:
166,246,48768,1,0,3:0:0:0:
156,253,48872,1,8,2:3:0:0:
0,237,49080,5,8,2:0:0:0:
44,226,49185,1,0,3:0:0:0:
85,218,49289,1,4,2:3:0:0:
130,209,49393,1,0,3:0:0:0:
170,201,49497,1,0,1:0:0:0:
215,190,49601,1,0,3:0:0:0:
255,183,49705,6,0,L|298:175,1,33.75,0|0,1:0|2:0,2:0:0:0:
367,185,49914,2,2,L|410:177,1,33.75,0|0,1:0|2:0,3:2:0:0:
479,204,50122,1,8,2:1:0:0:
479,204,50261,1,0,2:0:0:0:
507,0,50539,6,2,L|496:61,1,33.75,0|0,1:0|2:0,3:2:0:0:
428,13,50747,2,0,L|417:74,1,33.75,8|0,2:1|2:0,2:0:0:0:
348,38,50955,1,8,2:1:0:0:
348,38,51094,1,0,2:0:0:0:
0,156,51372,5,4,1:0:0:0:
0,156,51580,1,0,3:0:0:0:
63,111,51788,1,0,3:0:0:0:
140,137,51997,1,0,1:0:0:0:
203,90,52205,1,8,3:2:0:0:
480,115,52830,6,0,L|326:164,1,135,0|0,1:0|3:0,2:0:0:0:
326,303,53455,6,0,L|276:197,1,101.25,0|0,1:0|2:0,2:0:0:0:
278,191,53872,5,8,3:2:0:0:
79,173,54080,6,0,L|171:155,1,90,0|0,1:0|2:0,2:0:0:0:
201,52,54288,2,0,L|178:163,2,90,0|0|0,3:2|3:2|1:2,2:0:0:0:
438,384,55330,5,0,1:0:0:0:
512,319,55538,2,0,L|371:296,1,135,8|0,3:2|2:0,2:0:0:0:
187,362,55955,1,0,1:0:0:0:
273,336,56163,1,0,3:2:0:0:
300,269,56372,1,0,3:2:0:0:
294,215,56580,1,0,3:2:0:0:
262,170,56788,6,0,B|257:147|272:126|272:126|281:147|271:170,1,90,0|0,1:0|2:0,2:0:0:0:
215,230,56997,1,8,3:2:0:0:
357,168,57205,1,0,3:2:0:0:
142,8,57413,6,0,L|202:21,1,45,8|8,1:3|2:3,2:0:0:0:
161,0,57622,2,0,L|221:13,1,45,8|0,1:3|2:0,2:0:0:0:
275,34,57830,1,8,1:3:0:0:
104,179,58038,5,0,1:3:0:0:
104,179,58247,2,0,L|117:288,1,90,2|2,3:0|3:0,2:0:0:0:
274,370,58663,6,0,L|381:352,1,90,0|0,1:0|2:0,2:0:0:0:
490,346,58872,2,0,P|368:319|336:309,1,135,8|0,3:2|2:0,2:0:0:0:
312,260,59288,5,0,3:2:0:0:
186,327,59497,1,0,1:0:0:0:
38,369,59705,6,0,P|48:312|110:171,1,202.5,0|0,3:2|2:0,2:0:0:0:
184,182,60122,2,0,B|171:127|217:120|179:40,1,135,0|0,1:0|3:2,2:0:0:0:
75,0,60538,5,8,3:2:0:0:
117,100,60747,1,0,1:0:0:0:
328,142,60955,5,0,3:2:0:0:
236,114,61163,1,0,3:2:0:0:
133,283,61372,5,0,1:0:0:0:
260,260,61580,1,0,3:2:0:0:
387,237,61788,1,0,3:2:0:0:
404,247,61997,1,0,1:0:0:0:
212,383,62205,6,0,L|247:211,1,135,8|0,3:2|3:2,2:0:0:0:
185,173,62622,5,0,1:0:0:0:
328,142,62830,1,0,3:2:0:0:
230,13,63038,5,0,1:3:0:0:
196,48,63142,5,0,3:0:0:0:
155,33,63247,5,0,3:0:0:0:
117,67,63351,5,0,3:0:0:0:
70,62,63455,5,8,2:1:0:0:
43,106,63559,5,0,3:0:0:0:
61,152,63663,5,2,3:0:0:0:
29,184,63767,5,2,3:2:0:0:
42,237,63872,5,0,3:0:0:0:
27,284,63976,5,2,3:0:0:0:
48,321,64080,5,2,3:2:0:0:
31,367,64184,5,0,3:0:0:0:
44,384,64288,6,0,L|228:347,1,162,8|0,2:1|2:0,2:0:0:0:
280,376,64705,5,4,1:0:0:0:
318,230,64913,1,0,1:0:0:0:
356,84,65122,1,8,2:3:0:0:
356,84,65955,1,8,2:3:0:0:
262,153,66372,5,8,1:3:0:0:
262,153,66580,1,8,1:3:0:0:
356,84,66788,5,8,2:3:0:0:
189,56,67205,1,8,2:3:0:0:
161,223,67413,1,10,1:3:0:0:
161,223,67622,1,14,1:3:0:0:
389,384,68038,5,4,1:0:0:0:
463,346,68247,1,0,1:0:0:0:
463,346,68351,1,8,2:3:0:0:
463,346,68455,1,8,2:3:0:0:
454,262,68663,1,8,2:3:0:0:
343,215,68872,1,8,2:3:0:0:
343,215,68976,1,8,2:3:0:0:
343,215,69080,1,8,2:3:0:0:
327,295,69288,2,0,L|257:310,1,54,8|0,2:3|2:0,2:0:0:0:
206,358,69497,1,8,2:3:0:0:
206,358,69601,1,8,2:3:0:0:
206,358,69705,5,8,1:3:0:0:
153,282,69913,1,8,1:3:0:0:
153,282,70017,1,8,2:3:0:0:
153,282,70122,1,8,2:3:0:0:
58,299,70330,1,8,2:3:0:0:
4,220,70538,1,8,2:3:0:0:
4,220,70642,1,8,2:3:0:0:
4,220,70747,2,0,L|69:202,1,54,10|0,1:3|2:0,2:0:0:0:
234,205,70955,6,0,P|122:160|107:49,1,202.5,14|0,1:3|2:0,2:0:0:0:
32,49,71372,1,4,1:0:0:0:
32,49,71580,1,0,1:0:0:0:
218,0,71788,6,0,L|202:119,1,90,8|8,2:3|2:3,2:0:0:0:
264,152,72205,1,8,2:3:0:0:
264,152,72309,1,8,2:3:0:0:
264,152,72413,1,8,2:3:0:0:
326,105,72622,1,8,2:3:0:0:
398,152,72830,1,8,2:3:0:0:
398,152,72934,1,8,2:3:0:0:
398,152,73038,6,0,L|386:207,1,45,8|0,1:3|2:0,2:0:0:0:
407,163,73247,2,0,L|395:218,1,45,8|8,1:3|2:3,2:0:0:0:
437,277,73455,5,8,2:3:0:0:
395,357,73663,1,8,2:3:0:0:
300,384,73872,1,8,2:3:0:0:
300,384,73976,1,8,2:3:0:0:
300,384,74080,2,0,L|282:313,1,45,10|0,1:3|2:0,2:0:0:0:
344,265,74288,6,0,P|249:241|203:144,1,202.5,10|0,1:3|2:0,2:0:0:0:
278,125,74705,1,4,1:0:0:0:
278,125,74913,1,0,1:0:0:0:
0,0,75122,6,0,B|4:17|4:17|196:52,1,202.5,8|0,2:0|2:0,2:0:0:0:
198,69,75538,2,0,B|210:57|210:57|284:43,1,67.5,0|0,1:0|2:0,2:0:0:0:
283,27,75747,2,0,B|295:15|295:15|369:1,1,67.5,0|0,1:0|2:0,2:0:0:0:
498,160,75955,6,0,B|494:177|494:177|302:212,1,202.5,8|0,2:0|2:0,2:0:0:0:
300,229,76372,2,0,B|288:217|288:217|214:203,1,67.5,0|0,1:0|2:0,2:0:0:0:
215,187,76580,2,0,B|203:175|203:175|129:161,1,67.5,0|0,1:0|2:0,2:0:0:0:
253,367,76788,6,0,B|268:345|268:345|249:388,1,67.5,8|0,2:0|2:0,2:0:0:0:
267,116,76997,6,0,B|251:94|251:94|270:137,1,67.5,8|0,2:0|2:0,2:0:0:0:
104,296,77205,6,0,L|140:288,2,33.75,8|8|8,2:0|2:0|2:0,2:0:0:0:
213,270,77483,5,8,2:0:0:0:
321,304,77622,5,0,1:0:0:0:
391,213,77760,5,8,2:0:0:0:
499,247,77899,5,0,1:0:0:0:
438,356,78039,5,4,1:0:0:0:
44,345,84289,5,0,1:0:0:0:
44,345,84497,1,0,1:0:0:0:
66,239,84705,1,4,1:0:0:0:
493,202,85538,5,0,2:0:0:0:
418,193,86371,1,0,1:0:0:0:
493,202,87205,1,0,2:0:0:0:
129,0,87621,5,0,1:0:0:0:
129,0,87830,1,0,1:0:0:0:
177,104,88038,1,4,1:0:0:0:
290,384,88871,5,0,2:0:0:0:
313,311,89705,1,0,1:0:0:0:
0,148,90538,5,0,1:0:0:0:
75,118,90746,1,0,1:0:0:0:
505,81,91371,5,4,1:0:0:0:
505,81,91580,2,0,P|436:121|373:149,1,135,0|0,1:0|1:0,2:0:0:0:
206,311,93038,5,4,1:0:0:0:
206,311,93246,2,0,P|275:271|338:243,1,135,0|0,1:0|1:0,2:0:0:0:
16,130,94705,5,4,1:0:0:0:
16,130,94913,1,0,1:0:0:0:
183,75,95121,1,0,3:0:0:0:
183,75,95330,1,0,3:0:0:0:
123,187,95538,6,0,L|168:198,1,31.5,0|0,1:0|2:0,2:0:0:0:
188,262,95746,2,0,L|233:273,1,31.5,0|0,1:0|2:0,2:0:0:0:
265,384,95955,6,0,L|310:373,1,31.5,0|0,3:2|2:0,2:0:0:0:
330,309,96163,2,0,L|375:298,1,31.5,0|0,3:0|2:0,2:0:0:0:
512,115,96371,6,0,L|503:189,1,40.5,4|0,1:0|2:0,2:0:0:0:
496,236,96580,1,0,1:0:0:0:
372,17,96788,6,0,L|401:85,1,40.5,0|0,1:3|2:0,2:0:0:0:
418,129,96996,1,0,3:0:0:0:
114,203,97205,6,0,L|161:192,1,40.5,4|0,1:0|2:0,2:0:0:0:
321,150,97413,2,0,L|281:159,1,40.5,0|0,1:0|2:0,2:0:0:0:
52,108,97621,6,0,L|122:124,1,40.5,4|0,1:0|2:0,2:0:0:0:
425,203,97829,2,0,L|353:186,1,40.5,0|0,1:0|2:0,2:0:0:0:
196,384,98039,6,0,L|211:298,1,67.5,4|0,1:0|3:0,2:0:0:0:
235,176,98247,1,0,3:0:0:0:
235,176,98351,1,0,3:0:0:0:
235,176,98455,2,0,L|269:261,1,67.5,8|0,2:1|3:0,2:0:0:0:
352,334,98664,2,0,L|265:304,1,67.5,0|2,3:0|1:3,2:0:0:0:
62,284,98872,6,0,L|313:226,1,202.5,0|0,3:0|3:0,2:0:0:0:
351,249,99289,2,0,L|368:165,1,67.5,0|2,3:0|3:0,2:0:0:0:
382,69,99497,1,0,3:0:0:0:
387,73,99601,1,2,3:0:0:0:
392,78,99705,2,0,L|444:154,1,67.5,0|0,1:0|3:0,2:0:0:0:
497,204,99914,2,0,L|410:224,1,67.5,0|0,3:0|3:0,2:0:0:0:
316,294,100122,6,0,P|273:250|157:250,1,162,8|0,2:1|3:0,2:0:0:0:
53,304,100434,1,2,3:0:0:0:
65,314,100539,2,0,B|102:273|102:273|78:237,1,80.9999999999999,0|0,1:0|3:0,2:0:0:0:
129,85,100747,2,0,L|185:269,1,162,8|0,2:1|3:0,2:0:0:0:
223,354,101059,1,2,3:0:0:0:
227,350,101164,1,0,3:0:0:0:
233,346,101268,1,2,3:0:0:0:
238,342,101372,6,0,L|318:364,1,80.9999999999999,0|0,1:0|3:0,2:0:0:0:
392,348,101580,2,0,L|472:370,1,80.9999999999999,0|0,1:0|3:0,2:0:0:0:
436,260,101789,6,0,B|419:205|419:205|331:314,1,135,8|0,2:1|3:0,2:0:0:0:
316,363,102101,2,0,L|292:284,1,67.5,2|0,1:3|3:0,2:0:0:0:
315,177,102309,1,0,3:0:0:0:
319,186,102414,2,0,L|172:280,1,162,8|0,2:1|3:0,2:0:0:0:
62,368,102726,1,2,3:0:0:0:
69,372,102830,1,0,3:0:0:0:
78,376,102934,1,2,3:0:0:0:
89,383,103039,6,0,B|125:306,1,67.5,0|0,1:0|3:0,2:0:0:0:
68,256,103247,2,0,L|43:177,1,67.5,0|0,1:0|3:0,2:0:0:0:
163,142,103455,2,0,L|133:322,1,162,8|0,2:1|3:0,2:0:0:0:
327,315,103768,1,2,3:0:0:0:
334,323,103872,2,0,L|404:305,1,67.5,0|0,1:0|3:0,2:0:0:0:
260,384,104080,2,0,L|223:174,1,162,8|2,2:1|3:0,2:0:0:0:
365,140,104393,5,8,2:1:0:0:
354,125,104497,1,0,1:3:0:0:
371,109,104601,1,2,3:0:0:0:
350,90,104705,6,0,L|263:113,1,90,0|0,1:0|3:0,2:0:0:0:
122,38,104914,2,0,L|36:63,1,90,0|0,3:0|3:0,2:0:0:0:
210,0,105122,2,0,L|170:196,1,162,8|0,2:1|3:0,2:0:0:0:
227,275,105434,1,2,1:3:0:0:
229,259,105539,2,0,L|133:236,1,67.5,0|0,3:0|3:0,2:0:0:0:
13,184,105747,2,0,B|33:200|33:200|200:159,1,162,8|0,2:1|3:0,2:0:0:0:
293,144,106059,1,2,3:0:0:0:
310,142,106164,1,0,3:0:0:0:
322,140,106268,1,2,3:0:0:0:
337,140,106372,6,0,B|361:190|361:190|321:327,1,162,0|0,1:0|3:0,2:0:0:0:
378,384,106684,1,0,3:0:0:0:
388,371,106789,2,0,B|336:331|336:331|235:360,1,135,8|0,2:1|3:0,2:0:0:0:
107,243,107101,1,2,3:0:0:0:
100,255,107205,2,0,L|129:327,1,67.5,0|0,1:0|3:0,2:0:0:0:
191,384,107414,2,0,L|211:191,1,162,8|0,2:1|3:0,2:0:0:0:
247,43,107726,6,0,P|249:121|162:76,1,202.5,2|0,3:0|2:0,2:0:0:0:
155,71,108039,2,0,B|99:48|99:48|138:57,1,90,0|0,1:0|3:0,2:0:0:0:
20,119,108247,2,0,B|11:178|11:178|23:140,1,90,0|0,1:0|3:0,2:0:0:0:
147,257,108455,6,0,L|122:154,1,80.9999999999999,8|0,2:1|3:0,2:0:0:0:
21,262,108664,1,0,3:0:0:0:
19,270,108768,1,2,1:3:0:0:
17,278,108872,2,0,L|76:310,1,67.5,0|0,3:0|3:0,2:0:0:0:
251,356,109080,6,0,L|58:391,1,162,8|0,2:1|3:0,2:0:0:0:
147,257,109393,1,2,3:0:0:0:
155,266,109497,2,0,L|245:283,1,80.9999999999999,0|2,3:0|3:0,2:0:0:0:
364,384,109705,6,0,L|376:235,1,135,0|0,1:0|2:0,2:0:0:0:
398,258,109914,6,2,L|386:109,1,135,0|0,1:0|2:0,3:2:0:0:
407,103,110122,6,0,L|198:54,1,180,8|0,2:1|3:0,2:0:0:0:
113,0,110434,1,0,2:0:0:0:
118,15,110539,2,2,L|148:80,1,67.5,0|0,1:0|2:0,3:2:0:0:
231,227,110747,6,0,L|254:138,1,67.5,8|0,2:1|2:0,2:0:0:0:
153,166,110955,1,8,2:1:0:0:
151,180,111059,2,0,L|-16:244,1,162,8|4,2:1|2:3,2:0:0:0:
123,287,111372,6,0,L|192:314,1,67.5,0|0,1:0|3:0,2:0:0:0:
251,384,111580,2,0,L|279:300,1,67.5,2|0,1:3|3:0,2:0:0:0:
259,200,111789,2,0,B|266:227|266:227|427:285,1,162,8|0,2:1|3:0,2:0:0:0:
451,363,112101,2,0,L|488:230,1,135,2|0,1:3|3:0,2:0:0:0:
456,165,112414,2,0,L|374:182,1,67.5,0|0,1:0|3:0,2:0:0:0:
322,55,112622,1,0,3:0:0:0:
327,49,112726,1,2,3:0:0:0:
332,43,112830,6,0,L|374:177,1,135,8|0,2:1|3:0,2:0:0:0:
247,129,113143,1,0,3:0:0:0:
242,123,113247,2,0,L|200:257,1,135,0|0,1:0|3:0,2:0:0:0:
120,287,113559,6,0,L|52:270,1,67.5,8|0,2:1|3:0,2:0:0:0:
127,378,113768,1,2,3:0:0:0:
139,373,113872,2,0,B|193:350|193:350|143:352,1,90,0|0,1:0|3:0,2:0:0:0:
280,310,114080,2,0,B|334:333|334:333|284:331,1,90,0|0,1:0|3:0,2:0:0:0:
201,251,114289,6,0,L|248:234,1,45,8|0,2:1|2:0,2:0:0:0:
191,244,114393,6,0,L|138:48,1,180,2|2,1:3|3:0,2:0:0:0:
196,8,114705,6,0,L|271:26,1,67.5,0|0,1:0|3:0,2:0:0:0:
362,0,114914,2,0,L|337:81,1,67.5,0|0,1:0|3:0,2:0:0:0:
271,157,115122,2,0,L|478:129,1,202.5,8|2,2:1|1:3,2:0:0:0:
512,200,115539,6,0,L|497:275,1,67.5,0|0,3:0|3:0,2:0:0:0:
445,328,115747,1,0,3:0:0:0:
450,337,115851,1,0,3:0:0:0:
446,353,115955,2,0,L|402:278,1,67.5,0|2,3:0|3:0,2:0:0:0:
252,312,116164,6,0,L|334:290,1,80.9999999999999,0|2,1:0|3:0,2:0:0:0:
423,223,116372,2,0,L|346:180,1,80.9999999999999,0|0,1:0|3:0,2:0:0:0:
303,98,116580,2,0,B|255:220|255:220|221:221,1,162,8|0,2:1|3:0,2:0:0:0:
198,147,116893,2,0,L|132:161,1,67.5,0|0,1:0|3:0,2:0:0:0:
64,96,117101,1,8,2:1:0:0:
67,86,117205,2,0,L|-30:63,1,67.5,0|0,1:0|3:0,2:0:0:0:
164,3,117414,6,0,L|130:173,1,162,8|0,2:1|1:0,2:0:0:0:
54,204,117726,1,8,2:1:0:0:
47,215,117830,2,0,L|95:320,1,80.9999999999999,0|2,1:0|3:0,2:0:0:0:
163,376,118039,6,0,B|187:340|187:340|118:358,1,90,0|0,1:0|3:0,2:0:0:0:
370,313,118247,2,0,B|361:270|361:270|337:310,1,90,2|0,1:3|3:0,2:0:0:0:
273,384,118455,6,0,L|235:208,1,162,8|0,2:1|3:0,2:0:0:0:
344,112,118768,1,2,1:3:0:0:
334,127,118872,2,0,L|252:141,1,80.9999999999999,0|0,3:0|3:0,2:0:0:0:
114,182,119080,2,0,L|258:221,1,135,0|0,1:0|3:0,2:0:0:0:
412,209,119393,1,2,3:0:0:0:
403,222,119497,2,0,L|328:239,1,67.5,8|2,2:1|3:0,2:0:0:0:
244,369,119705,5,0,3:0:0:0:
248,365,119809,1,0,3:0:0:0:
252,361,119914,2,0,L|279:290,1,67.5,0|0,1:0|3:0,2:0:0:0:
244,217,120122,1,0,3:0:0:0:
257,204,120226,2,0,L|227:35,1,162,8|2,2:1|3:0,2:0:0:0:
348,0,120539,2,0,L|313:70,1,67.5,0|0,1:0|3:0,2:0:0:0:
370,129,120747,6,0,L|538:39,1,162,8|0,2:1|3:1,2:0:0:0:
512,195,121059,1,2,1:3:0:0:
493,192,121164,2,0,L|445:103,1,80.9999999999999,0|2,3:0|3:0,2:0:0:0:
399,200,121372,2,0,L|389:236,1,33.7500000000001,0|0,1:3|3:1,2:0:0:0:
409,216,121580,2,0,L|399:252,1,33.7500000000001,0|0,3:1|3:1,2:0:0:0:
469,384,121789,6,0,B|454:356|454:356|322:299,1,162,8|0,2:1|3:1,2:0:0:0:
216,375,122101,1,2,3:0:0:0:
236,384,122205,2,0,B|266:356|266:356|262:329,1,67.5,0|0,1:3|3:1,2:0:0:0:
141,273,122414,2,0,L|302:241,1,135,8|0,2:1|3:1,2:0:0:0:
421,111,122726,1,2,3:0:0:0:
416,116,122830,1,0,1:3:0:0:
410,122,122934,1,2,3:0:0:0:
402,128,123039,6,0,B|336:102|336:102|351:83,1,90,0|0,1:0|2:0,2:0:0:0:
330,191,123247,2,2,B|264:217|264:217|279:236,1,90,0|0,1:0|2:0,3:2:0:0:
261,127,123455,2,0,B|164:20|164:20|113:-2,1,180,8|0,2:1|3:0,2:0:0:0:
30,85,123768,1,0,2:0:0:0:
24,96,123872,6,2,L|145:73,1,90,0|0,1:0|2:0,3:2:0:0:
221,18,124080,2,0,L|342:-5,1,90,8|0,2:1|2:0,2:0:0:0:
508,104,124289,5,8,2:1:0:0:
485,86,124393,1,8,2:1:0:0:
453,110,124497,1,8,2:3:0:0:
412,80,124601,1,4,2:3:0:0:
394,90,124705,5,4,1:2:0:0:
282,273,124914,1,0,1:0:0:0:
0,22,125955,5,0,2:0:0:0:
66,84,126164,1,0,2:0:0:0:
164,89,126372,1,0,2:0:0:0:
512,223,127622,5,0,2:0:0:0:
446,285,127830,1,0,2:0:0:0:
348,290,128039,6,0,B|320:258|320:258|334:312,1,90,4|0,1:0|2:0,2:0:0:0:
435,373,128247,2,0,B|437:330|437:330|409:378,1,90,0|0,1:0|2:0,2:0:0:0:
0,378,129289,5,0,2:0:0:0:
85,350,129497,1,0,2:0:0:0:
149,283,129705,1,4,2:0:0:0:
161,195,130539,1,0,2:0:0:0:
346,205,131372,6,0,B|375:216|414:269|397:346|317:366|238:339|237:268|298:258|334:317|377:291|364:239|351:225,1,315,4|0,2:0|2:0,2:0:0:0:
325,131,132934,5,0,2:0:0:0:
319,121,133038,2,0,B|314:89|340:29|415:5|472:65|489:146|428:183|389:135|421:74|377:50|339:88|333:106,1,315,2|0,2:0|2:0,2:0:0:0:
268,175,134601,5,0,2:0:0:0:
259,187,134705,2,0,B|234:206|169:213|111:160|134:81|196:26|258:61|237:118|168:120|169:170|220:185|239:181,1,313.875,2|0,2:0|2:0,2:0:0:0:
288,105,138039,6,0,B|317:98|317:98|323:101|323:101|360:93,1,72,2|8,2:1|2:1,2:0:0:0:
