osu file format v14

[General]
AudioFilename: audio.mp3
AudioLeadIn: 0
PreviewTime: 29057
Countdown: 0
SampleSet: Soft
StackLeniency: 0.7
Mode: 0
LetterboxInBreaks: 0
WidescreenStoryboard: 1

[Editor]
DistanceSpacing: 1.2
BeatDivisor: 4
GridSize: 32
TimelineZoom: 2

[Metadata]
Title:Surreal Noctivaga
TitleUnicode:此夕星游
Artist:HOYO-MiX
ArtistUnicode:HOYO-MiX
Creator:Soraka
Version:Xenon's Hard
Source:Genshin Impact
Tags:peijia you 尤裴佳 mihoyo hoyoverse the stellar moments vol volume 3 three layla electronic instrumental folk radiant star trail video game vgm ost original soundtrack sound track 原神 character trailer theme esutarosa bullet4fun muya- onegai len fast byd bite you death xenon- xen xehn poggers shizuku- kazato asa ayesha altugle shikibe mayu
BeatmapID:4093640
BeatmapSetID:1960479

[Difficulty]
HPDrainRate:4
CircleSize:3.8
OverallDifficulty:6.5
ApproachRate:7.5
SliderMultiplier:2
SliderTickRate:1

[Events]
//Background and Video events
0,0,"layla.png",0,0
//Break Periods
//Storyboard Layer 0 (Background)
//Storyboard Layer 1 (Fail)
//Storyboard Layer 2 (Pass)
//Storyboard Layer 3 (Foreground)
//Storyboard Layer 4 (Overlay)
//Storyboard Sound Samples

[TimingPoints]
1084,540.540540540541,4,2,66,50,1,0
3247,540.540540540541,4,2,1,50,1,0
3247,-142.857142857143,4,2,1,50,0,0
3787,-142.857142857143,4,2,2,50,0,0
4057,-142.857142857143,4,2,1,50,0,0
8111,-142.857142857143,4,2,2,50,0,0
8382,-142.857142857143,4,2,1,50,0,0
9733,-142.857142857143,4,2,3,50,0,0
11895,-125,4,2,4,55,0,0
12165,-125,4,2,1,55,0,0
12436,-125,4,2,2,55,0,0
12706,-125,4,2,1,55,0,0
12976,-125,4,2,3,55,0,0
14057,-125,4,2,5,55,0,0
14328,-125,4,2,1,55,0,0
14598,-125,4,2,5,55,0,0
14868,-125,4,2,1,55,0,0
16219,-125,4,2,4,55,0,0
16490,-125,4,2,1,55,0,0
16760,-125,4,2,2,55,0,0
17030,-125,4,2,1,55,0,0
17301,-125,4,2,3,55,0,0
18382,-125,4,2,5,55,0,0
18652,-125,4,2,1,55,0,0
18922,-125,4,2,5,55,0,0
19192,-125,4,2,1,55,0,0
20544,-125,4,2,1,60,0,0
20814,-125,4,2,6,60,0,0
21084,-125,4,2,2,60,0,0
21355,-125,4,2,6,60,0,0
21625,-125,4,2,3,60,0,0
21895,-125,4,2,1,60,0,0
22030,-125,4,2,3,60,0,0
22436,-125,4,2,7,60,0,0
22706,-125,4,2,5,60,0,0
22976,-125,4,2,6,60,0,0
23247,-125,4,2,5,60,0,0
23517,-125,4,2,6,60,0,0
24057,-125,4,2,7,60,0,0
24328,-125,4,2,3,60,0,0
24598,-125,4,2,7,60,0,0
24868,-125,4,2,5,60,0,0
25138,-125,4,2,8,60,0,0
25409,-125,4,2,9,60,0,0
25679,-125,4,2,6,60,0,0
26219,-125,4,2,7,60,0,0
26490,-125,4,2,3,60,0,0
27976,-125,4,2,10,60,0,0
29192,-100,4,2,1,85,0,0
29733,-100,4,2,11,85,0,0
30003,-100,4,2,1,85,0,0
30274,-100,4,2,12,85,0,0
30544,-100,4,2,3,85,0,0
30814,-100,4,2,2,85,0,0
31355,-100,4,2,3,85,0,0
32436,-100,4,2,13,85,0,0
32706,-100,4,2,3,85,0,0
32976,-100,4,2,2,85,0,0
33517,-100,4,2,3,85,0,0
34057,-100,4,2,4,85,0,0
34328,-100,4,2,2,85,0,0
34598,-100,4,2,14,85,0,0
34868,-100,4,2,2,85,0,0
35138,-100,4,2,5,85,0,0
35274,-100,4,2,3,85,0,0
35949,-100,4,2,15,85,0,0
36219,-100,4,2,4,85,0,0
36355,-100,4,2,3,85,0,0
36760,-100,4,2,16,85,0,0
37030,-100,4,2,5,85,0,0
37571,-100,4,2,3,85,0,0
37841,-100,4,2,5,85,0,0
38382,-100,4,2,11,85,0,0
38652,-100,4,2,1,85,0,0
38922,-100,4,2,12,85,0,0
39192,-100,4,2,3,85,0,0
39463,-100,4,2,2,85,0,0
40003,-100,4,2,3,85,0,0
41084,-100,4,2,13,85,0,0
41355,-100,4,2,3,85,0,0
41625,-100,4,2,2,85,0,0
41895,-100,4,2,6,85,0,0
42165,-100,4,2,3,85,0,0
42706,-100,4,2,17,85,0,0
42976,-100,4,2,2,85,0,0
43247,-100,4,2,14,85,0,0
43517,-100,4,2,6,85,0,0
43922,-100,4,2,3,85,0,0
44598,-100,4,2,7,90,0,0
45409,-100,4,2,15,90,0,0
46490,-111.111111111111,4,2,8,70,0,0
46760,-111.111111111111,4,2,4,70,0,0
47165,-111.111111111111,4,2,1,70,0,0
47301,-111.111111111111,4,2,18,70,0,0
47436,-111.111111111111,4,2,1,70,0,0
47571,-111.111111111111,4,2,9,70,0,0
47706,-111.111111111111,4,2,1,70,0,0
47841,-111.111111111111,4,2,18,70,0,0
47976,-111.111111111111,4,2,1,70,0,0
48111,-111.111111111111,4,2,9,70,0,0
48247,-111.111111111111,4,2,1,70,0,0
48382,-111.111111111111,4,2,18,70,0,0
48652,-111.111111111111,4,2,2,70,0,0
48922,-111.111111111111,4,2,4,70,0,0
49057,-111.111111111111,4,2,3,70,0,0
49328,-111.111111111111,4,2,1,70,0,0
49463,-111.111111111111,4,2,19,70,0,0
49598,-111.111111111111,4,2,1,70,0,0
49733,-111.111111111111,4,2,10,70,0,0
49868,-111.111111111111,4,2,1,70,0,0
50003,-111.111111111111,4,2,18,70,0,0
50138,-111.111111111111,4,2,1,70,0,0
50274,-111.111111111111,4,2,10,70,0,0
50409,-111.111111111111,4,2,1,70,0,0
50544,-111.111111111111,4,2,19,70,0,0
50814,-111.111111111111,4,2,2,70,0,0
51084,-111.111111111111,4,2,4,70,0,0
51219,-111.111111111111,4,2,3,70,0,0
51490,-111.111111111111,4,2,1,70,0,0
51625,-111.111111111111,4,2,19,70,0,0
51760,-111.111111111111,4,2,1,70,0,0
51895,-111.111111111111,4,2,10,70,0,0
52030,-111.111111111111,4,2,1,70,0,0
52165,-111.111111111111,4,2,18,70,0,0
52301,-111.111111111111,4,2,1,70,0,0
52436,-111.111111111111,4,2,10,70,0,0
52571,-111.111111111111,4,2,5,70,0,0
52706,-111.111111111111,4,2,19,70,0,0
52841,-111.111111111111,4,2,3,70,0,0
52976,-100,4,2,3,75,0,0
55138,-100,4,2,2,80,0,0
55409,-100,4,2,1,80,0,0
55949,-100,4,2,7,80,0,0
56490,-100,4,2,1,80,0,0
56760,-100,4,2,2,80,0,0
57030,-100,4,2,1,80,0,0
57301,-100,4,2,2,80,0,0
57571,-100,4,2,1,80,0,0
57841,-100,4,2,2,80,0,0
58111,-100,4,2,7,80,0,0
58922,-100,4,2,2,80,0,0
59192,-100,4,2,7,80,0,0
59733,-100,4,2,1,80,0,0
60274,-100,4,2,7,80,0,0
61219,-100,4,2,3,80,0,0
61355,-100,4,2,1,80,0,0
61895,-100,4,2,7,85,0,0
63787,451.127819548872,4,2,1,50,1,0
63787,-100,4,2,3,45,0,0
64012,540.540540540541,4,2,1,50,1,0

[Colours]
Combo1 : 95,84,226
Combo2 : 252,250,160
Combo3 : 146,169,250
Combo4 : 233,190,63

[HitObjects]
115,60,3247,6,0,P|92:86|88:120,1,69.9999978637696,2|2,2:2|2:2,0:0:0:0:
164,150,3787,2,0,P|186:123|190:89,1,69.9999978637696,2|2,2:2|2:2,0:0:0:0:
377,238,7571,6,0,P|399:264|403:298,1,69.9999978637696,2|2,2:2|2:2,0:0:0:0:
328,328,8111,2,0,P|305:301|301:267,1,69.9999978637696,2|2,2:2|2:2,0:0:0:0:
85,182,11895,6,0,P|59:212|55:251,1,80,2|2,2:2|2:2,0:0:0:0:
125,339,12436,2,0,L|203:325,1,80,2|2,2:2|2:2,0:0:0:0:
299,266,12976,2,0,L|276:392,2,120,2|2|2,2:2|2:2|2:2,0:0:0:0:
401,219,14057,5,2,2:2:0:0:
187,149,14598,2,0,B|147:94|100:149|117:21|117:21|138:103|205:75|187:149,1,320,2|0,2:2|0:0,0:0:0:0:
366,14,16219,6,0,P|340:44|336:83,1,80,2|2,2:2|2:2,0:0:0:0:
385,148,16625,1,0,0:0:0:0:
385,148,16760,2,0,L|463:134,1,80,2|2,2:2|2:2,0:0:0:0:
487,243,17301,2,0,L|408:256,1,80,2|0,2:2|0:0,0:0:0:0:
366,320,17706,2,0,L|287:304,1,80,2|2,2:2|2:2,0:0:0:0:
138,384,18382,5,2,2:2:0:0:
26,189,18922,2,0,B|191:159|191:159|216:114|177:81|177:81|114:92,1,320,2|0,2:2|0:0,0:0:0:0:
324,170,20544,6,0,P|298:200|294:239,1,80,6|2,2:2|2:2,0:0:0:0:
343,304,20949,1,0,0:0:0:0:
343,304,21084,2,0,L|421:290,1,80,10|2,2:2|2:2,0:0:0:0:
489,200,21625,2,0,P|484:160|458:131,1,80,2|2,2:2|2:3,0:0:0:0:
461,55,22030,2,0,B|403:52|408:96|350:93,1,120,2|2,2:2|2:2,0:0:0:0:
315,200,22706,6,0,P|285:174|246:169,1,80,2|2,2:2|2:2,0:0:0:0:
189,72,23247,2,0,P|159:97|120:102,1,80,10|2,2:2|2:2,0:0:0:0:
27,38,23787,2,0,L|35:-6,2,40,0|0|2,0:0|0:0|2:2,0:0:0:0:
6,149,24328,1,10,2:2:0:0:
92,219,24598,1,2,2:2:0:0:
138,320,24868,5,2,2:2:0:0:
248,304,25138,1,2,2:2:0:0:
357,287,25409,2,0,P|351:208|392:140,1,160,10|0,2:2|0:0,0:0:0:0:
478,70,26219,1,2,2:2:0:0:
376,22,26490,1,10,2:2:0:0:
293,98,26760,1,2,2:2:0:0:
191,50,27030,6,0,B|168:120|91:146|26:110|26:110|69:77|64:27,1,280,2|6,2:2|2:2,0:0:0:0:
436,75,29192,6,0,P|395:47|346:46,1,100,14|0,2:1|0:0,0:0:0:0:
289,100,29598,1,0,0:0:0:0:
289,100,29733,2,0,L|306:198,1,100,2|8,2:2|2:1,0:0:0:0:
187,272,30274,5,10,2:2:0:0:
66,200,30544,2,0,L|74:153,2,33.3333333333333,2|2|2,2:2|2:2|2:2,0:0:0:0:
64,216,30814,1,10,2:3:0:0:
189,155,31084,6,0,B|287:176|261:78|370:101,1,200,10|0,2:1|0:0,0:0:0:0:
428,163,31760,1,0,0:0:0:0:
428,163,31895,2,0,L|418:222,1,50,10|0,2:1|0:0,0:0:0:0:
404,290,32165,1,2,2:2:0:0:
277,350,32436,5,14,2:2:0:0:
241,214,32706,1,2,2:2:0:0:
205,78,32976,1,6,2:3:0:0:
325,5,33247,6,0,P|418:12|439:103,1,200,14|0,2:1|0:0,0:0:0:0:
350,207,34057,2,0,L|291:197,1,50,2|0,2:3|0:0,0:0:0:0:
225,182,34328,1,10,2:1:0:0:
127,80,34598,5,10,2:2:0:0:
0,140,34868,1,10,2:1:0:0:
18,278,35138,1,10,2:3:0:0:
75,332,35274,2,0,L|62:406,1,50,2|8,2:2|2:1,0:0:0:0:
225,182,35949,6,0,P|266:210|315:211,1,100,2|10,2:2|2:1,0:0:0:0:
379,164,36355,1,2,2:2:0:0:
379,164,36490,1,0,0:0:0:0:
486,253,36760,6,0,L|466:372,1,100,14|8,2:2|2:1,0:0:0:0:
317,384,37301,1,6,2:3:0:0:
206,297,37571,1,2,2:2:0:0:
89,373,37841,6,0,P|39:371|0:343,1,100,14|0,2:1|0:0,0:0:0:0:
33,275,38247,1,0,0:0:0:0:
33,275,38382,2,0,L|16:177,1,100,2|8,2:2|2:1,0:0:0:0:
132,97,38922,5,10,2:2:0:0:
252,168,39192,2,0,L|260:121,2,33.3333333333333,2|2|2,2:2|2:2|2:2,0:0:0:0:
250,184,39463,1,10,2:3:0:0:
370,255,39733,6,0,P|461:234|468:141,1,200,10|0,2:1|0:0,0:0:0:0:
408,93,40409,1,0,0:0:0:0:
408,93,40544,2,0,L|349:103,1,50,10|0,2:1|0:0,0:0:0:0:
283,113,40814,1,2,2:2:0:0:
141,176,41084,5,14,2:2:0:0:
6,133,41355,1,2,2:2:0:0:
48,0,41625,1,6,2:3:0:0:
139,96,41895,6,0,B|237:117|211:19|320:42,1,200,14|0,2:1|0:0,0:0:0:0:
423,135,42706,2,0,L|413:194,1,50,2|0,2:2|0:0,0:0:0:0:
398,260,42976,1,10,2:1:0:0:
512,379,43247,5,10,2:2:0:0:
380,340,43517,1,10,2:1:0:0:
248,301,43787,1,10,2:3:0:0:
184,348,43922,2,0,L|134:356,1,50,2|0,2:2|0:0,0:0:0:0:
77,81,44598,6,0,L|175:63,1,100,14|0,2:1|0:0,0:0:0:0:
218,0,45003,2,0,L|323:19,1,100,14|0,2:1|0:0,0:0:0:0:
366,77,45409,6,0,P|364:127|336:166,1,100,14|0,2:2|0:0,0:0:0:0:
270,205,45814,1,0,0:0:0:0:
270,205,45949,2,0,L|280:264,1,50
352,276,46219,2,0,L|342:335,1,50
293,384,46490,6,0,P|373:346|461:358,1,179.999994506836,14|8,2:1|2:1,0:0:0:0:
512,244,47301,1,2,2:2:0:0:
420,156,47571,2,0,L|439:50,1,89.9999972534181,10|2,2:1|2:2,0:0:0:0:
311,44,48111,2,0,L|293:150,1,89.9999972534181,10|2,2:1|2:2,0:0:0:0:
338,251,48652,6,0,B|330:323|394:307|386:379,2,134.999995880127,10|2|2,2:1|2:2|2:2,0:0:0:0:
229,186,49733,1,10,2:1:0:0:
127,260,50003,2,0,L|134:304,2,44.999998626709,2|2|10,2:2|2:2|2:1,0:0:0:0:
7,218,50544,1,2,2:2:0:0:
109,144,50814,6,0,P|110:99|135:64,1,89.9999972534181,10|2,2:1|2:3,0:0:0:0:
203,25,51219,2,0,L|309:43,1,89.9999972534181,2|2,2:2|2:2,0:0:0:0:
366,55,51625,1,2,2:2:0:0:
451,147,51895,1,10,2:1:0:0:
409,265,52165,2,0,L|416:309,2,44.999998626709,2|2|10,2:2|2:2|2:1,0:0:0:0:
337,238,52571,1,2,2:2:0:0:
337,238,52706,2,0,L|346:185,1,44.999998626709,2|2,2:2|2:2,0:0:0:0:
295,134,52976,6,0,P|244:136|205:164,1,100,10|8,2:2|2:2,0:0:0:0:
171,233,53382,1,8,2:2:0:0:
171,233,53517,1,10,2:2:0:0:
38,188,53787,1,8,2:2:0:0:
0,53,54057,6,0,P|49:51|89:22,1,100,8|8,2:2|2:2,0:0:0:0:
165,4,54463,1,8,2:2:0:0:
165,4,54598,2,0,L|224:14,1,50,6|0,2:2|0:0,0:0:0:0:
261,71,54868,2,0,L|310:62,1,50
372,107,55138,6,0,P|370:156|341:196,1,100,14|2,2:1|2:3,0:0:0:0:
211,249,55679,1,8,2:1:0:0:
97,167,55949,2,0,L|-1:184,1,100,2|8,2:2|2:1,0:0:0:0:
78,299,56490,6,0,L|28:290,2,50,2|0|10,2:3|0:0|2:1,0:0:0:0:
211,249,57030,1,2,2:3:0:0:
306,351,57301,6,0,P|355:349|395:320,1,100,10|2,2:1|2:3,0:0:0:0:
439,257,57706,1,0,0:0:0:0:
439,257,57841,1,10,2:1:0:0:
329,170,58111,6,0,L|350:52,1,100,2|8,2:2|2:1,0:0:0:0:
228,0,58652,1,2,2:2:0:0:
108,72,58922,1,10,2:1:0:0:
138,207,59192,6,0,P|46:214|30:306,1,200,2|2,2:2|2:3,0:0:0:0:
84,369,59868,1,0,0:0:0:0:
84,369,60003,2,0,L|133:360,1,50,8|0,2:1|0:0,0:0:0:0:
211,346,60274,1,2,2:2:0:0:
346,384,60544,5,10,2:1:0:0:
385,252,60814,1,2,2:2:0:0:
424,120,61084,1,10,2:1:0:0:
495,88,61219,2,0,L|487:38,1,50,2|2,2:2|2:3,0:0:0:0:
190,113,61895,6,0,P|217:71|217:22,1,100,14|0,2:1|0:0,0:0:0:0:
140,1,62301,2,0,P|112:41|112:91,1,100,14|0,2:1|0:0,0:0:0:0:
57,144,62706,2,0,P|122:299|234:174,1,400,14|2,2:1|2:2,0:0:0:0:
