osu file format v14

[General]
AudioFilename: audio.mp3
AudioLeadIn: 0
PreviewTime: 29057
Countdown: 0
SampleSet: Soft
StackLeniency: 0.7
Mode: 0
LetterboxInBreaks: 0
WidescreenStoryboard: 1

[Editor]
DistanceSpacing: 0.4
BeatDivisor: 4
GridSize: 4
TimelineZoom: 3.199999

[Metadata]
Title:Surreal Noctivaga
TitleUnicode:此夕星游
Artist:HOYO-MiX
ArtistUnicode:HOYO-MiX
Creator:Soraka
Version:Onegai's Normal
Source:Genshin Impact
Tags:peijia you 尤裴佳 mihoyo hoyoverse the stellar moments vol volume 3 three layla electronic instrumental folk radiant star trail video game vgm ost original soundtrack sound track 原神 character trailer theme esutarosa bullet4fun muya- onegai len fast byd bite you death xenon- xen xehn poggers shizuku- kazato asa ayesha altugle shikibe mayu
BeatmapID:4082572
BeatmapSetID:1960479

[Difficulty]
HPDrainRate:4
CircleSize:3
OverallDifficulty:4
ApproachRate:5
SliderMultiplier:1.1
SliderTickRate:1

[Events]
//Background and Video events
0,0,"layla.png",0,0
//Break Periods
//Storyboard Layer 0 (Background)
//Storyboard Layer 1 (Fail)
//Storyboard Layer 2 (Pass)
//Storyboard Layer 3 (Foreground)
//Storyboard Layer 4 (Overlay)
//Storyboard Sound Samples

[TimingPoints]
1084,540.540540540541,4,2,66,50,1,0
3247,540.540540540541,4,2,1,50,1,0
3247,-111.111111111111,4,2,1,50,0,0
3787,-111.111111111111,4,2,2,50,0,0
4057,-111.111111111111,4,2,1,50,0,0
8111,-111.111111111111,4,2,2,50,0,0
8382,-111.111111111111,4,2,1,50,0,0
9733,-111.111111111111,4,2,3,50,0,0
11895,-111.111111111111,4,2,4,55,0,0
12165,-111.111111111111,4,2,1,55,0,0
12436,-111.111111111111,4,2,2,55,0,0
12706,-111.111111111111,4,2,1,55,0,0
12976,-100,4,2,3,55,0,0
14057,-100,4,2,5,55,0,0
14328,-100,4,2,1,55,0,0
14598,-100,4,2,5,55,0,0
14868,-100,4,2,1,55,0,0
16219,-100,4,2,4,55,0,0
16490,-100,4,2,1,55,0,0
16760,-100,4,2,2,55,0,0
17030,-100,4,2,1,55,0,0
17301,-100,4,2,3,55,0,0
18382,-100,4,2,5,55,0,0
18652,-100,4,2,1,55,0,0
18922,-100,4,2,5,55,0,0
19192,-100,4,2,1,55,0,0
20544,-100,4,2,1,60,0,0
20814,-100,4,2,6,60,0,0
21084,-100,4,2,2,60,0,0
21355,-100,4,2,6,60,0,0
21625,-100,4,2,3,60,0,0
21895,-100,4,2,1,60,0,0
22030,-100,4,2,3,60,0,0
22436,-100,4,2,7,60,0,0
22706,-100,4,2,5,60,0,0
22976,-100,4,2,6,60,0,0
23247,-100,4,2,5,60,0,0
23517,-100,4,2,6,60,0,0
24057,-100,4,2,7,60,0,0
24328,-100,4,2,3,60,0,0
24598,-100,4,2,7,60,0,0
24868,-100,4,2,5,60,0,0
25138,-100,4,2,8,60,0,0
25409,-100,4,2,9,60,0,0
25679,-100,4,2,6,60,0,0
26219,-100,4,2,7,60,0,0
26490,-100,4,2,3,60,0,0
27976,-100,4,2,10,60,0,0
29192,-100,4,2,1,85,0,0
29733,-100,4,2,11,85,0,0
30003,-100,4,2,1,85,0,0
30274,-100,4,2,12,85,0,0
30544,-100,4,2,3,85,0,0
30814,-100,4,2,2,85,0,0
31355,-100,4,2,3,85,0,0
32436,-100,4,2,13,85,0,0
32706,-100,4,2,3,85,0,0
32976,-100,4,2,2,85,0,0
33517,-100,4,2,3,85,0,0
34057,-100,4,2,4,85,0,0
34328,-100,4,2,2,85,0,0
34598,-100,4,2,14,85,0,0
34868,-100,4,2,2,85,0,0
35138,-100,4,2,5,85,0,0
35274,-100,4,2,3,85,0,0
35949,-100,4,2,15,85,0,0
36219,-100,4,2,4,85,0,0
36355,-100,4,2,3,85,0,0
36760,-100,4,2,16,85,0,0
37030,-100,4,2,5,85,0,0
37571,-100,4,2,3,85,0,0
37841,-100,4,2,5,85,0,0
38382,-100,4,2,11,85,0,0
38652,-100,4,2,1,85,0,0
38922,-100,4,2,12,85,0,0
39192,-100,4,2,3,85,0,0
39463,-100,4,2,2,85,0,0
40003,-100,4,2,3,85,0,0
41084,-100,4,2,13,85,0,0
41355,-100,4,2,3,85,0,0
41625,-100,4,2,2,85,0,0
41895,-100,4,2,6,85,0,0
42165,-100,4,2,3,85,0,0
42706,-100,4,2,17,85,0,0
42976,-100,4,2,2,85,0,0
43247,-100,4,2,14,85,0,0
43517,-100,4,2,6,85,0,0
43922,-100,4,2,3,85,0,0
44598,-100,4,2,7,90,0,0
45409,-100,4,2,15,90,0,0
46490,-100,4,2,8,70,0,0
46760,-100,4,2,4,70,0,0
47165,-100,4,2,1,70,0,0
47301,-100,4,2,18,70,0,0
47436,-100,4,2,1,70,0,0
47571,-100,4,2,9,70,0,0
47706,-100,4,2,1,70,0,0
47841,-100,4,2,18,70,0,0
47976,-100,4,2,1,70,0,0
48111,-100,4,2,9,70,0,0
48247,-100,4,2,1,70,0,0
48382,-100,4,2,18,70,0,0
48652,-100,4,2,2,70,0,0
48922,-100,4,2,4,70,0,0
49057,-100,4,2,3,70,0,0
49328,-100,4,2,1,70,0,0
49463,-100,4,2,19,70,0,0
49598,-100,4,2,1,70,0,0
49733,-100,4,2,10,70,0,0
49868,-100,4,2,1,70,0,0
50003,-100,4,2,18,70,0,0
50138,-100,4,2,1,70,0,0
50274,-100,4,2,10,70,0,0
50409,-100,4,2,1,70,0,0
50544,-100,4,2,19,70,0,0
50814,-100,4,2,2,70,0,0
51084,-100,4,2,4,70,0,0
51219,-100,4,2,3,70,0,0
51490,-100,4,2,1,70,0,0
51625,-100,4,2,19,70,0,0
51760,-100,4,2,1,70,0,0
51895,-100,4,2,10,70,0,0
52030,-100,4,2,1,70,0,0
52165,-100,4,2,18,70,0,0
52301,-100,4,2,1,70,0,0
52436,-100,4,2,10,70,0,0
52571,-100,4,2,5,70,0,0
52706,-100,4,2,19,70,0,0
52841,-100,4,2,3,70,0,0
52976,-100,4,2,3,75,0,0
55138,-90.9090909090909,4,2,2,80,0,0
55409,-90.9090909090909,4,2,1,80,0,0
55949,-90.9090909090909,4,2,7,80,0,0
56490,-90.9090909090909,4,2,1,80,0,0
56760,-90.9090909090909,4,2,2,80,0,0
57030,-90.9090909090909,4,2,1,80,0,0
57301,-90.9090909090909,4,2,2,80,0,0
57571,-90.9090909090909,4,2,1,80,0,0
57841,-90.9090909090909,4,2,2,80,0,0
58111,-90.9090909090909,4,2,7,80,0,0
58922,-90.9090909090909,4,2,2,80,0,0
59192,-90.9090909090909,4,2,7,80,0,0
59733,-90.9090909090909,4,2,1,80,0,0
60274,-90.9090909090909,4,2,7,80,0,0
61219,-90.9090909090909,4,2,3,80,0,0
61355,-90.9090909090909,4,2,1,80,0,0
61895,-90.9090909090909,4,2,7,85,0,0
63787,451.127819548872,4,2,1,50,1,0
63787,-90.9090909090909,4,2,3,45,0,0
64012,540.540540540541,4,2,1,50,1,0

[Colours]
Combo1 : 95,84,226
Combo2 : 252,250,160
Combo3 : 146,169,250
Combo4 : 233,190,63

[HitObjects]
256,192,9733,12,2,11895,2:2:0:0:
216,341,12706,5,2,2:2:0:0:
216,341,12976,2,0,B|262:358|249:368|295:386,2,82.5,2|2|2,2:2|2:2|2:2,0:0:0:0:
162,353,14057,2,0,P|134:331|146:248,1,110,2|2,2:2|2:2,0:0:0:0:
58,61,16219,6,0,P|24:29|-19:32,2,82.5,2|0|2,2:2|0:0|2:2,0:0:0:0:
93,103,17301,2,0,B|136:89|126:81|173:67,1,82.5,2|2,2:2|2:2,0:0:0:0:
215,97,17976,1,2,2:2:0:0:
266,33,18382,6,0,L|387:59,1,110,2|2,2:2|2:2,0:0:0:0:
493,363,20544,6,0,B|474:304|474:304|441:289|424:263,1,110,6|10,2:2|2:2,0:0:0:0:
385,251,21355,1,2,2:2:0:0:
385,251,21625,2,0,B|380:223|406:201|413:206|435:192|438:151,1,110,2|8,2:2|2:2,0:0:0:0:
408,112,22436,1,2,2:2:0:0:
408,112,22706,2,0,L|285:143,1,110,2|10,2:2|2:2,0:0:0:0:
26,134,24598,5,2,2:2:0:0:
26,134,24868,2,0,L|3:64,1,55,2|2,2:2|2:2,0:0:0:0:
27,29,25409,2,0,B|85:17|108:65|99:70|115:110|188:101,1,165,10|2,2:2|2:2,0:0:0:0:
213,123,26490,6,0,L|234:194,1,55,10|2,2:2|2:2,0:0:0:0:
256,192,27030,12,6,27977,2:2:0:0:
445,359,29192,6,0,B|372:327|372:327|365:306|354:291,1,110,14|2,2:1|2:2,0:0:0:0:
308,266,30003,1,8,2:1:0:0:
308,266,30274,2,0,L|245:289,2,55,10|2|10,2:2|2:2|2:3,0:0:0:0:
337,213,31084,6,0,B|327:170|363:149|364:153|370:157|419:136|414:73,1,165,10|10,2:1|2:1,0:0:0:0:
292,75,32436,1,14,2:2:0:0:
292,75,32706,6,0,L|224:58,1,55,2|6,2:2|2:3,0:0:0:0:
203,12,33247,2,0,P|174:42|53:64,1,165,14|2,2:1|2:3,0:0:0:0:
23,115,34328,1,10,2:1:0:0:
23,115,34598,2,0,L|50:185,1,55,10|10,2:2|2:1,0:0:0:0:
24,223,35138,1,10,2:3:0:0:
34,226,35274,1,2,2:2:0:0:
107,343,35949,6,0,B|161:323|148:307|207:288,1,110,2|0,2:2|0:0,0:0:0:0:
255,317,36760,2,0,L|273:382,1,55,14|8,2:2|2:1,0:0:0:0:
329,381,37301,2,0,L|384:365,1,55,6|2,2:3|2:2,0:0:0:0:
402,308,37841,6,0,P|383:252|373:188,1,110,14|2,2:1|2:2,0:0:0:0:
418,160,38652,1,8,2:1:0:0:
418,160,38922,2,0,P|449:159|492:149,2,55,10|2|10,2:2|2:2|2:3,0:0:0:0:
384,109,39733,6,0,B|335:120|313:77|319:75|323:71|288:17|230:41,1,165,10|10,2:1|2:1,0:0:0:0:
164,114,41084,1,14,2:2:0:0:
164,114,41355,6,0,L|193:183,1,55,2|6,2:2|2:3,0:0:0:0:
233,201,41895,2,0,L|202:368,1,165,14|2,2:1|2:2,0:0:0:0:
82,349,43247,2,0,L|59:292,1,55,10|10,2:2|2:1,0:0:0:0:
86,242,43787,1,10,2:3:0:0:
96,238,43922,1,2,2:2:0:0:
106,92,44598,6,0,P|110:57|90:24,1,55,14|0,2:1|0:0,0:0:0:0:
81,17,45003,2,0,P|46:13|13:33,1,55,14|0,2:1|0:0,0:0:0:0:
11,45,45409,2,0,P|4:105|46:151,1,110,14|0,2:2|0:0,0:0:0:0:
134,181,46490,6,0,B|179:169|207:216|195:224|221:270|279:256,1,165,14|2,2:1|2:2,0:0:0:0:
317,235,47571,2,0,P|325:174|339:124,1,110,10|10,2:1|2:1,0:0:0:0:
271,39,48652,6,0,B|233:24|245:15|194:-3,2,82.5,10|2|2,2:1|2:2|2:2,0:0:0:0:
322,58,49733,2,0,L|438:31,1,110,10|10,2:1|2:1,0:0:0:0:
474,2,50544,5,2,2:2:0:0:
509,44,50814,2,0,P|519:101|489:148,1,110,10|8,2:1|2:1,0:0:0:0:
450,178,51625,1,2,2:2:0:0:
450,178,51895,1,10,2:1:0:0:
487,281,52436,5,10,2:1:0:0:
512,329,52706,1,2,2:2:0:0:
480,365,52976,6,0,B|425:349|438:327|378:315,1,110,10|10,2:2|2:2,0:0:0:0:
344,276,53787,1,8,2:2:0:0:
344,276,54057,2,0,L|281:292,1,55,8|8,2:2|2:2,0:0:0:0:
239,269,54598,2,0,L|216:203,1,55,6|2,2:2|2:2,0:0:0:0:
258,169,55138,6,0,P|266:110|228:66,1,121.000003692627,14|8,2:1|2:1,0:0:0:0:
180,30,55949,1,2,2:2:0:0:
180,30,56219,2,0,P|124:48|105:44,1,60.5000018463135,8|2,2:1|2:3,0:0:0:0:
71,18,56760,1,10,2:1:0:0:
9,122,57301,6,0,P|36:180|60:258,1,121.000003692627,10|10,2:1|2:1,0:0:0:0:
94,278,58111,1,2,2:2:0:0:
94,278,58382,2,0,P|147:288|162:297,1,60.5000018463135,8|2,2:1|2:2,0:0:0:0:
174,347,58922,2,0,P|202:336|232:334,1,60.5000018463135,10|2,2:1|2:2,0:0:0:0:
278,295,59463,6,0,P|297:237|323:182,1,121.000003692627,8|8,2:1|2:1,0:0:0:0:
232,102,60544,6,0,L|212:38,1,60.5000018463135,10|2,2:1|2:2,0:0:0:0:
262,7,61084,1,10,2:1:0:0:
273,2,61219,1,2,2:2:0:0:
409,39,61895,6,0,B|428:65|428:65|415:97,1,60.5000018463135,14|0,2:1|0:0,0:0:0:0:
405,119,62301,2,0,B|379:138|379:138|347:125,1,60.5000018463135,14|0,2:1|0:0,0:0:0:0:
328,109,62706,2,0,B|137:155|137:155|128:181|106:200,1,242.000007385254,14|2,2:1|2:2,0:0:0:0:
