osu file format v14

[General]
AudioFilename: audio.mp3
AudioLeadIn: 0
PreviewTime: 29057
Countdown: 0
SampleSet: Soft
StackLeniency: 0
Mode: 0
LetterboxInBreaks: 0
WidescreenStoryboard: 1

[Editor]
DistanceSpacing: 0.2
BeatDivisor: 8
GridSize: 16
TimelineZoom: 2.599999

[Metadata]
Title:Surreal Noctivaga
TitleUnicode:此夕星游
Artist:HOYO-MiX
ArtistUnicode:HOYO-MiX
Creator:Soraka
Version:Len's Classic Another
Source:Genshin Impact
Tags:peijia you 尤裴佳 mihoyo hoyoverse the stellar moments vol volume 3 three layla electronic instrumental folk radiant star trail video game vgm ost original soundtrack sound track 原神 character trailer theme esutarosa bullet4fun muya- onegai len fast byd bite you death xenon- xen xehn poggers shizuku- kazato asa ayesha altugle shikibe mayu
BeatmapID:4088399
BeatmapSetID:1960479

[Difficulty]
HPDrainRate:7.5
CircleSize:6.2
OverallDifficulty:10
ApproachRate:8
SliderMultiplier:1.38
SliderTickRate:1

[Events]
//Background and Video events
0,0,"layla.png",0,0
//Break Periods
//Storyboard Layer 0 (Background)
//Storyboard Layer 1 (Fail)
//Storyboard Layer 2 (Pass)
//Storyboard Layer 3 (Foreground)
//Storyboard Layer 4 (Overlay)
//Storyboard Sound Samples

[TimingPoints]
1084,540.540540540541,4,2,66,50,1,0
3247,540.540540540541,4,2,1,50,1,0
3787,-100,4,2,2,50,0,0
4057,-100,4,2,1,50,0,0
8111,-100,4,2,2,50,0,0
8382,-100,4,2,1,50,0,0
9733,-714.285714285714,4,2,3,50,0,0
11895,-100,4,2,4,55,0,0
12165,-100,4,2,1,55,0,0
12436,-100,4,2,2,55,0,0
12706,-100,4,2,1,55,0,0
12976,-100,4,2,3,55,0,0
14057,-100,4,2,5,55,0,0
14328,-100,4,2,1,55,0,0
14598,-100,4,2,5,55,0,0
14868,-100,4,2,1,55,0,0
16219,-100,4,2,4,55,0,0
16490,-100,4,2,1,55,0,0
16760,-100,4,2,2,55,0,0
17030,-100,4,2,1,55,0,0
17301,-100,4,2,3,55,0,0
18382,-100,4,2,5,55,0,0
18652,-100,4,2,1,55,0,0
18922,-100,4,2,5,55,0,0
19192,-100,4,2,1,55,0,0
20544,-100,4,2,1,60,0,0
20814,-100,4,2,6,60,0,0
21084,-100,4,2,2,60,0,0
21355,-100,4,2,6,60,0,0
21625,-100,4,2,3,60,0,0
21895,-100,4,2,1,60,0,0
22030,-100,4,2,3,60,0,0
22436,-100,4,2,7,60,0,0
22706,-100,4,2,5,60,0,0
22976,-100,4,2,6,60,0,0
23247,-100,4,2,5,60,0,0
23517,-100,4,2,6,60,0,0
24057,-100,4,2,7,60,0,0
24328,-100,4,2,3,60,0,0
24598,-100,4,2,7,60,0,0
24868,-100,4,2,5,60,0,0
25138,-100,4,2,8,60,0,0
25409,-100,4,2,9,60,0,0
25679,-100,4,2,6,60,0,0
26219,-100,4,2,7,60,0,0
26490,-100,4,2,3,60,0,0
27976,-41.6666666666667,4,2,10,60,0,0
29192,-47.6190476190476,4,2,1,85,0,0
29733,-40,4,2,11,85,0,0
30003,-40,4,2,1,85,0,0
30274,-76.9230769230769,4,2,12,85,0,0
30544,-76.9230769230769,4,2,3,85,0,0
30814,-31.25,4,2,2,85,0,0
31084,-47.6190476190476,4,2,2,85,0,0
31355,-47.6190476190476,4,2,3,85,0,0
31625,-71.4285714285714,4,2,3,85,0,0
31895,-45.4545454545455,4,2,3,85,0,0
32165,-27.7777777777778,4,2,3,85,0,0
32436,-100,4,2,13,85,0,0
32706,-50,4,2,3,85,0,0
32976,-38.4615384615385,4,2,2,85,0,0
33247,-66.6666666666667,4,2,2,85,0,0
33517,-66.6666666666667,4,2,3,85,0,0
34057,-66.6666666666667,4,2,4,85,0,0
34328,-71.4285714285714,4,2,2,85,0,0
34598,-58.8235294117647,4,2,14,85,0,0
34868,-47.6190476190476,4,2,2,85,0,0
35138,-26.3157894736842,4,2,5,85,0,0
35274,-26.3157894736842,4,2,3,85,0,0
35409,-125,4,2,3,85,0,0
35949,-62.5,4,2,15,85,0,0
36219,-62.5,4,2,4,85,0,0
36355,-62.5,4,2,3,85,0,0
36760,-62.5,4,2,16,85,0,0
37030,-62.5,4,2,5,85,0,0
37571,-62.5,4,2,3,85,0,0
37841,-142.857142857143,4,2,5,85,0,0
38382,-40,4,2,11,85,0,0
38652,-40,4,2,1,85,0,0
38922,-76.9230769230769,4,2,12,85,0,0
39192,-76.9230769230769,4,2,3,85,0,0
39463,-31.25,4,2,2,85,0,0
39733,-47.6190476190476,4,2,2,85,0,0
40003,-47.6190476190476,4,2,3,85,0,0
40274,-71.4285714285714,4,2,3,85,0,0
40544,-45.4545454545455,4,2,3,85,0,0
40814,-27.7777777777778,4,2,3,85,0,0
41084,-100,4,2,13,85,0,0
41355,-50,4,2,3,85,0,0
41625,-38.4615384615385,4,2,2,85,0,0
41895,-66.6666666666667,4,2,6,85,0,0
42165,-66.6666666666667,4,2,3,85,0,0
42706,-66.6666666666667,4,2,17,85,0,0
42976,-71.4285714285714,4,2,2,85,0,0
43247,-58.8235294117647,4,2,14,85,0,0
43517,-47.6190476190476,4,2,6,85,0,0
43787,-27.7777777777778,4,2,6,85,0,0
43922,-27.7777777777778,4,2,3,85,0,0
44057,-125,4,2,3,85,0,0
44598,-41.6666666666667,4,2,7,90,0,0
45003,-33.3333333333333,4,2,7,90,0,0
45409,-31.25,4,2,15,90,0,0
45949,-47.6190476190476,4,2,15,90,0,0
46490,-62.5,4,2,8,70,0,0
46760,-62.5,4,2,4,70,0,0
47165,-62.5,4,2,1,70,0,0
47301,-62.5,4,2,18,70,0,0
47436,-62.5,4,2,1,70,0,0
47571,-62.5,4,2,9,70,0,0
47706,-62.5,4,2,1,70,0,0
47841,-62.5,4,2,18,70,0,0
47976,-62.5,4,2,1,70,0,0
48111,-62.5,4,2,9,70,0,0
48247,-62.5,4,2,1,70,0,0
48382,-62.5,4,2,18,70,0,0
48652,-83.3333333333333,4,2,2,70,0,0
48922,-83.3333333333333,4,2,4,70,0,0
49057,-83.3333333333333,4,2,3,70,0,0
49328,-83.3333333333333,4,2,1,70,0,0
49463,-83.3333333333333,4,2,19,70,0,0
49598,-83.3333333333333,4,2,1,70,0,0
49733,-83.3333333333333,4,2,10,70,0,0
49868,-83.3333333333333,4,2,1,70,0,0
50003,-83.3333333333333,4,2,18,70,0,0
50138,-83.3333333333333,4,2,1,70,0,0
50274,-83.3333333333333,4,2,10,70,0,0
50409,-83.3333333333333,4,2,1,70,0,0
50544,-83.3333333333333,4,2,19,70,0,0
50814,-66.6666666666667,4,2,2,70,0,0
51084,-66.6666666666667,4,2,4,70,0,0
51219,-66.6666666666667,4,2,3,70,0,0
51490,-66.6666666666667,4,2,1,70,0,0
51625,-66.6666666666667,4,2,19,70,0,0
51760,-66.6666666666667,4,2,1,70,0,0
51895,-66.6666666666667,4,2,10,70,0,0
52030,-66.6666666666667,4,2,1,70,0,0
52165,-66.6666666666667,4,2,18,70,0,0
52301,-66.6666666666667,4,2,1,70,0,0
52436,-66.6666666666667,4,2,10,70,0,0
52571,-66.6666666666667,4,2,5,70,0,0
52706,-66.6666666666667,4,2,19,70,0,0
52841,-66.6666666666667,4,2,3,70,0,0
52976,-41.6666666666667,4,2,3,75,0,0
53247,-62.5,4,2,3,75,0,0
53517,-50,4,2,3,75,0,0
53787,-66.6666666666667,4,2,3,75,0,0
54057,-100,4,2,3,75,0,0
54328,-142.857142857143,4,2,3,75,0,0
54598,-55.5555555555556,4,2,3,75,0,0
55138,-45.4545454545455,4,2,2,80,0,1
55409,-45.4545454545455,4,2,1,80,0,1
55949,-62.5,4,2,7,80,0,1
56219,-41.6666666666667,4,2,7,80,0,1
56490,-41.6666666666667,4,2,1,80,0,1
56760,-45.4545454545455,4,2,2,80,0,1
57030,-45.4545454545455,4,2,1,80,0,1
57301,-30.3030303030303,4,2,2,80,0,1
57571,-30.3030303030303,4,2,1,80,0,1
57585,-30.3030303030303,4,2,1,80,0,1
57841,-30.3030303030303,4,2,2,80,0,1
58111,-30.3030303030303,4,2,7,80,0,1
58652,-62.5,4,2,7,80,0,1
58922,-62.5,4,2,2,80,0,1
59192,-62.5,4,2,7,80,0,1
59733,-62.5,4,2,1,80,0,1
60003,-83.3333333333333,4,2,1,80,0,1
60274,-83.3333333333333,4,2,7,80,0,1
60544,-100,4,2,7,80,0,1
60814,-66.6666666666667,4,2,7,80,0,1
61084,-35.7142857142857,4,2,7,80,0,1
61219,-35.7142857142857,4,2,3,80,0,1
61355,-35.7142857142857,4,2,1,80,0,1
61895,-55.5555555555556,4,2,7,85,0,0
62301,-66.6666666666667,4,2,7,85,0,0
62706,-250,4,2,7,85,0,0
63787,451.127819548872,4,2,1,50,1,0
63787,-250,4,2,3,45,0,0
64012,540.540540540541,4,2,1,50,1,0
64890,-250,4,2,3,5,0,0

[Colours]
Combo1 : 95,84,226
Combo2 : 252,250,160
Combo3 : 146,169,250
Combo4 : 233,190,63

[HitObjects]
460,369,3247,6,0,P|469:326|482:282,1,69,2|2,2:2|2:2,0:0:0:0:
404,281,3787,2,0,P|397:315|389:349,1,69,2|2,2:2|2:2,0:0:0:0:
460,369,7571,6,0,P|469:326|482:282,1,69,2|2,2:2|2:2,0:0:0:0:
404,281,8111,2,0,P|397:315|389:349,1,69,2|2,2:2|2:2,0:0:0:0:
460,369,9733,6,0,P|469:326|476:301,1,67.6200008254394,2|0,2:2|0:0,0:0:0:0:
404,281,11895,6,0,P|397:315|389:349,1,69,2|2,2:2|2:2,0:0:0:0:
318,328,12436,2,0,P|324:294|333:260,1,69,2|2,2:2|2:2,0:0:0:0:
392,168,12976,6,0,B|379:179|367:195|367:195|341:177|304:165,2,103.5,2|2|2,2:2|2:2|2:2,0:0:0:0:
333,261,14057,2,0,P|290:272|206:303,1,103.5,2|0,2:2|0:0,0:0:0:0:
240,281,14598,6,0,B|233:211|78:261|185:425|307:339,1,276,2|0,2:2|0:0,0:0:0:0:
464,136,16219,6,0,P|447:83|425:12,2,103.5,2|0|2,2:2|0:0|2:2,0:0:0:0:
418,250,17301,2,0,P|462:223|512:208,1,103.5,2|2,2:2|2:2,0:0:0:0:
369,344,17976,2,0,P|338:329|306:319,1,69,2|0,2:2|0:0,0:0:0:0:
296,310,18382,6,0,B|282:338|264:361|264:361|232:344|174:331,1,138,2|2,2:2|2:2,0:0:0:0:
38,222,19463,2,0,B|52:250|70:273|70:273|102:256|160:243,1,138
295,99,20544,6,0,P|280:136|263:189,1,69,6|2,2:2|2:2,0:0:0:0:
231,270,21084,2,0,P|219:237|206:205,1,69,10|2,2:2|2:2,0:0:0:0:
161,112,21625,6,0,P|186:125|206:138,2,34.5,2|0|2,2:2|0:0|2:3,0:0:0:0:
302,236,22165,2,0,P|338:217|384:200,1,69,8|2,2:2|2:2,0:0:0:0:
466,19,22706,6,0,P|455:54|441:108,1,69,2|2,2:2|2:2,0:0:0:0:
479,243,23247,6,0,P|485:224|492:196,2,34.5,10|0|2,2:2|0:0|2:2,0:0:0:0:
376,110,23787,2,0,P|369:87|360:61,2,34.5,0|0|2,0:0|0:0|2:2,0:0:0:0:
242,163,24328,2,0,P|218:149|197:136,3,34.5,10|0|2|0,2:2|0:0|2:2|0:0,0:0:0:0:
199,147,24868,6,0,P|233:132|269:109,1,69,2|2,2:2|2:2,0:0:0:0:
136,90,25409,2,0,P|157:51|170:9,1,69,10|2,2:2|2:2,0:0:0:0:
49,176,25949,2,0,P|30:137|9:106,1,69,0|2,0:0|2:2,0:0:0:0:
14,125,26490,6,0,P|20:117|32:97,5,23,10|2|2|2|2|2,2:2|2:2|2:2|2:2|2:2|2:2,0:0:0:0:
144,210,27030,6,0,P|163:218|173:223,13,17.25,2|0|0|0|0|0|0|0|0|0|0|0|0|0,2:2|0:0|0:0|0:0|0:0|0:0|0:0|0:0|0:0|0:0|0:0|0:0|0:0|0:0,0:0:0:0:
282,305,27976,6,0,P|307:293|323:282,2,41.3999987365723,6|0|0,2:2|0:0|0:0,0:0:0:0:
282,305,29192,6,0,B|241:288|241:288|286:147,1,144.899995578003,14|0,2:1|0:0,0:0:0:0:
329,77,29598,6,0,L|333:112,1,36.2249988945008
387,157,29733,2,0,B|298:131|209:103|209:103|190:148|136:162,1,258.75,2|0,2:2|0:0,0:0:0:0:
123,39,30274,6,0,P|130:60|135:83,1,44.84999794693,10|0,2:2|0:0,0:0:0:0:
164,162,30544,2,0,L|156:186,3,22.424998973465,2|0|0|0,2:2|0:0|0:0|0:0,0:0:0:0:
109,245,30814,6,0,B|122:274|122:274|206:253,1,110.4,10|0,2:3|0:0,0:0:0:0:
459,314,31084,6,0,B|429:287|416:255|416:255|344:292|232:316,1,217.349993367005,10|0,2:1|0:0,0:0:0:0:
281,304,31625,6,0,B|269:325|269:325|318:358,1,48.299998526001
384,249,31895,2,0,P|395:203|404:166,1,75.9000023162842,10|0,2:1|0:0,0:0:0:0:
320,149,32165,2,0,L|298:13,1,124.199996209717,2|0,2:2|0:0,0:0:0:0:
308,34,32436,6,0,L|312:0,1,34.5,14|0,2:2|0:0,0:0:0:0:
26,150,32706,6,0,P|56:164|79:190,1,69,2|0,2:2|0:0,0:0:0:0:
181,226,32976,2,0,P|139:241|114:277,1,89.69999589386,6|0,2:3|0:0,0:0:0:0:
91,361,33247,6,0,P|73:206|52:52,1,310.500011844635,14|2,2:1|2:3,0:0:0:0:
79,190,34328,2,0,L|92:144,1,48.299998526001,10|0,2:1|0:0,0:0:0:0:
442,117,34598,6,0,P|415:127|389:141,1,58.65000111866,10|0,2:2|0:0,0:0:0:0:
268,144,34868,2,0,P|292:171|314:201,1,72.4499977890015,10|0,2:1|0:0,0:0:0:0:
447,322,35138,6,0,B|453:357|453:357|430:377,1,65.5499982496262,10|0,2:3|0:0,0:0:0:0:
419,375,35274,2,0,B|390:368|390:368|379:335,1,65.5499982496262,2|0,2:2|0:0,0:0:0:0:
400,266,35409,6,0,L|396:245,2,13.8,8|0|0,2:1|0:0|0:0,0:0:0:0:
0,318,35949,6,0,P|92:291|227:258,1,220.8,2|0,2:2|0:0,0:0:0:0:
213,261,36760,2,0,P|167:211|82:108,1,165.6,14|0,2:2|0:0,0:0:0:0:
104,136,37301,2,0,P|85:174|38:246,1,110.4,6|2,2:3|2:2,0:0:0:0:
48,231,37841,6,0,P|90:245|124:264,1,72.4499977890015,14|0,2:1|0:0,0:0:0:0:
277,338,38382,6,0,B|236:354|200:375|200:375|234:305|270:182,1,258.75,2|0,2:2|0:0,0:0:0:0:
224,136,38922,6,0,P|215:103|205:77,1,44.84999794693,10|0,2:2|0:0,0:0:0:0:
270,206,39192,2,0,L|263:227,3,22.424998973465,2|0|0|0,2:2|0:0|0:0|0:0,0:0:0:0:
277,338,39463,6,0,B|301:328|316:323|316:323|324:291|343:231,1,110.4,10|0,2:3|0:0,0:0:0:0:
467,99,39733,6,0,B|489:31|489:31|416:182,1,217.349993367005,10|0,2:1|0:0,0:0:0:0:
425,162,40274,6,0,B|400:165|400:165|381:131,1,48.299998526001
278,85,40544,2,0,P|235:97|195:110,1,75.9000023162842,10|0,2:1|0:0,0:0:0:0:
148,245,40814,2,0,P|73:221|12:204,1,124.199996209717,2|0,2:2|0:0,0:0:0:0:
36,203,41084,6,0,L|-13:211,1,34.5,14|0,2:2|0:0,0:0:0:0:
327,359,41355,6,0,B|338:325|338:325|380:319,1,69,2|0,2:2|0:0,0:0:0:0:
474,235,41625,2,0,B|435:257|435:257|400:208,1,89.69999589386,6|0,2:3|0:0,0:0:0:0:
357,81,41895,6,0,P|397:231|432:383,1,310.500011844635,14|2,2:1|2:2,0:0:0:0:
408,220,42976,2,0,P|417:184|425:162,1,48.299998526001,10|0,2:1|0:0,0:0:0:0:
255,379,43247,6,0,P|212:356|170:341,1,58.65000111866,10|0,2:2|0:0,0:0:0:0:
110,299,43517,2,0,P|73:313|29:327,1,72.4499977890015,10|0,2:1|0:0,0:0:0:0:
236,240,43787,6,0,P|221:204|210:167,1,62.0999981048585,10|0,2:3|0:0,0:0:0:0:
206,175,43922,2,0,P|218:134|225:93,1,62.0999981048585,2|0,2:2|0:0,0:0:0:0:
268,55,44057,6,0,L|264:33,2,13.8
481,259,44598,6,0,B|456:268|427:282|427:282|386:253|281:211,1,165.599994946289,14|0,2:1|0:0,0:0:0:0:
122,159,45003,2,0,B|148:182|172:215|172:215|232:178|319:148,1,207.000007896424,14|0,2:1|0:0,0:0:0:0:
347,384,45409,6,0,B|427:139|500:2,1,386.4,14|0,2:2|0:0,0:0:0:0:
481,33,45949,2,0,P|470:4|463:-18,7,36.2249988945008
512,148,46490,6,0,B|480:145|451:150|451:150|432:92|401:41,1,165.6,14|0,2:1|0:0,0:0:0:0:
355,110,47030,2,0,B|325:123|303:142|303:142|257:101|205:72,1,165.6,8|2,2:1|2:2,0:0:0:0:
200,155,47571,2,0,B|181:181|171:208|171:208|111:196|51:197,1,165.6,10|2,2:1|2:2,0:0:0:0:
103,274,48111,2,0,B|100:306|105:335|105:335|47:353|1:382,1,165.6,10|0,2:1|0:0,0:0:0:0:
0,384,48652,6,0,P|22:322|35:253,1,124.199996209717,10|2,2:1|2:2,0:0:0:0:
67,197,49192,2,0,P|57:150|50:77,1,82.7999974731446,8|2,2:1|2:2,0:0:0:0:
106,18,49733,6,0,P|101:37|92:56,7,41.3999987365723,10|2|2|2|10|2|2|0,2:1|2:2|2:2|2:2|2:1|2:2|2:2|0:0,0:0:0:0:
52,115,50814,6,0,B|91:78|133:71|133:71|143:103|167:121,1,155.250005922318,10|2,2:1|2:2,0:0:0:0:
207,62,51355,2,0,B|260:58|297:80|297:80|284:111|291:140,1,155.250005922318,8|2,2:1|2:2,0:0:0:0:
364,120,51895,2,0,B|441:180|433:240|433:240|400:245|377:265,1,207.000007896424,10|10,2:1|2:1,0:0:0:0:
434,351,52571,6,0,B|416:337|416:337|435:300,2,51.7500019741059,2|2|2,2:2|2:2|2:2,0:0:0:0:
443,358,52976,6,0,P|344:382|294:399,1,82.7999974731446,10|0,2:2|0:0,0:0:0:0:
257,261,53247,2,0,B|230:253|230:253|220:279,1,55.2,8|8,2:2|2:2,0:0:0:0:
60,350,53517,6,0,B|72:382|72:382|105:369,1,69,10|8,2:2|2:2,0:0:0:0:
257,384,53787,2,0,L|248:313,1,51.7500019741059,8|10,2:2|2:2,0:0:0:0:
247,193,54057,6,0,L|254:149,1,34.5,8|8,2:2|2:2,0:0:0:0:
260,27,54328,2,0,L|258:-1,1,24.1499992630005,8|8,2:2|2:2,0:0:0:0:
256,191,54598,6,0,L|264:228,7,31.0499990524292,6|0|0|0|2|0|0|0,2:2|0:0|0:0|0:0|2:2|0:0|0:0|0:0,0:0:0:0:
257,384,55138,6,0,B|268:361|278:333|278:333|324:349|402:365,1,151.800004632568,14|2,2:1|2:3,0:0:0:0:
501,275,55544,2,0,B|488:286|488:286|494:313,2,37.9500011581421,0|0|8,0:0|0:0|2:1,0:0:0:0:
257,384,55949,6,0,B|237:370|237:370|251:331,1,55.2,2|0,2:2|0:0,0:0:0:0:
334,250,56219,2,0,P|318:170|294:27,1,165.599994946289,8|2,2:1|2:3,0:0:0:0:
310,95,56625,6,0,L|321:32,1,41.3999987365723
383,25,56760,6,0,B|401:56|401:56|369:106,1,75.9000023162842,10|0,2:1|0:0,0:0:0:0:
241,52,57030,2,0,P|208:41|154:27,1,75.9000023162842,2|0,2:3|0:0,0:0:0:0:
483,51,57301,6,0,P|309:96|47:212,2,455.400004343033,10|10|8,2:1|2:1|2:1,0:0:0:0:
56,206,58652,6,0,P|76:178|88:140,1,55.2,2|0,2:2|0:0,0:0:0:0:
233,143,58922,2,0,P|268:152|291:167,1,55.2,10|0,2:1|0:0,0:0:0:0:
349,55,59192,2,0,P|359:29|364:-3,1,55.2,2|0,2:2|0:0,0:0:0:0:
483,51,59463,6,0,P|498:53|514:58,2,27.6,8|0|0,2:1|0:0|0:0,0:0:0:0:
264,246,59733,2,0,L|258:273,2,27.6,2|0|0,2:3|0:0|0:0,0:0:0:0:
70,72,60003,6,0,L|65:43,2,20.6999993682862,8|0|0,2:1|0:0|0:0,0:0:0:0:
65,77,60274,2,0,L|60:48,2,20.6999993682862,2|0|0,2:2|0:0|0:0,0:0:0:0:
148,317,60544,6,0,L|154:288,2,17.25,10|0|0,2:1|0:0|0:0,0:0:0:0:
0,205,60814,2,0,L|9:154,1,51.7500019741059,2|0,2:2|0:0,0:0:0:0:
443,229,61084,6,0,L|434:277,1,48.299998526001,10|0,2:1|0:0,0:0:0:0:
355,384,61219,2,0,L|364:336,1,48.299998526001,2|0,2:2|0:0,0:0:0:0:
436,286,61895,6,0,B|420:296|404:312|404:312|370:294|303:272,1,124.199996209717,14|0,2:1|0:0,0:0:0:0:
266,94,62301,2,0,B|253:117|250:132|250:132|220:123|166:124,1,103.500003948212,14|0,2:1|0:0,0:0:0:0:
105,284,62706,6,0,B|94:306|84:328|84:328|60:322|23:319,1,110.4,14|2,2:1|2:2,0:0:0:0:
256,192,63843,12,0,64890,0:0:0:0:
