osu file format v14

[General]
AudioFilename: audio.mp3
AudioLeadIn: 0
PreviewTime: 29057
Countdown: 0
SampleSet: Soft
StackLeniency: 0.7
Mode: 0
LetterboxInBreaks: 0
WidescreenStoryboard: 1

[Editor]
DistanceSpacing: 1.2
BeatDivisor: 4
GridSize: 4
TimelineZoom: 3.199999

[Metadata]
Title:Surreal Noctivaga
TitleUnicode:此夕星游
Artist:HOYO-MiX
ArtistUnicode:HOYO-MiX
Creator:Soraka
Version:Ayesha's Like Nascent Light
Source:Genshin Impact
Tags:peijia you 尤裴佳 mihoyo hoyoverse the stellar moments vol volume 3 three layla electronic instrumental folk radiant star trail video game vgm ost original soundtrack sound track 原神 character trailer theme esutarosa bullet4fun muya- onegai len fast byd bite you death xenon- xen xehn poggers shizuku- kazato asa ayesha altugle shikibe mayu
BeatmapID:4110081
BeatmapSetID:1960479

[Difficulty]
HPDrainRate:5
CircleSize:3.8
OverallDifficulty:9
ApproachRate:9
SliderMultiplier:3.52
SliderTickRate:1

[Events]
//Background and Video events
0,0,"ayeshabg.png",0,0
//Break Periods
2,4798,6971
//Storyboard Layer 0 (Background)
//Storyboard Layer 1 (Fail)
//Storyboard Layer 2 (Pass)
//Storyboard Layer 3 (Foreground)
//Storyboard Layer 4 (Overlay)
//Storyboard Sound Samples

[TimingPoints]
1084,540.540540540541,4,2,66,30,1,0
1354,-333.333333333333,4,2,66,30,0,0
3247,540.540540540541,4,2,66,30,1,0
9733,-1000,4,2,62,35,0,0
11881,-250,4,2,66,35,0,0
20530,-250,4,2,62,45,0,0
29192,-66.6666666666667,4,2,66,60,0,0
29733,-100,4,2,66,60,0,0
33787,-142.857142857143,4,2,66,60,0,0
34328,-100,4,2,66,60,0,0
37841,-66.6666666666667,4,2,66,60,0,0
38382,-100,4,2,66,60,0,0
42436,-142.857142857143,4,2,66,60,0,0
42976,-100,4,2,66,60,0,0
47030,-125,4,2,66,60,0,0
55138,-76.9230769230769,4,2,66,60,0,0
55679,-100,4,2,66,70,0,0
57301,-66.6666666666667,4,2,66,70,0,0
57841,-76.9230769230769,4,2,66,70,0,0
63787,451.127819548872,4,2,1,50,1,0
64012,540.540540540541,4,2,1,50,1,0
64012,-76.9230769230769,4,2,66,40,0,0

[Colours]
Combo1 : 138,160,219
Combo2 : 190,225,243
Combo3 : 187,169,224

[HitObjects]
432,376,1084,5,0,0:0:0:0:
428,365,1174,1,0,0:0:0:0:
424,353,1264,1,0,0:0:0:0:
418,340,1354,2,0,B|410:299|435:247|491:303|549:184|434:70|326:187|367:268|419:284|448:250|429:217,1,316.799990332032
508,140,3247,5,2,0:0:0:0:
432,109,3517,1,0,0:0:0:0:
355,136,3787,1,0,0:0:0:0:
311,207,4057,1,0,0:0:0:0:
236,244,4328,1,0,0:0:0:0:
156,228,4598,1,0,0:0:0:0:
156,228,7571,5,2,0:0:0:0:
232,204,7841,1,0,0:0:0:0:
252,128,8111,1,0,0:0:0:0:
208,60,8382,1,0,0:0:0:0:
132,48,8652,1,0,0:0:0:0:
60,80,8922,1,0,0:0:0:0:
60,80,9733,6,0,P|72:131|79:183,1,105.6,4|0,0:0|0:0,0:0:0:0:
192,368,11895,5,2,0:0:0:0:
217,294,12165,1,0,0:0:0:0:
294,271,12436,1,0,0:0:0:0:
217,294,12706,1,0,0:0:0:0:
147,251,12976,2,0,P|95:269|43:278,2,105.6,2|0|0,0:0|0:0|0:0,0:0:0:0:
294,271,14057,2,0,P|359:257|432:242,1,140.8,2|0,0:0|0:0,0:0:0:0:
497,285,14868,2,0,P|512:123|357:75,1,352,0|2,0:0|0:0,0:0:0:0:
295,20,16490,5,0,0:0:0:0:
295,20,16625,2,0,P|244:34|192:44,1,105.6
228,240,17301,2,0,P|278:225|330:215,1,105.6,2|0,0:0|0:0,0:0:0:0:
408,248,17976,1,0,0:0:0:0:
191,328,18382,6,0,P|140:331|98:300,1,105.6,2|0,0:0|0:0,0:0:0:0:
92,296,18922,2,0,P|48:332|36:372,1,70.4
136,152,19463,2,0,P|112:76|124:4,1,140.8
136,152,20544,5,2,0:0:0:0:
240,128,20814,1,0,0:0:0:0:
240,128,20949,1,0,0:0:0:0:
240,128,21084,1,8,0:0:0:0:
345,93,21355,1,0,0:0:0:0:
485,243,21625,6,0,P|432:238|407:223,1,70.4,2|0,0:0|0:0,0:0:0:0:
411,224,22030,2,0,L|435:111,1,105.6,0|2,0:0|0:0,0:0:0:0:
177,0,22706,6,0,P|159:30|160:71,1,70.4,2|0,0:0|0:0,0:0:0:0:
247,93,23247,2,0,P|265:63|264:22,1,70.4,8|0,0:0|0:0,0:0:0:0:
265,28,23652,1,0,0:0:0:0:
265,28,23787,2,0,P|299:22|334:12,1,70.4,2|0,0:0|0:0,0:0:0:0:
181,148,24328,2,0,P|147:154|112:164,1,70.4,8|0,0:0|0:0,0:0:0:0:
112,164,24733,1,0,0:0:0:0:
112,164,24868,6,0,P|103:213|90:256,1,70.4,2|2,0:0|0:0,0:0:0:0:
398,294,25409,2,0,P|406:244|419:201,1,70.4,8|0,0:0|0:0,0:0:0:0:
359,168,25814,1,0,0:0:0:0:
289,204,25949,2,0,P|243:235|200:222,1,70.4,2|0,0:0|0:0,0:0:0:0:
158,72,26490,2,0,P|203:40|246:53,1,70.4,8|0,0:0|0:0,0:0:0:0:
227,151,26895,1,0,0:0:0:0:
227,151,27030,2,0,L|221:124,14,17.6,0|0|0|0|0|0|0|0|0|0|0|0|0|0|2,0:0|0:0|0:0|0:0|0:0|0:0|0:0|0:0|0:0|0:0|0:0|0:0|0:0|0:0|0:0,0:0:0:0:
497,356,29192,6,0,P|380:343|327:204,1,264.000010070801,14|0,1:0|0:0,0:0:0:0:
297,310,29598,1,8,0:1:0:0:
396,161,29733,2,2,P|439:153|480:140,1,88,2|0,0:1|0:1,0:1:0:0:
408,248,30003,5,8,0:1:0:0:
310,138,30138,1,8,0:1:0:0:
158,345,30274,6,0,P|117:284|14:265,1,176,10|0,1:2|0:0,0:0:0:0:
248,224,30679,1,2,0:3:0:0:
238,219,30747,1,2,0:3:0:0:
228,214,30814,2,0,P|163:213|111:252,1,132,8|0,0:3|0:0,0:0:0:0:
111,251,31084,6,2,P|199:160|327:170,1,264,10|0,1:1|0:1,0:1:0:0:
487,45,31625,2,0,P|445:45|402:20,1,88,2|0,0:3|0:0,0:0:0:0:
99,68,31895,6,0,P|137:117|238:134,1,132,2|0,0:3|0:0,0:0:0:0:
208,137,32165,2,0,P|228:130|254:123,1,44,2|0,0:3|0:0,0:0:0:0:
328,36,32301,2,0,P|323:57|318:78,1,44,2|0,0:3|0:0,0:0:0:0:
336,156,32436,1,8,1:2:0:0:
498,128,32706,6,0,P|482:89|488:39,1,88,2|0,0:3|0:0,0:0:0:0:
432,208,32976,1,2,0:3:0:0:
432,208,33111,1,2,0:3:0:0:
511,383,33247,6,2,P|448:315|277:303,1,264,10|0,1:1|0:1,0:1:0:0:
284,299,33787,2,0,L|303:215,1,61.5999981201172,8|0,0:3|0:0,0:0:0:0:
334,102,34057,2,0,L|320:162,1,61.5999981201172,8|0,0:3|0:0,0:0:0:0:
124,247,34328,6,0,L|28:270,1,88,2|0,0:3|0:0,0:0:0:0:
242,138,34598,2,0,L|146:161,1,88,10|0,1:2|0:0,0:0:0:0:
186,314,34868,5,2,0:3:0:0:
124,247,35003,1,8,0:3:0:0:
156,158,35138,1,2,0:3:0:0:
450,150,35274,6,0,B|375:116|326:176|331:184|335:191|298:252|221:231,1,264,2|8,0:3|0:1,0:0:0:0:
434,316,35949,5,2,0:0:0:0:
407,237,36084,1,2,0:3:0:0:
407,237,36219,1,2,0:3:0:0:
312,212,36355,5,8,0:3:0:0:
272,356,36490,1,2,0:3:0:0:
272,356,36625,1,2,0:3:0:0:
356,384,36760,6,0,B|340:308|276:276|270:286|264:296|208:272|196:192,1,264,10|2,1:2|0:3,0:0:0:0:
200,179,37233,1,2,0:3:0:0:
205,167,37301,1,2,0:3:0:0:
0,53,37436,5,8,0:3:0:0:
64,1,37571,2,0,B|92:41|92:41|64:75|76:125,1,132,8|0,0:3|0:3,0:3:0:0:
69,128,37841,6,0,B|148:142|148:142|181:49|284:32,1,264.000010070801,14|0,1:1|0:0,0:0:0:0:
228,193,38247,1,8,0:1:0:0:
228,193,38382,2,0,P|272:201|308:225,1,88,2|0,0:1|0:0,0:0:0:0:
504,94,38652,2,0,B|469:83|439:87|439:87|406:105|391:137,1,132,8|0,0:3|0:3,0:0:0:0:
394,135,38922,6,0,P|475:89|481:5,1,176,8|0,1:2|0:0,0:0:0:0:
250,125,39328,1,2,0:3:0:0:
250,125,39395,1,2,0:3:0:0:
250,125,39463,2,0,P|301:159|291:253,1,132,8|0,0:3|0:0,0:0:0:0:
308,225,39733,6,2,P|290:100|171:60,1,264,10|0,1:1|0:1,0:1:0:0:
124,262,40274,2,0,B|83:284|83:284|30:275,1,88,2|0,0:3|0:0,0:0:0:0:
23,196,40544,2,0,B|64:174|64:174|117:183,1,88,2|0,0:3|0:0,0:0:0:0:
419,144,40814,6,0,P|427:119|435:78,1,44,2|0,0:3|0:0,0:0:0:0:
445,238,40949,2,0,P|466:257|505:296,1,44,2|0,0:3|0:0,0:0:0:0:
350,213,41084,1,8,1:2:0:0:
350,213,41355,6,0,P|287:210|221:243,1,132,2|0,0:3|0:0,0:0:0:0:
221,244,41625,2,0,L|229:196,1,44,2|0,0:3|0:0,0:0:0:0:
242,117,41760,2,0,L|250:69,1,44,2|0,0:3|0:0,0:0:0:0:
290,379,41895,6,2,P|204:281|76:262,1,264,10|0,1:1|0:1,0:1:0:0:
77,261,42436,2,0,L|67:200,1,61.5999981201172,8|0,0:3|0:0,0:0:0:0:
45,55,42706,2,0,L|55:116,1,61.5999981201172,8|0,0:3|0:0,0:0:0:0:
222,164,42976,6,0,L|133:143,1,88,2|0,0:3|0:0,0:0:0:0:
469,60,43247,2,0,B|441:36|441:36|341:59,1,132,8|0,1:2|0:0,0:0:0:0:
341,60,43517,2,0,P|370:97|377:145,1,88,2|0,0:3|0:0,0:0:0:0:
246,30,43787,1,2,0:3:0:0:
236,244,43922,6,0,P|269:210|284:103,1,132,2|0,0:3|0:0,0:0:0:0:
289,129,44192,1,2,0:3:0:0:
452,203,44328,1,8,1:0:0:0:
452,203,44598,5,2,0:3:0:0:
370,235,44733,1,8,0:3:0:0:
370,235,44868,1,8,0:3:0:0:
289,129,45003,5,2,0:3:0:0:
223,274,45138,1,12,0:3:0:0:
223,274,45274,1,12,0:3:0:0:
53,240,45409,6,2,B|78:169|27:140|20:147|-24:114|6:41,1,220,10|0,1:2|0:2,0:1:0:0:
6,41,45814,1,2,0:0:0:0:
75,0,45949,2,0,P|88:41|80:83,1,88,8|0,0:3|0:0,0:0:0:0:
224,137,46219,2,0,P|190:179|132:194,1,88,8|0,0:3|0:0,0:0:0:0:
159,191,46422,1,0,0:0:0:0:
159,191,46490,6,0,P|232:183|320:97,1,176,6|0,1:2|0:0,0:0:0:0:
438,166,46895,1,2,0:0:0:0:
356,213,47030,2,0,P|394:154|401:85,1,140.8,8|0,0:1|0:0,0:0:0:0:
438,166,47436,1,0,0:0:0:0:
488,78,47571,6,0,P|480:43|458:16,2,70.4,8|0|0,0:0|0:0|0:0,0:0:0:0:
462,383,48111,2,0,L|487:244,1,140.8,8|0,0:1|0:0,0:0:0:0:
446,171,48584,5,0,0:0:0:0:
438,166,48652,2,0,L|364:183,1,70.4,8|0,0:1|0:0,0:0:0:0:
119,341,48922,2,0,B|179:356|179:356|196:370|196:370|252:385,1,140.8,0|8,0:0|0:1,0:0:0:0:
250,384,49328,1,0,0:0:0:0:
250,384,49463,2,0,P|246:349|237:308,1,70.4
304,256,49733,5,8,0:2:0:0:
323,179,49868,1,0,0:0:0:0:
218,175,50003,5,0,0:0:0:0:
201,98,50138,1,0,0:0:0:0:
287,70,50274,5,8,0:1:0:0:
296,28,50409,1,0,0:0:0:0:
256,0,50544,1,0,0:0:0:0:
256,0,50814,6,0,P|185:24|104:40,1,140.8,8|0,0:1|0:0,0:0:0:0:
146,125,51219,2,0,P|217:101|298:85,1,140.8
331,26,51625,1,0,0:0:0:0:
57,101,51895,6,0,P|42:176|23:241,1,140.8,8|0,0:2|0:0,0:0:0:0:
24,237,52301,1,0,0:0:0:0:
110,272,52436,5,8,0:1:0:0:
135,384,52571,1,0,0:0:0:0:
247,358,52706,1,0,0:0:0:0:
222,246,52841,1,0,0:0:0:0:
180,317,52976,2,0,P|255:329|330:348,1,140.8,8|0,0:1|0:0,0:0:0:0:
505,254,53382,5,8,0:3:0:0:
505,254,53449,1,8,0:3:0:0:
505,254,53517,1,8,0:0:0:0:
419,277,53652,1,8,0:1:0:0:
327,241,53787,1,8,0:1:0:0:
297,156,53922,1,8,0:1:0:0:
185,45,54057,6,0,P|181:27|177:10,1,35.2,8|0,1:2|0:0,0:0:0:0:
207,136,54192,2,0,P|210:153|214:170,1,35.2,8|0,0:2|0:0,0:0:0:0:
88,119,54328,6,0,P|105:115|122:111,1,35.2,8|0,0:0|0:0,0:0:0:0:
301,70,54463,2,0,P|283:73|266:77,1,35.2,8|0,0:0|0:0,0:0:0:0:
79,264,54598,5,0,1:0:0:0:
145,245,54688,1,2,0:0:0:0:
96,198,54778,1,2,0:0:0:0:
90,272,54868,5,2,0:0:0:0:
145,231,54958,1,2,0:0:0:0:
83,203,55048,1,2,0:0:0:0:
16,303,55138,6,2,P|113:245|226:238,1,228.799989526368,6|2,1:1|0:2,0:1:0:0:
300,196,55544,1,2,0:0:0:0:
72,160,55679,2,0,P|97:195|152:200,1,88,8|0,1:0|0:0,0:0:0:0:
320,40,55949,6,2,P|224:72|204:172,2,176,2|8|2,0:1|1:1|0:1,0:1:0:0:
320,40,56625,1,2,0:3:0:0:
396,240,56760,6,0,P|440:236|480:216,1,88,10|0,1:2|0:0,0:0:0:0:
478,216,56963,1,0,0:0:0:0:
478,216,57030,2,0,L|496:124,1,88,2|0,0:1|0:0,0:0:0:0:
320,40,57301,6,2,B|248:10|185:72|205:88|235:88|169:155|93:125,1,264.000010070801,8|0,1:1|0:1,0:1:0:0:
98,127,57706,1,0,0:0:0:0:
98,127,57841,2,0,B|123:73|123:73|53:11,1,114.399994763184,10|0,1:0|0:0,0:0:0:0:
7,253,58111,6,0,B|33:278|33:278|113:278|160:355,1,171.599992144776,2|0,0:3|0:0,0:0:0:0:
216,380,58382,2,0,P|249:335|214:273,1,114.399994763184,10|0,1:1|0:0,0:0:0:0:
248,128,58652,6,0,P|276:122|305:109,1,57.1999973815919,2|0,0:3|0:0,0:0:0:0:
304,128,58787,2,0,P|276:122|249:112,1,57.1999973815919,2|0,0:3|0:0,0:0:0:0:
197,43,58922,6,0,B|130:52|130:52|107:67|107:67|31:77,1,171.599992144776,10|0,1:2|0:0,0:0:0:0:
31,77,59192,2,0,B|87:58|87:58|121:113,1,114.399994763184,2|0,0:1|0:0,0:0:0:0:
256,231,59463,6,2,B|304:71|244:187|300:7,2,228.799989526368,4|0|8,1:2|0:0|1:2,0:1:0:0:
404,344,60138,1,0,0:0:0:0:
464,288,60274,2,0,B|430:222|371:269,1,114.399994763184,2|0,0:1|0:0,0:0:0:0:
292,84,60544,6,0,P|248:154|166:170,1,171.599992144776,8|0,1:0|0:0,0:0:0:0:
0,303,60814,2,2,B|28:238|99:272,1,114.399994763184,2|0,0:1|3:1,0:1:0:0:
93,269,61017,1,0,0:0:0:0:
93,269,61084,2,0,L|155:257,1,57.1999973815919,10|0,1:2|0:0,0:0:0:0:
240,288,61219,2,0,L|302:276,1,57.1999973815919,2|0,0:1|0:0,0:0:0:0:
296,277,61895,6,0,P|309:192|333:109,1,171.599992144776,6|0,1:1|0:1,0:1:0:0:
337,113,62165,1,8,0:0:0:0:
240,5,62301,2,0,P|226:89|202:172,1,171.599992144776,6|0,1:1|0:0,0:0:0:0:
203,172,62571,1,8,0:1:0:0:
392,256,62706,1,6,1:1:0:0:
256,192,62774,12,2,64012,0:0:0:0:
