osu file format v14

[General]
AudioFilename: audio.mp3
AudioLeadIn: 0
PreviewTime: 32755
Countdown: 0
SampleSet: Soft
StackLeniency: 0.7
Mode: 0
LetterboxInBreaks: 0
WidescreenStoryboard: 1

[Editor]
DistanceSpacing: 1.4
BeatDivisor: 4
GridSize: 4
TimelineZoom: 1.7

[Metadata]
Title:Shadow of Nemesis
TitleUnicode:暗夜幽影
Artist:HOYO-MiX
ArtistUnicode:HOYO-MiX
Creator:Stompy_
Version:Nachmark's Hard
Source:Genshin Impact
Tags:animestyle ryxliee didah esutarosa nachmark dustinati The Stellar Moments Vol. 2 volume rosaria Thorny Benevolence video game vgm character theme ost mihoyo hoyoverse instrumental original soundtrack sound track 原神 electronic Yu-Peng Chen 陈致逸
BeatmapID:3892061
BeatmapSetID:1889624

[Difficulty]
HPDrainRate:4.5
CircleSize:4
OverallDifficulty:7
ApproachRate:8
SliderMultiplier:1.4
SliderTickRate:1

[Events]
//Background and Video events
0,0,"bg.jpg",0,0
//Break Periods
//Storyboard Layer 0 (Background)
//Storyboard Layer 1 (Fail)
//Storyboard Layer 2 (Pass)
//Storyboard Layer 3 (Foreground)
//Storyboard Layer 4 (Overlay)
//Storyboard Sound Samples

[TimingPoints]
1030,600,4,2,1,35,1,0
5830,-100,4,2,1,45,0,0
8230,-62.5,4,2,1,50,0,0
15430,-71.4285714285714,4,2,1,65,0,0
17830,-71.4285714285714,4,2,1,45,0,0
18280,-55.5555555555556,4,2,1,45,0,0
27430,-45.4545454545455,4,2,1,80,0,0
31630,-45.4545454545455,4,2,1,90,0,0
32230,-45.4545454545455,4,2,1,95,0,0
32830,600,4,2,1,90,1,0
32830,-50,4,2,1,90,0,0
34255,-50,4,2,1,5,0,0
34330,-50,4,2,1,90,0,0
42430,-50,4,2,1,80,0,0
43030,-50,4,2,1,90,0,0
49630,-50,4,2,1,95,0,0
50680,-50,4,2,1,70,0,0
51430,-50,4,2,1,20,0,0
52030,-50,4,2,1,100,0,0
55030,-50,4,2,1,5,0,0

[Colours]
Combo1 : 90,53,202
Combo2 : 251,136,217
Combo3 : 206,0,0
Combo4 : 140,80,146

[HitObjects]
256,192,1030,12,2,5530,3:2:0:0:
256,192,5830,12,0,7930,3:2:0:0:
108,142,8230,6,0,P|88:91|39:68,2,112,4|8|8,3:3|3:2|3:2,0:0:0:0:
235,235,9130,2,0,P|278:201|332:205,2,112,4|8|8,3:3|3:2|3:2,0:0:0:0:
194,302,9880,1,2,0:0:0:0:
194,302,10030,1,2,0:0:0:0:
119,277,10180,1,2,0:0:0:0:
69,338,10330,2,0,L|3:323,1,56,2|2,0:0|0:0,0:0:0:0:
42,233,10630,6,0,P|29:201|0:129,2,112,4|8|8,3:3|3:2|3:2,0:0:0:0:
150,118,11530,2,0,P|163:86|192:14,2,112,4|8|8,3:3|3:2|3:2,0:0:0:0:
104,182,12280,1,2,0:0:0:0:
104,182,12430,1,2,0:0:0:0:
177,210,12580,1,2,0:0:0:0:
230,152,12730,2,0,L|294:139,1,56,2|2,0:0|0:0,0:0:0:0:
371,100,13030,6,0,P|394:59|365:-2,2,112,4|8|8,3:3|3:2|3:2,0:0:0:0:
305,243,13930,2,0,P|286:286|316:361,2,112,4|8|8,3:3|3:2|3:2,0:0:0:0:
364,190,14680,1,2,0:0:0:0:
364,190,14830,1,2,0:0:0:0:
428,233,14980,1,2,0:0:0:0:
446,309,15130,2,0,P|455:341|444:374,1,56,2|2,0:0|0:0,0:0:0:0:
376,379,15430,6,0,P|329:370|124:334,1,244.999992523194,2|0,0:3|0:0,0:0:0:0:
68,371,16330,2,0,B|129:256|31:250|98:131,1,244.999992523194,2|0,0:3|0:0,0:0:0:0:
131,35,17230,2,0,P|162:48|181:79,1,48.9999985046387,2|0,0:3|0:0,0:0:0:0:
245,80,17530,2,0,P|249:113|231:145,1,48.9999985046387,2|0,0:3|0:0,0:0:0:0:
415,318,18130,5,2,0:0:0:0:
415,318,18280,2,0,P|410:257|386:125,2,188.999994232178,2|2|2,0:0|0:0|0:0,0:0:0:0:
191,188,19630,1,2,0:0:0:0:
191,188,19780,1,2,0:0:0:0:
173,106,19930,1,2,0:0:0:0:
173,106,20080,1,2,0:0:0:0:
238,47,20230,6,0,B|337:26|304:98|427:60,1,188.999994232178,2|2,0:0|0:0,0:0:0:0:
358,331,21130,2,0,P|310:314|276:307,1,62.9999980773926,2|2,0:0|0:0,0:0:0:0:
140,230,21580,2,0,P|170:238|199:249,1,62.9999980773926,2|0,0:0|0:0,0:0:0:0:
226,338,21880,1,2,0:0:0:0:
226,338,22030,2,0,P|245:289|258:264,1,62.9999980773926,2|2,0:0|0:0,0:0:0:0:
248,194,22330,1,2,0:0:0:0:
248,194,22480,1,2,0:0:0:0:
224,95,22630,6,0,P|175:77|50:162,2,188.999994232178,2|2|2,0:0|0:0|0:0,0:0:0:0:
388,176,23830,1,2,0:0:0:0:
388,176,23980,2,0,P|411:218|389:298,1,125.999996154785,2|0,0:0|0:0,0:0:0:0:
312,318,24430,1,2,0:0:0:0:
312,318,24580,1,2,0:0:0:0:
251,253,24730,1,2,0:0:0:0:
251,253,24880,1,2,0:0:0:0:
164,236,25030,6,0,P|112:255|110:390,1,188.999994232178,2|2,0:0|0:0,0:0:0:0:
219,140,25930,2,0,P|223:90|197:64,1,62.9999980773926,2|2,0:0|0:0,0:0:0:0:
49,26,26380,2,0,P|93:18|118:28,1,62.9999980773926,2|0,0:0|0:0,0:0:0:0:
188,29,26680,1,2,0:0:0:0:
188,29,26830,1,2,0:0:0:0:
269,61,26980,1,2,0:0:0:0:
343,13,27130,1,2,0:0:0:0:
343,13,27280,1,2,0:0:0:0:
480,11,27430,6,0,P|462:115|440:256,1,231.000007049561,6|2,3:2|0:0,0:0:0:0:
146,371,28330,2,0,P|128:256|108:143,1,231.000007049561,2|2,0:0|0:0,0:0:0:0:
396,309,29230,1,2,0:0:0:0:
396,309,29380,1,0,0:0:0:0:
328,363,29530,1,2,0:0:0:0:
192,249,29830,6,0,L|429:200,1,231.000007049561,2|2,3:2|0:0,0:0:0:0:
142,33,30730,2,0,L|368:79,1,231.000007049561,2|2,0:0|0:0,0:0:0:0:
55,186,31630,1,0,3:2:0:0:
7,114,31780,1,8,3:3:0:0:
7,114,31855,1,8,3:3:0:0:
7,114,31930,2,0,L|90:96,1,77.0000023498536,4|4,3:3|3:3,0:0:0:0:
169,154,32230,6,0,L|246:173,1,77.0000023498536,6|2,3:3|3:3,0:0:0:0:
292,243,32530,2,0,L|383:267,1,77.0000023498536,2|2,3:3|3:3,0:0:0:0:
468,336,32830,6,0,P|498:286|472:206,1,140,6|0,1:2|0:0,0:0:0:0:
394,157,33280,1,0,3:3:0:0:
394,157,33430,2,0,P|345:130|255:155,1,140,10|0,1:2|0:0,0:0:0:0:
189,207,33880,2,0,P|174:156|163:123,1,70,2|0,3:2|1:2,0:0:0:0:
72,118,34180,1,0,3:3:0:0:
72,118,34330,2,0,P|82:151|92:185,1,70,2|0,0:2|3:3,0:0:0:0:
47,272,34630,1,10,1:2:0:0:
47,272,34780,1,2,3:3:0:0:
133,318,34930,1,2,3:2:0:0:
133,318,35080,1,2,3:3:0:0:
229,303,35230,6,0,B|312:326|276:259|378:289,1,140,2|0,1:2|0:0,0:0:0:0:
442,340,35680,1,0,3:3:0:0:
442,340,35830,2,0,P|465:298|436:212,1,140,10|0,1:2|0:0,0:0:0:0:
343,193,36280,2,0,P|341:152|326:107,1,70,2|2,3:2|1:2,0:0:0:0:
409,61,36580,1,0,3:3:0:0:
409,61,36730,2,0,P|423:113|429:146,1,70,2|0,0:2|3:3,0:0:0:0:
431,142,36955,1,0,3:3:0:0:
436,157,37030,6,0,P|476:152|503:124,1,70,10|2,1:2|3:3,0:0:0:0:
501,34,37330,1,2,1:2:0:0:
501,34,37480,1,2,3:3:0:0:
385,8,37630,6,0,B|343:11|343:11|322:28|322:28|240:34,1,140,6|0,1:2|0:0,0:0:0:0:
156,7,38080,1,0,3:3:0:0:
156,7,38230,2,0,B|126:42|126:42|175:148,2,140,10|0|0,1:2|0:0|1:2,0:0:0:0:
242,182,39130,6,0,P|202:216|164:212,1,70,2|0,0:2|3:3,0:0:0:0:
103,269,39430,2,0,P|55:247|42:222,1,70,10|2,1:2|3:3,0:0:0:0:
18,139,39730,1,2,3:2:0:0:
18,139,39880,1,2,3:3:0:0:
104,93,40030,6,0,P|186:79|273:66,1,140,2|0,1:2|0:0,0:0:0:0:
327,119,40480,1,0,3:3:0:0:
327,119,40630,2,0,B|355:49|355:49|306:6,2,140,10|0|0,1:2|0:0|1:2,0:0:0:0:
270,199,41380,1,8,1:0:0:0:
367,190,41530,1,2,0:2:0:0:
367,190,41680,1,0,3:3:0:0:
419,273,41830,2,0,L|342:294,1,70,8|0,1:1|3:3,0:0:0:0:
412,368,42130,2,0,L|479:349,1,70,2|0,0:2|3:3,0:0:0:0:
508,255,42430,5,2,0:2:0:0:
508,255,42580,1,2,0:2:0:0:
322,308,42880,5,2,0:2:0:0:
322,308,43030,1,14,1:2:0:0:
136,361,43330,5,2,0:2:0:0:
136,361,43480,1,0,3:3:0:0:
175,171,43780,5,2,3:2:0:0:
175,171,43930,1,2,3:3:0:0:
253,229,44080,6,0,L|264:147,1,70,0|10,1:2|1:2,0:0:0:0:
348,111,44380,1,0,3:3:0:0:
348,111,44530,2,0,L|337:29,1,70,0|0,1:0|3:3,0:0:0:0:
241,25,44830,5,2,1:2:0:0:
241,25,44980,1,2,3:2:0:0:
431,70,45280,5,2,3:2:0:0:
431,70,45430,1,8,1:2:0:0:
383,260,45730,5,2,0:2:0:0:
383,260,45880,1,0,3:3:0:0:
194,205,46180,5,2,3:2:0:0:
194,205,46330,2,0,L|112:223,1,70,2|0,0:2|3:3,0:0:0:0:
32,189,46630,1,8,1:2:0:0:
32,189,46780,1,0,1:2:0:0:
15,285,46930,2,0,L|27:365,1,70,0|0,1:2|1:2,0:0:0:0:
122,369,47230,6,0,B|172:357|172:357|212:369|212:369|280:353,1,140,6|0,1:2|3:0,0:0:0:0:
354,377,47680,1,0,3:0:0:0:
354,377,47830,2,0,P|356:328|360:296,1,70,2|0,1:2|0:0,0:0:0:0:
439,252,48130,1,2,0:2:0:0:
439,252,48280,2,0,P|437:203|433:171,1,70,2|0,0:2|1:2,0:0:0:0:
355,123,48580,5,0,1:2:0:0:
355,123,48730,1,2,1:2:0:0:
428,57,48880,1,0,1:2:0:0:
336,21,49030,2,0,P|287:30|246:40,1,70,2|0,1:2|1:2,0:0:0:0:
205,110,49330,2,0,P|170:102|136:96,1,70,2|0,1:2|1:2,0:0:0:0:
60,34,49630,5,2,1:2:0:0:
19,225,49930,1,2,1:2:0:0:
19,225,50080,2,0,P|70:238|91:248,1,70,2|0,1:2|1:2,0:0:0:0:
150,319,50380,5,2,1:2:0:0:
215,246,50530,1,2,1:2:0:0:
265,329,50680,1,4,1:1:0:0:
462,76,52030,5,4,1:1:0:0:
256,192,52105,12,0,55030,0:0:0:0:
