osu file format v14

[General]
AudioFilename: audio.mp3
AudioLeadIn: 0
PreviewTime: 32755
Countdown: 0
SampleSet: Soft
StackLeniency: 0.9
Mode: 0
LetterboxInBreaks: 0
WidescreenStoryboard: 1

[Editor]
DistanceSpacing: 1.4
BeatDivisor: 8
GridSize: 32
TimelineZoom: 2.2

[Metadata]
Title:Shadow of Nemesis
TitleUnicode:暗夜幽影
Artist:HOYO-MiX
ArtistUnicode:HOYO-MiX
Creator:Stompy_
Version:Esutarosa's Ravaging Confession
Source:Genshin Impact
Tags:animestyle ryxliee didah esutarosa nachmark dustinati The Stellar Moments Vol. 2 volume rosaria Thorny Benevolence video game vgm character theme ost mihoyo hoyoverse instrumental original soundtrack sound track 原神 electronic Yu-Peng Chen 陈致逸
BeatmapID:3892060
BeatmapSetID:1889624

[Difficulty]
HPDrainRate:5
CircleSize:4
OverallDifficulty:9.2
ApproachRate:9.4
SliderMultiplier:2.44
SliderTickRate:1

[Events]
//Background and Video events
0,0,"bg.jpg",0,0
//Break Periods
//Storyboard Layer 0 (Background)
//Storyboard Layer 1 (Fail)
//Storyboard Layer 2 (Pass)
//Storyboard Layer 3 (Foreground)
//Storyboard Layer 4 (Overlay)
//Storyboard Sound Samples

[TimingPoints]
1030,600,4,2,1,35,1,0
1030,-227.272727272727,4,2,1,35,0,0
5230,-69.4444444444444,4,2,1,35,0,0
5830,-185.185185185185,4,2,1,45,0,0
8230,-185.185185185185,4,2,1,50,0,0
10030,-96.1538461538461,4,2,1,50,0,0
10630,-185.185185185185,4,2,1,50,0,0
11080,-185.185185185185,4,2,1,5,0,0
11530,-185.185185185185,4,2,1,50,0,0
11980,-185.185185185185,4,2,1,5,0,0
12130,-185.185185185185,4,2,1,50,0,0
13480,-185.185185185185,4,2,1,5,0,0
13930,-185.185185185185,4,2,1,50,0,0
14380,-185.185185185185,4,2,1,5,0,0
14530,-185.185185185185,4,2,1,50,0,0
14830,-96.1538461538461,4,2,1,50,0,0
15430,-185.185185185185,4,2,1,65,0,0
17830,-156.25,4,2,1,45,0,0
22780,-119.047619047619,4,2,1,45,0,0
25030,-294.117647058823,4,2,1,45,0,0
27430,-96.1538461538461,4,2,1,80,0,0
27880,-119.047619047619,4,2,1,80,0,0
31630,-119.047619047619,4,2,1,90,0,0
31780,-57.4712643678161,4,2,1,90,0,0
32230,-57.4712643678161,4,2,1,95,0,0
32830,600,4,2,1,90,1,0
32830,-57.4712643678161,4,2,1,90,0,0
33130,-74.6268656716418,4,2,1,90,0,0
33430,-64.9350649350649,4,2,1,90,0,0
33880,-74.6268656716418,4,2,1,90,0,0
34255,-74.6268656716418,4,2,1,5,0,0
34330,-74.6268656716418,4,2,1,90,0,0
37630,-57.4712643678161,4,2,1,90,0,0
37930,-74.6268656716418,4,2,1,90,0,0
42430,-294.117647058824,4,2,1,80,0,0
43030,-57.4712643678161,4,2,1,90,0,0
43330,-74.6268656716418,4,2,1,90,0,0
49630,-74.6268656716418,4,2,1,95,0,0
50680,-74.6268656716418,4,2,1,70,0,0
51430,-74.6268656716418,4,2,1,20,0,0
51955,-74.6268656716418,4,2,1,5,0,0
52030,-74.6268656716418,4,2,1,100,0,0
55030,-74.6268656716418,4,2,1,5,0,0

[Colours]
Combo1 : 90,53,202
Combo2 : 251,136,217
Combo3 : 206,0,0
Combo4 : 140,80,146

[HitObjects]
328,360,1030,5,2,0:2:0:0:
240,300,1180,5,0,0:2:0:0:
160,280,1330,5,0,0:2:0:0:
84,304,1480,5,0,0:2:0:0:
55,325,1630,5,2,0:2:0:0:
149,243,1930,5,0,0:2:0:0:
149,243,2080,2,0,L|64:223,1,80.5200024572755,2|2,0:2|0:2,0:0:0:0:
58,209,2830,5,0,0:2:0:0:
142,136,3130,5,0,0:2:0:0:
42,20,3430,85,2,0:2:0:0:
73,91,3580,5,0,0:2:0:0:
87,133,3730,5,0,0:2:0:0:
98,165,3880,5,0,0:2:0:0:
103,181,4030,5,2,0:2:0:0:
256,275,4330,5,0,0:2:0:0:
157,374,4480,2,0,P|196:373|232:355,1,80.5200024572755,2|2,0:2|3:2,0:0:0:0:
446,44,5230,6,0,B|461:47|461:47|472:54|472:54|496:60,3,43.9200010722656,2|2|2|2,3:2|0:2|0:2|0:2,0:0:0:0:
262,145,5530,6,0,B|289:143|281:134|312:129,3,43.9200010722656,2|0|2|0,3:2|0:0|3:2|0:0,0:0:0:0:
5,19,5830,6,0,P|54:18|98:40,1,98.8200024125977,2|0,3:2|0:2,0:0:0:0:
193,109,6430,6,0,P|164:125|132:132,1,65.8800016083985,2|0,3:2|2:2,0:0:0:0:
202,0,6880,2,0,P|229:16|243:46,1,65.8800016083985,2|0,3:2|0:2,0:0:0:0:
505,227,7330,5,2,3:2:0:0:
455,211,7405,1,2,2:2:0:0:
402,196,7480,1,2,3:2:0:0:
337,174,7555,1,0,0:0:0:0:
262,145,7630,5,2,3:2:0:0:
440,73,7780,1,2,0:2:0:0:
268,226,7930,5,0,3:2:0:0:
333,81,8080,1,0,3:2:0:0:
430,319,8230,5,4,3:3:0:0:
372,368,9130,5,4,3:3:0:0:
319,347,9730,5,8,3:2:0:0:
233,270,9880,5,2,0:0:0:0:
140,363,10030,2,0,P|150:332|157:302,1,63.439999612793,2|2,0:0|0:0,0:0:0:0:
369,143,10330,6,0,P|392:165|401:195,1,63.439999612793,2|2,0:0|0:0,0:0:0:0:
119,43,10630,6,0,P|153:8|201:0,1,98.8200024125977,4|0,3:3|0:0,0:0:0:0:
512,293,11530,6,0,L|415:272,1,98.8200024125977,4|0,3:3|0:0,0:0:0:0:
265,207,12130,6,0,L|232:212,1,32.9400008041992,8|2,3:2|0:0,0:0:0:0:
139,265,12430,5,2,0:0:0:0:
312,148,12580,1,2,0:0:0:0:
512,293,12730,5,2,0:0:0:0:
356,212,12880,1,2,0:0:0:0:
127,367,13030,6,0,B|165:362|156:349|222:340,1,98.8200024125977,4|0,3:3|0:0,0:0:0:0:
511,124,13930,6,0,P|479:88|432:79,1,98.8200024125977,4|0,3:3|0:0,0:0:0:0:
367,34,14530,1,8,3:2:0:0:
180,150,14680,5,2,0:0:0:0:
131,86,14830,2,0,P|145:58|173:44,1,63.439999612793,2|2,0:0|0:0,0:0:0:0:
368,130,15130,6,0,P|396:144|410:172,1,63.439999612793,2|2,0:0|0:0,0:0:0:0:
224,352,15430,6,0,B|209:302|241:311|225:256,1,98.8200024125977,2|2,0:3|0:3,0:0:0:0:
368,130,16330,6,0,B|384:75|352:84|367:34,1,98.8200024125977,2|2,0:3|0:3,0:0:0:0:
432,4,17230,6,0,L|457:-3,2,16.4700004020996,2|0|0,0:3|0:0|0:0,0:0:0:0:
296,106,17530,6,0,L|280:101,2,16.4700004020996,2|0|0,0:3|0:0|0:0,0:0:0:0:
510,263,17830,6,0,P|479:287|441:294,1,78.08,4|2,3:3|0:0,0:0:0:0:
248,180,18280,6,0,P|217:156|179:149,1,78.08,2|0,0:0|0:0,0:0:0:0:
125,207,18730,2,0,L|133:245,1,39.04,2|0,0:0|0:0,0:0:0:0:
196,287,19030,1,0,0:0:0:0:
106,136,19180,6,0,L|114:97,1,39.04,2|0,0:0|0:0,0:0:0:0:
114,97,19480,1,0,0:0:0:0:
245,27,19630,5,2,0:0:0:0:
397,103,19780,1,2,0:0:0:0:
215,103,19930,5,2,0:0:0:0:
51,190,20080,1,2,0:0:0:0:
194,384,20230,6,0,B|176:325|213:336|194:269,1,117.12,2|2,0:0|0:0,0:0:0:0:
484,81,21130,5,2,0:0:0:0:
412,105,21280,1,2,0:0:0:0:
493,91,21580,5,2,0:0:0:0:
321,36,21880,5,2,0:0:0:0:
494,101,22030,1,2,0:0:0:0:
457,168,22180,5,2,0:0:0:0:
316,221,22330,1,2,0:0:0:0:
378,274,22480,5,2,0:0:0:0:
139,201,22630,1,2,0:0:0:0:
264,32,22780,6,0,L|275:83,1,51.2399984362793,0|2,0:0|0:0,0:0:0:0:
182,310,23080,1,2,0:0:0:0:
262,234,23380,5,0,0:0:0:0:
193,261,23530,2,0,B|184:281|184:281|182:312,1,51.2399984362793,2|0,0:0|0:0,0:0:0:0:
239,360,23830,2,0,L|289:349,2,51.2399984362793,2|2|0,0:0|0:0|0:0,0:0:0:0:
453,289,24280,2,0,L|503:299,1,51.2399984362793,0|2,0:0|0:0,0:0:0:0:
503,299,24580,1,2,0:0:0:0:
388,189,24730,1,2,0:0:0:0:
340,246,24880,1,2,0:0:0:0:
500,148,25030,6,0,B|496:119|496:119|485:89,1,62.2200003797607,2|2,0:0|0:0,0:0:0:0:
185,35,25930,5,2,0:0:0:0:
156,133,26080,1,2,0:0:0:0:
90,56,26380,6,0,L|110:63,2,20.7400001265869,2|0|2,0:0|0:0|0:0,0:0:0:0:
334,342,26830,5,2,0:0:0:0:
360,335,26980,1,2,0:0:0:0:
425,318,27130,1,2,0:0:0:0:
503,299,27280,1,2,0:0:0:0:
262,234,27430,6,0,B|175:213|175:213|205:177,1,126.879999225586,6|0,3:2|0:0,0:0:0:0:
23,346,27880,2,0,P|52:305|101:301,1,102.479996872559,2|0,0:0|0:0,0:0:0:0:
102,302,28330,1,2,0:0:0:0:
409,110,28780,6,0,B|399:75|399:75|409:39|385:4,1,102.479996872559,2|0,0:0|0:0,0:0:0:0:
381,8,29230,6,0,B|358:9|358:9|332:23,1,51.2399984362793,2|0,0:0|0:0,0:0:0:0:
448,181,29530,2,0,L|496:196,1,51.2399984362793,2|0,0:0|0:0,0:0:0:0:
249,369,29830,6,0,P|206:343|196:294,1,102.479996872559,2|0,3:2|0:0,0:0:0:0:
312,183,30280,6,0,P|344:230|327:269,1,102.479996872559,2|0,0:0|0:0,0:0:0:0:
155,222,30730,6,0,P|192:191|237:210,1,102.479996872559,2|0,0:0|0:0,0:0:0:0:
368,355,31180,6,0,L|318:342,2,51.2399984362793,2|0|0,0:0|0:0|0:0,0:0:0:0:
125,145,31630,5,0,3:2:0:0:
183,96,31780,6,0,B|194:105|194:105|202:127|202:127|199:142,1,53.0700004453812,8|8,3:3|3:3,0:0:0:0:
66,190,31930,2,0,B|55:181|55:181|47:159|47:159|49:143,1,53.0700004453812,4|0,3:3|0:0,0:0:0:0:
97,71,32080,5,4,3:3:0:0:
155,222,32230,6,0,B|159:230|168:236|168:236|160:243|160:243|151:239|151:239|154:229|154:221,1,53.0700004453812,6|0,3:3|0:0,0:0:0:0:
97,71,32380,1,2,3:3:0:0:
73,271,32530,6,0,B|55:285|55:285|86:277,1,53.0700004453812,2|0,3:3|0:0,0:0:0:0:
312,183,32680,2,0,B|299:171|299:171|333:180,1,53.0700004453812,2|0,3:3|0:0,0:0:0:0:
496,329,32830,6,0,B|533:317|552:361|424:368|389:289,1,159.210001336144,6|0,1:2|0:0,0:0:0:0:
253,309,33130,6,0,P|279:278|318:269,1,81.7399961335146,0|0,0:0|3:3,0:0:0:0:
183,96,33430,6,0,B|152:27|62:47|62:47|86:68|93:104,1,187.879996273132,10|0,1:2|0:0,0:0:0:0:
53,150,33880,2,0,B|46:164|46:164|38:165|38:165|46:141,1,40.8699980667573,2|0,3:2|0:0,0:0:0:0:
256,0,34030,6,0,P|293:14|334:19,1,81.7399961335146,0|0,1:2|3:3,0:0:0:0:
502,225,34330,2,0,P|472:197|432:193,1,81.7399961335146,2|0,0:2|3:3,0:0:0:0:
368,231,34630,6,0,P|357:238|366:226,1,40.8699980667573,10|0,1:2|0:0,0:0:0:0:
277,104,34780,6,0,P|270:93|282:102,1,40.8699980667573,2|0,3:3|0:0,0:0:0:0:
430,22,34930,6,0,P|441:15|432:27,1,40.8699980667573,2|0,3:2|0:0,0:0:0:0:
334,19,35080,6,0,P|329:6|339:18,1,40.8699980667573,2|0,3:3|0:0,0:0:0:0:
155,222,35230,6,0,B|94:221|105:271|34:265,1,122.609994200272,2|0,1:2|0:0,0:0:0:0:
44,265,35530,6,0,P|51:246|56:226,1,40.8699980667573
194,153,35680,2,0,P|212:160|232:165,1,40.8699980667573,0|0,3:3|0:0,0:0:0:0:
496,329,35830,6,0,B|472:318|459:289|459:289|420:265|366:282|364:326,1,163.479992267029,10|0,1:2|0:0,0:0:0:0:
479,268,36280,1,2,3:2:0:0:
372,115,36430,2,0,P|409:130|449:138,1,81.7399961335146,2|0,1:2|3:3,0:0:0:0:
234,38,36730,5,2,0:2:0:0:
229,156,36880,5,0,3:3:0:0:
242,192,36955,1,0,3:3:0:0:
260,167,37030,1,10,1:2:0:0:
334,78,37180,5,2,3:3:0:0:
128,192,37330,1,2,1:2:0:0:
366,311,37480,5,2,3:3:0:0:
247,172,37630,6,0,B|206:206|236:253|236:253|274:274|267:324,1,159.210001336144,6|0,1:2|0:0,0:0:0:0:
220,367,37930,1,0,0:0:0:0:
328,227,38080,1,0,3:3:0:0:
96,91,38230,6,0,P|136:89|170:110,1,81.7399961335146,10|0,1:2|3:3,0:0:0:0:
327,227,38530,6,0,P|347:221|367:214,1,40.8699980667573
398,226,38680,2,0,P|417:220|438:216,1,40.8699980667573,0|0,3:3|0:0,0:0:0:0:
395,381,38830,6,0,P|368:350|365:310,1,81.7399961335146,0|0,1:2|3:3,0:0:0:0:
270,93,39130,2,0,P|284:54|289:14,1,81.7399961335146,2|0,0:2|3:3,0:0:0:0:
443,131,39430,6,0,P|434:112|429:92,1,40.8699980667573,10|0,1:2|0:0,0:0:0:0:
416,36,39580,6,0,P|408:55|403:75,1,40.8699980667573,2|0,3:3|0:0,0:0:0:0:
349,114,39730,6,0,P|368:108|387:99,1,40.8699980667573,2|0,3:2|0:0,0:0:0:0:
253,269,39880,6,0,P|259:289|268:308,1,40.8699980667573,2|0,3:3|0:0,0:0:0:0:
72,78,40030,6,0,P|22:109|18:168,1,122.609994200272,2|0,1:2|0:0,0:0:0:0:
28,180,40330,6,0,B|67:172|52:161|121:144,1,81.7399961335146,0|0,0:0|3:3,0:0:0:0:
392,325,40630,1,10,1:2:0:0:
325,355,40780,1,0,3:3:0:0:
268,308,40930,1,0,0:0:0:0:
367,214,41080,1,0,3:3:0:0:
474,258,41230,6,0,L|435:244,1,40.8699980667573,0|0,1:2|0:0,0:0:0:0:
367,214,41380,1,8,1:0:0:0:
223,367,41530,6,0,P|229:348|232:328,1,40.8699980667573,2|0,0:2|0:0,0:0:0:0:
277,268,41680,2,0,P|271:286|267:307,1,40.8699980667573,0|0,3:3|3:3,0:0:0:0:
512,143,41830,6,0,L|433:164,1,81.7399961335146,8|0,1:1|3:3,0:0:0:0:
112,224,42130,6,0,L|190:245,1,81.7399961335146,2|0,0:2|3:3,0:0:0:0:
399,384,42430,6,0,B|394:362|394:362|397:348|397:348|391:323,1,62.2200003797607,2|2,0:2|0:2,0:0:0:0:
157,57,43030,6,0,B|196:12|273:26|273:26|261:44|257:69,1,159.210001336144,14|0,1:2|0:0,0:0:0:0:
316,108,43330,2,0,P|319:115|318:103,1,40.8699980667573,2|0,0:2|0:0,0:0:0:0:
104,148,43480,6,0,L|64:156,1,40.8699980667573,0|0,3:3|0:0,0:0:0:0:
243,331,43630,6,0,P|274:307|276:267,1,81.7399961335146,0|2,1:2|3:2,0:0:0:0:
221,216,43930,1,2,3:3:0:0:
392,63,44080,6,0,P|396:43|403:23,1,40.8699980667573,0|0,1:2|0:0,0:0:0:0:
479,22,44230,2,0,P|469:61|455:100,1,81.7399961335146,10|0,1:2|3:3,0:0:0:0:
276,267,44530,1,0,1:0:0:0:
221,216,44680,1,0,3:3:0:0:
246,145,44830,1,2,1:2:0:0:
435,244,44980,5,2,3:2:0:0:
416,149,45280,5,2,3:2:0:0:
149,244,45430,2,0,B|110:236|125:225|52:210,1,81.7399961335146,8|0,1:2|3:3,0:0:0:0:
256,36,45730,6,0,P|257:56|260:76,1,40.8699980667573,2|0,0:2|0:0,0:0:0:0:
288,143,45880,2,0,P|289:122|292:102,1,40.8699980667573,0|0,3:3|0:0,0:0:0:0:
435,244,46030,6,0,P|471:227|489:192,1,81.7399961335146,0|2,1:2|3:2,0:0:0:0:
330,35,46330,1,2,0:2:0:0:
199,141,46480,5,0,3:3:0:0:
185,166,46555,1,0,3:0:0:0:
207,167,46630,1,8,1:2:0:0:
260,76,46780,5,0,1:2:0:0:
333,219,46930,5,0,1:2:0:0:
367,290,47080,1,0,1:2:0:0:
145,367,47230,6,0,P|178:342|218:340,1,81.7399961335146,6|0,1:2|0:0,0:0:0:0:
488,191,47530,6,0,P|448:185|413:166,1,81.7399961335146,0|0,3:0|3:0,0:0:0:0:
169,7,47830,6,0,L|186:86,1,81.7399961335146,2|0,1:2|0:0,0:0:0:0:
232,264,48130,5,2,0:2:0:0:
218,340,48280,1,2,0:2:0:0:
137,215,48430,5,0,1:2:0:0:
296,147,48580,1,0,1:2:0:0:
232,264,48730,5,2,1:2:0:0:
424,320,48880,1,0,1:2:0:0:
481,213,49030,5,2,1:2:0:0:
410,237,49180,1,0,1:2:0:0:
147,364,49330,5,2,1:2:0:0:
218,340,49480,1,0,1:2:0:0:
365,79,49630,5,2,1:2:0:0:
333,219,49780,1,0,1:2:0:0:
105,75,49930,5,2,1:2:0:0:
137,215,50080,1,2,1:2:0:0:
248,40,50230,5,0,1:2:0:0:
232,264,50380,1,2,1:2:0:0:
321,140,50530,5,2,1:2:0:0:
173,136,50680,1,0,1:1:0:0:
248,40,50830,5,4,2:1:0:0:
256,192,50905,12,0,51955,0:0:0:0:
256,192,52030,5,4,1:1:0:0:
256,192,52105,12,0,55030,0:0:0:0:
