osu file format v14

[General]
AudioFilename: audio.mp3
AudioLeadIn: 0
PreviewTime:26796
Countdown: 1
SampleSet: Soft
StackLeniency: 0.3
Mode: 0
LetterboxInBreaks: 0
WidescreenStoryboard: 1

[Editor]
DistanceSpacing: 1
BeatDivisor: 3
GridSize: 4
TimelineZoom: 1.300006

[Metadata]
Title:Lotus of Haftkarsvar
TitleUnicode:七域的蕖华
Artist:HOYO-MiX
ArtistUnicode:HOYO-MiX
Creator:ScubDomino
Version:nik's Normal
Source:Genshin Impact
Tags:妮露 ニィロウ にぃろう نیلو Nilou Theme 闪耀的群星3 The Stellar Moments vol. volume 3 inaugural character album Mihoyo HoYoverse OST demo trailer Sumeru Zubayr Theatre Theater instrumental neofolk persian arabian modern traditional folk orchestral video game games gacha hydro Hisako Kanemoto 金元 寿子 ひさこ かねもと anime girl anime_girl jungkyuyoung natsume shiki natsume_shiki scub domino [keqing] 8972308 left island jaehyeok 5062061 kazato asa kazato_asa shikibe mayu shikibe_mayu ayesha altugle ayesha_altugle Shizuku- shizukup vahn10 1125647 nik nikolomara 10077264 Dimeng Yuan 苑迪萌 Yu-Peng Chen Zhiyi 陈致逸 RPG action open world 原神 Yuánshén yuanshen fantasy @HOYO-MiX Dance of Lotuslight the Delicate Lotus 絨毯に舞い落ちる蓮光 莲光落舞筵 Twirling Lotos Somno ahriii ahriii7 aaaalililili qiqi~ kdka4748 奇奇- 奇奇-ahriii 七域の蓮華 Seven Regions
BeatmapID:3943816
BeatmapSetID:1910088

[Difficulty]
HPDrainRate:3
CircleSize:3.4
OverallDifficulty:3
ApproachRate:4.7
SliderMultiplier:1.6
SliderTickRate:1

[Events]
//Background and Video events
0,0,"ahriii7.jpg",0,0
//Break Periods
2,23341,25723
2,95067,97897
//Storyboard Layer 0 (Background)
//Storyboard Layer 1 (Fail)
//Storyboard Layer 2 (Pass)
//Storyboard Layer 3 (Foreground)
//Storyboard Layer 4 (Overlay)
//Storyboard Sound Samples
Sample,2298,0,"nilou ;wholesome;.ogg",70

[TimingPoints]
1059,909.090909090909,4,2,1,35,1,0
1513,-100,4,2,1,45,0,0
1923,1200,4,2,2,50,1,0
3623,1000,4,2,1,45,1,0
3873,1348.31460674157,4,2,1,45,1,0
4323,1132.07547169811,4,2,1,45,1,0
4323,-104.493207941484,4,2,1,45,0,0
4889,-100.250626566416,4,2,1,35,0,0
5077,-100.250626566416,4,2,1,45,0,0
5455,1420.11834319527,4,2,2,45,1,0
6165,-100,4,2,1,45,0,0
6875,1212.12121212121,4,2,1,50,1,0
10511,1420.11834319527,4,2,1,50,1,0
11931,1200,4,2,1,50,1,0
14031,-100,4,2,1,35,0,0
14437,1304.34782608696,4,2,1,50,1,0
15089,-100,4,2,1,45,0,0
15306,-100,4,2,2,50,0,0
17045,1113.17254174397,4,2,1,45,1,0
17045,-103.626943005181,4,2,1,45,0,0
18158,1259.1815320042,4,2,2,45,1,0
21725,-100,4,2,1,45,0,0
21941,1200,4,2,1,45,1,0
22541,-100,4,2,2,25,0,0
23141,-100,4,2,1,40,0,0
24351,652.173913043478,4,2,1,50,1,0
26959,-100,4,2,1,45,0,0
28264,-100,4,2,1,55,0,0
29568,-100,4,2,1,60,0,0
30872,-100,4,2,2,70,0,0
32177,-100,4,2,2,80,0,0
53046,-125,4,2,2,80,0,0
53155,-125,4,2,1,80,0,0
53916,-125,4,2,1,60,0,0
55655,-125,4,2,2,60,0,0
56307,-125,4,2,1,60,0,0
57611,-125,4,2,2,60,0,0
57937,-125,4,2,1,60,0,0
59568,-125,4,2,2,50,0,0
59785,-125,4,2,1,60,0,0
60220,-125,4,2,2,50,0,0
60437,-125,4,2,1,60,0,0
60872,-125,4,2,2,60,0,0
60981,-125,4,2,1,60,0,0
63481,-111.111111111111,4,2,1,60,0,0
68046,-111.111111111111,4,2,1,50,0,0
68264,-111.111111111111,4,2,1,60,0,0
68481,-111.111111111111,4,2,1,70,0,0
68698,-100,4,2,1,80,0,0
84350,-111.111111111111,4,2,1,80,0,0
84997,-111.111111111111,4,2,1,75,0,0
85649,-111.111111111111,4,2,1,60,0,0
86302,-111.111111111111,4,2,1,55,0,0
86953,-111.111111111111,4,2,1,50,0,0
87606,-111.111111111111,4,2,1,45,0,0
94350,687.679083094556,4,2,1,45,1,0
94785,-100,4,2,2,45,0,0
94867,664.819944598338,4,2,2,45,1,0
95865,674.157303370787,4,2,2,45,1,0
96117,909.090909090909,4,2,2,45,1,0
96571,967.741935483871,4,2,2,45,1,0
97054,1108.54503464203,4,2,2,45,1,0
97608,1200,4,2,2,45,1,0
99133,652.173913043478,4,2,1,50,1,0
99242,-111.111111111111,4,2,2,5,0,0

[Colours]
Combo1 : 199,225,91
Combo2 : 39,190,228
Combo3 : 240,207,176
Combo4 : 234,118,68

[HitObjects]
65,312,1059,6,0,L|-4:324,2,40
136,367,1923,2,0,P|164:307|307:326,1,226.666666666667,4|0,0:0|0:0,0:0:0:0:
391,379,4323,2,0,B|486:216|368:276|473:97,1,297.142857142857,8|0,0:1|0:0,0:0:0:0:
455,9,6875,2,0,P|289:62|317:168,1,320,4|0,0:1|0:0,0:0:0:0:
512,149,10511,6,0,L|456:154,1,50
411,216,11363,1,0,0:0:0:0:
284,173,11931,2,0,B|116:207|251:238|47:266,1,240,4|0,0:2|0:0,0:0:0:0:
23,168,14437,2,0,P|40:120|-6:20,1,160,4|0,0:1|0:0,0:0:0:0:
0,25,17045,6,0,B|58:6|125:37|125:37|114:63|138:92|224:78|224:78|288:107|284:218|223:229|223:229|200:299|236:339|236:339|249:321|283:318,1,591.000001352692,2|0,0:1|0:0,0:0:0:0:
337,351,21941,2,0,P|409:319|411:201,1,160
487,0,26959,6,0,P|374:17|436:141,1,266.666666666667,8|0,0:1|0:0,0:0:0:0:
460,137,28264,1,2,0:1:0:0:
442,242,28698,1,0,0:0:0:0:
460,292,28916,2,0,L|540:309,2,53.3333333333333
422,329,29568,2,0,B|361:368|261:362|330:294|227:282|147:334,1,266.666666666667,4|0,0:2|0:0,0:0:0:0:
137,361,30872,1,4,0:0:0:0:
39,238,31524,2,0,P|21:172|-16:124,1,106.666666666667
3,88,32177,6,0,P|62:64|108:123,1,120,4|0,1:1|2:1,0:0:0:0:
122,129,32829,2,0,P|165:141|228:133,1,80,0|0,3:0|1:0,0:0:0:0:
248,76,33481,1,0,3:3:0:0:
328,77,33807,2,0,P|376:63|410:31,1,80,0|8,0:0|3:1,0:0:0:0:
474,18,34459,1,8,0:3:0:0:
502,92,34785,5,0,1:0:0:0:
470,165,35111,1,0,0:0:0:0:
507,234,35437,2,0,P|446:359|326:259,1,320,0|8,3:0|3:2,0:0:0:0:
265,227,37068,1,0,0:0:0:0:
187,246,37394,6,0,P|133:249|92:257,1,80,2|0,1:3|0:0,0:0:0:0:
29,234,38046,1,0,3:0:0:0:
5,310,38372,1,0,1:0:0:0:
67,359,38698,2,0,P|121:362|162:370,1,80,0|8,3:0|0:3,0:0:0:0:
297,313,39677,5,0,1:0:0:0:
361,360,40003,1,2,1:0:0:0:
437,337,40329,2,0,P|496:298|393:220,1,240,0|4,0:0|3:2,0:0:0:0:
210,354,42285,1,8,0:2:0:0:
132,373,42611,6,0,P|115:314|57:280,1,120,6|4,1:3|2:3,0:0:0:0:
31,297,43264,1,0,3:0:0:0:
19,217,43590,2,0,P|12:177|3:138,1,80,4|0,1:3|3:3,0:0:0:0:
19,60,44242,1,4,2:3:0:0:
89,21,44568,2,0,P|142:12|196:-5,1,80,8|8,3:1|0:3,0:0:0:0:
235,47,45220,5,4,1:3:0:0:
353,15,45709,1,4,2:3:0:0:
353,15,45872,2,0,P|465:11|447:176,1,320,0|8,3:0|3:2,0:0:0:0:
297,207,47829,5,2,1:1:0:0:
258,277,48155,1,0,0:0:0:0:
307,339,48481,2,0,P|331:345|405:306,1,80,0|4,3:0|2:3,0:0:0:0:
462,327,49133,2,0,P|477:274|495:235,1,80,0|12,3:0|0:3,0:0:0:0:
474,55,50274,5,0,0:0:0:0:
474,55,50437,2,0,P|432:63|380:99,1,80,4|0,1:3|0:0,0:0:0:0:
323,55,51090,2,0,P|233:38|200:28,1,120,0|0,3:0|0:0,0:0:0:0:
169,13,51742,2,0,P|98:31|75:130,1,160,4|8,3:2|3:2,0:0:0:0:
140,212,53046,6,0,P|192:176|382:131,1,256,4|4,1:1|0:0,0:0:0:0:
492,284,55329,1,0,0:0:0:0:
464,354,55655,2,0,P|341:357|265:129,1,384,4|0,0:2|0:0,0:0:0:0:
348,233,58264,2,0,B|307:279|202:299|242:231|141:235|92:294,1,256,2|2,0:1|0:0,0:0:0:0:
10,195,60220,1,2,0:0:0:0:
14,102,60709,1,0,0:0:0:0:
14,102,60872,2,0,P|89:47|205:156,1,256,4|4,0:0|0:0,0:0:0:0:
159,204,62611,2,0,P|123:189|49:171,1,85.3333333333333
11,107,63481,6,0,P|7:39|-4:-13,2,95.9999970703126,8|0|0,0:1|0:0|0:0,0:0:0:0:
66,185,64785,2,0,P|146:169|251:155,1,143.999995605469,2|2,0:0|0:0,0:0:0:0:
285,215,65872,1,0,0:0:0:0:
306,258,66090,6,0,P|303:320|293:376,2,95.9999970703126,2|8|4,0:1|0:3|0:3,0:0:0:0:
399,234,67394,2,0,P|438:179|409:70,1,143.999995605469,4|0,1:3|0:1,0:0:0:0:
302,13,68698,6,0,B|189:37|267:60|141:83,1,160,4|2,1:1|0:0,0:0:0:0:
55,50,69785,1,0,1:0:0:0:
22,92,70003,2,0,P|31:139|32:225,1,106.666666666667,10|0,0:0|0:0,0:0:0:0:
11,246,70655,1,2,0:0:0:0:
62,339,71090,1,0,1:0:0:0:
102,304,71307,2,0,P|157:294|202:292,1,53.3333333333333,2|0,1:2|0:0,0:0:0:0:
206,305,71742,1,0,3:0:0:0:
245,269,71959,2,0,P|242:214|221:150,1,106.666666666667,2|4,0:0|2:3,0:0:0:0:
234,111,72611,6,0,B|282:114|282:114|294:123|294:123|357:126,1,106.666666666667,14|4,0:0|2:3,0:0:0:0:
379,92,73264,2,0,B|425:69|425:69|484:104,1,106.666666666667,2|0,0:0|1:1,0:0:0:0:
486,148,73916,1,2,1:1:0:0:
504,358,74785,1,0,3:0:0:0:
450,375,75003,1,0,1:0:0:0:
406,343,75220,2,0,P|332:318|299:278,1,106.666666666667,10|0,0:0|0:0,0:0:0:0:
255,308,75872,1,2,0:0:0:0:
186,225,76307,5,0,1:0:0:0:
137,202,76524,2,0,P|129:205|70:212,1,53.3333333333333,2|0,1:2|0:0,0:0:0:0:
49,252,76959,1,0,3:0:0:0:
0,227,77177,2,0,P|7:157|18:107,1,106.666666666667,2|4,0:0|2:3,0:0:0:0:
7,68,77829,6,0,B|56:43|56:43|122:73,1,106.666666666667,14|4,0:0|1:3,0:0:0:0:
131,109,78481,2,0,B|178:94|178:94|200:97|200:97|250:81,1,106.666666666667,2|4,0:0|2:3,0:0:0:0:
275,119,79133,1,8,1:1:0:0:
457,8,80003,1,0,3:0:0:0:
485,52,80220,1,0,1:0:0:0:
460,99,80437,2,0,P|469:155|487:231,1,106.666666666667,10|0,0:0|0:0,0:0:0:0:
511,247,81090,1,2,0:0:0:0:
433,320,81524,5,0,1:0:0:0:
385,294,81742,2,0,P|320:299|183:361,1,213.333333333333,2|8,1:2|1:3,0:0:0:0:
140,330,82829,1,4,1:3:0:0:
89,345,83046,2,0,P|40:334|5:280,1,106.666666666667,4|0,1:2|0:0,0:0:0:0:
26,240,83698,2,0,P|33:181|27:122,1,106.666666666667,2|0,0:0|0:0,0:0:0:0:
6,91,84350,1,4,1:1:0:0:
256,192,84785,12,0,86959,0:0:0:0:
512,301,87937,5,0,0:0:0:0:
446,357,88264,2,0,P|342:324|142:292,1,287.999991210938,0|2,0:0|0:1,0:0:0:0:
18,360,91307,2,0,P|15:312|-2:252,1,95.9999970703126
16,224,91959,1,0,0:0:0:0:
0,183,92177,2,0,B|38:99|-6:16|-6:16|37:65|124:76,1,287.999991210938,4|0,0:0|0:0,0:0:0:0:
173,32,93916,5,0,0:0:0:0:
239,81,94350,1,0,0:0:0:0:
333,57,94867,1,4,0:0:0:0:
256,192,99133,12,0,102611,0:0:0:0:
