osu file format v14

[General]
AudioFilename: audio.mp3
AudioLeadIn: 0
PreviewTime:26796
Countdown: 1
SampleSet: Soft
StackLeniency: 0.3
Mode: 0
LetterboxInBreaks: 0
WidescreenStoryboard: 1

[Editor]
Bookmarks: 45911,56183,92868,93357,102433,108520
DistanceSpacing: 1
BeatDivisor: 1
GridSize: 4
TimelineZoom: 1.2

[Metadata]
Title:Lotus of Haftkarsvar
TitleUnicode:七域的蕖华
Artist:HOYO-MiX
ArtistUnicode:HOYO-MiX
Creator:ScubDomino
Version:Left's Insane
Source:Genshin Impact
Tags:妮露 ニィロウ にぃろう نیلو Nilou Theme 闪耀的群星3 The Stellar Moments vol. volume 3 inaugural character album Mihoyo HoYoverse OST demo trailer Sumeru Zubayr Theatre Theater instrumental neofolk persian arabian modern traditional folk orchestral video game games gacha hydro Hisako Kanemoto 金元 寿子 ひさこ かねもと anime girl anime_girl jungkyuyoung natsume shiki natsume_shiki scub domino [keqing] 8972308 left island jaehyeok 5062061 kazato asa kazato_asa shikibe mayu shikibe_mayu ayesha altugle ayesha_altugle Shizuku- shizukup vahn10 1125647 nik nikolomara 10077264 Dimeng Yuan 苑迪萌 Yu-Peng Chen Zhiyi 陈致逸 RPG action open world 原神 Yuánshén yuanshen fantasy @HOYO-MiX Dance of Lotuslight the Delicate Lotus 絨毯に舞い落ちる蓮光 莲光落舞筵 Twirling Lotos Somno ahriii ahriii7 aaaalililili qiqi~ kdka4748 奇奇- 奇奇-ahriii 七域の蓮華 Seven Regions
BeatmapID:3965417
BeatmapSetID:1910088

[Difficulty]
HPDrainRate:5
CircleSize:4
OverallDifficulty:7.5
ApproachRate:8.5
SliderMultiplier:2.1
SliderTickRate:1

[Events]
//Background and Video events
0,0,"ahriii7.jpg",0,0
//Break Periods
2,23341,26284
//Storyboard Layer 0 (Background)
//Storyboard Layer 1 (Fail)
//Storyboard Layer 2 (Pass)
//Storyboard Layer 3 (Foreground)
//Storyboard Layer 4 (Overlay)
//Storyboard Sound Samples
Sample,2298,0,"nilou ;wholesome;.ogg",70

[TimingPoints]
1059,909.090909090909,4,2,1,35,1,0
1513,-100,4,2,1,45,0,0
1923,1200,4,2,2,50,1,0
1923,-133.333333333333,4,2,2,50,0,0
3623,1000,4,2,1,45,1,0
3623,-133.333333333333,4,2,1,45,0,0
3873,1348.31460674157,4,2,1,45,1,0
4323,1132.07547169811,4,2,1,45,1,0
4323,-133.333333333333,4,2,1,45,0,0
4889,-133.333333333333,4,2,1,35,0,0
5077,-133.333333333333,4,2,1,45,0,0
5455,1420.11834319527,4,2,2,45,1,0
6165,-100,4,2,1,45,0,0
6875,1212.12121212121,4,2,1,50,1,0
7481,-133.333333333333,4,2,1,50,0,0
10511,1420.11834319527,4,2,1,50,1,0
11931,1200,4,2,1,50,1,0
11931,-133.333333333333,4,2,1,50,0,0
14031,-100,4,2,1,35,0,0
14437,1304.34782608696,4,2,1,50,1,0
14437,-133.333333333333,4,2,1,50,0,0
15089,-100,4,2,1,45,0,0
15306,-100,4,2,2,50,0,0
17045,1113.17254174397,4,2,1,45,1,0
17045,-133.333333333333,4,2,1,45,0,0
18158,1259.1815320042,4,2,2,45,1,0
18158,-133.333333333333,4,2,2,45,0,0
21725,-133.333333333333,4,2,1,45,0,0
21941,1200,4,2,1,45,1,0
21941,-200,4,2,1,45,0,0
22541,-200,4,2,2,25,0,0
23141,-100,4,2,1,40,0,0
24351,652.173913043478,4,2,1,50,1,0
26959,-250,4,2,1,45,0,0
28264,-250,4,2,1,55,0,0
29568,-250,4,2,1,60,0,0
30872,-142.857142857143,4,2,2,70,0,0
32177,-90.9090909090909,4,2,2,80,0,0
42611,-76.9230769230769,4,2,2,80,0,0
53155,-76.9230769230769,4,2,1,80,0,0
53916,-250,4,2,1,60,0,0
55655,-250,4,2,2,60,0,0
56307,-250,4,2,1,60,0,0
57611,-250,4,2,2,60,0,0
57937,-250,4,2,1,60,0,0
59568,-250,4,2,2,50,0,0
59785,-250,4,2,1,60,0,0
60220,-250,4,2,2,50,0,0
60437,-250,4,2,1,60,0,0
60872,-250,4,2,2,60,0,0
60981,-250,4,2,1,60,0,0
62611,-142.857142857143,4,2,1,60,0,0
63046,-100,4,2,1,60,0,0
63916,-166.666666666667,4,2,1,60,0,0
67394,-83.3333333333333,4,2,1,60,0,0
68046,-100,4,2,1,50,0,0
68264,-100,4,2,1,60,0,0
68481,-100,4,2,1,70,0,0
68698,-74.0740740740741,4,2,1,80,0,0
70437,-83.3333333333333,4,2,1,80,0,0
71307,-71.4285714285714,4,2,1,80,0,0
71959,-66.6666666666667,4,2,1,80,0,0
73916,-74.0740740740741,4,2,1,80,0,0
79079,-71.4285714285714,4,2,1,80,0,0
81742,-66.6666666666667,4,2,1,80,0,0
83046,-100,4,2,1,80,0,0
84350,-333.333333333333,4,2,1,80,0,0
84997,-200,4,2,1,75,0,0
85649,-100,4,2,1,60,0,0
86302,-100,4,2,1,55,0,0
86953,-100,4,2,1,50,0,0
87606,-166.666666666667,4,2,1,45,0,0
94350,687.679083094556,4,2,1,45,1,0
94785,-100,4,2,2,45,0,0
94867,664.819944598338,4,2,2,45,1,0
95865,674.157303370787,4,2,2,45,1,0
96117,909.090909090909,4,2,2,45,1,0
96571,967.741935483871,4,2,2,45,1,0
97054,1108.54503464203,4,2,2,45,1,0
97608,1200,4,2,2,45,1,0
99133,652.173913043478,4,2,1,50,1,0
99133,-128.205128205128,4,2,1,50,0,0
99242,-128.205128205128,4,2,2,5,0,0

[Colours]
Combo1 : 199,225,91
Combo2 : 39,190,228
Combo3 : 240,207,176
Combo4 : 234,118,68

[HitObjects]
265,316,1059,5,0,0:0:0:0:
270,216,1318,5,0,0:0:0:0:
242,168,1513,5,0,0:0:0:0:
265,68,1923,6,0,B|153:57|187:116|74:102,1,196.875007510186,4|0,0:0|0:0,0:0:0:0:
75,102,3623,2,0,P|70:70|65:49,1,39.3750015020371
301,157,4210,5,0,0:0:0:0:
301,157,4323,2,0,P|337:152|375:149,1,59.0625022530557,8|0,0:1|0:0,0:0:0:0:
433,172,4889,1,0,0:0:0:0:
433,172,5030,2,0,P|456:170|468:170,3,19.6875007510186,0|0|0|0,0:0|0:0|0:0|0:2,0:0:0:0:
272,304,6431,5,0,0:0:0:0:
256,384,6875,1,4,0:1:0:0:
256,384,7481,2,0,B|218:345|231:243|323:302|380:200|277:72|138:142|143:253|235:309|297:260|278:188|240:200|245:225,1,367.500014019013,2|0,0:1|0:0,0:0:0:0:
319,233,10511,5,0,0:0:0:0:
389,202,10984,5,0,0:0:0:0:
419,132,11398,5,0,0:0:0:0:
400,59,11753,5,0,0:0:0:0:
400,59,11842,1,0,0:0:0:0:
400,59,11931,2,0,B|381:17|333:19|301:37|301:37|284:19|284:19|271:74|239:130|186:93,1,275.62501051426,4|0,0:2|0:0,0:0:0:0:
57,240,14437,6,0,B|48:190|91:185|96:154|96:154|113:179|165:158|217:207|190:275,1,262.500010013581,4|0,0:1|0:0,0:0:0:0:
283,272,17045,1,2,0:1:0:0:
249,381,18158,6,0,B|293:313|340:374|450:444|552:401|503:286|492:226|397:262|395:260|329:283|372:341,1,452.812517273427,4|0,0:0|0:0,0:0:0:0:
283,272,21941,6,0,P|271:217|256:162,1,105
107,378,26959,6,0,P|104:360|105:339,2,28,8|0|0,0:1|0:0|0:0,0:0:0:0:
2,320,27611,2,0,P|20:327|38:338,2,28
108,256,28264,2,0,P|93:267|75:277,2,28,2|0|0,0:1|0:0|0:0,0:0:0:0:
176,227,28916,1,0,0:0:0:0:
251,241,29133,1,0,0:0:0:0:
305,292,29351,1,0,0:0:0:0:
321,365,29568,6,0,P|327:293|350:221,1,140,4|0,0:2|0:0,0:0:0:0:
291,175,30872,6,0,P|277:101|266:72,1,97.9999970092774,4|0,0:0|0:0,0:0:0:0:
291,175,31524,5,0,0:0:0:0:
285,126,31633,1,0,0:0:0:0:
299,80,31742,1,0,0:0:0:0:
330,42,31850,1,0,0:0:0:0:
373,20,31959,1,0,0:0:0:0:
422,17,32068,1,0,0:0:0:0:
468,33,32177,5,4,1:1:0:0:
504,179,32503,1,0,0:0:0:0:
504,179,32666,1,0,2:1:0:0:
378,259,32992,1,0,0:0:0:0:
378,259,33155,1,0,1:0:0:0:
262,161,33481,1,0,3:3:0:0:
262,161,33644,1,0,0:0:0:0:
262,161,33807,1,0,0:0:0:0:
319,22,34133,2,0,P|366:14|420:5,1,57.7500017623902,8|8,3:1|0:2,0:0:0:0:
262,161,34459,2,0,P|215:169|161:178,1,57.7500017623902,8|0,0:3|1:0,0:0:0:0:
104,148,34785,5,0,1:0:0:0:
205,170,35111,1,0,0:0:0:0:
205,170,35274,1,0,1:0:0:0:
217,272,35601,1,0,0:0:0:0:
217,272,35764,1,0,1:0:0:0:
217,272,35927,1,0,0:0:0:0:
217,272,36090,1,4,3:2:0:0:
122,317,36416,1,8,0:3:0:0:
122,317,36579,1,8,0:1:0:0:
52,238,36905,1,0,0:0:0:0:
52,238,37068,1,0,0:0:0:0:
81,73,37394,5,2,1:3:0:0:
52,238,37720,1,0,0:0:0:0:
52,238,37883,1,0,0:0:0:0:
200,317,38209,1,0,0:0:0:0:
200,317,38372,1,0,1:0:0:0:
320,200,38698,1,0,3:0:0:0:
320,200,38861,1,0,0:0:0:0:
320,200,39024,1,8,0:3:0:0:
246,50,39350,2,0,P|218:45|187:39,1,57.7500017623902,8|8,3:2|0:3,0:0:0:0:
320,200,39677,2,0,P|348:205|379:211,1,57.7500017623902,0|0,1:0|0:0,0:0:0:0:
215,347,40003,6,0,B|190:269|133:312|122:250|122:250|162:297|227:312|301:277|311:180|246:133|246:133|233:211|194:203|194:203|176:114|127:155|115:64,1,693.000021148682,2|8,1:0|3:2,0:0:0:0:
119,73,42068,5,0,0:0:0:0:
119,66,42177,5,0,0:0:0:0:
120,59,42285,5,8,0:2:0:0:
121,52,42394,5,0,0:0:0:0:
122,45,42503,5,0,0:0:0:0:
58,1,42611,6,0,P|125:9|215:15,1,136.499993751526,6|0,1:3|0:0,0:0:0:0:
269,44,43100,2,0,P|302:46|336:50,1,68.2499968757631,4|0,2:3|3:0,0:0:0:0:
416,33,43427,1,0,0:0:0:0:
498,126,43590,5,4,1:3:0:0:
498,126,43671,1,0,0:0:0:0:
498,126,43753,1,0,0:0:0:0:
498,126,43834,1,0,0:0:0:0:
498,126,43916,2,0,P|500:159|504:193,1,68.2499968757631,0|0,3:3|0:0,0:0:0:0:
425,239,44242,2,0,P|422:205|418:171,1,68.2499968757631,4|8,2:3|0:3,0:0:0:0:
333,140,44568,2,0,P|335:173|339:207,1,68.2499968757631,8|8,3:1|0:2,0:0:0:0:
260,253,44894,2,0,P|257:219|253:185,1,68.2499968757631,8|0,0:3|1:0,0:0:0:0:
43,248,45220,6,0,P|110:257|178:266,1,136.499993751526,4|0,1:3|0:0,0:0:0:0:
260,253,45709,1,4,2:3:0:0:
260,253,45791,1,0,0:0:0:0:
260,253,45872,2,0,P|294:258|328:262,1,68.2499968757631,0|0,3:0|0:0,0:0:0:0:
206,184,46198,2,0,P|172:178|138:174,1,68.2499968757631,4|0,1:3|0:0,0:0:0:0:
290,170,46524,1,4,3:2:0:0:
236,101,46687,1,0,0:0:0:0:
320,87,46850,2,0,P|353:92|387:96,1,68.2499968757631,8|8,0:3|0:1,0:0:0:0:
151,121,47177,2,0,P|154:88|157:35,1,68.2499968757631,8|0,3:2|0:0,0:0:0:0:
156,52,47503,1,4,2:3:0:0:
215,186,47666,5,8,0:3:0:0:
215,186,47747,1,0,0:0:0:0:
215,186,47829,2,0,P|205:255|198:331,1,136.499993751526,2|0,1:1|0:0,0:0:0:0:
124,357,48318,1,4,2:3:0:0:
123,275,48481,2,0,P|130:221|138:177,1,68.2499968757631,0|0,3:0|0:0,0:0:0:0:
52,84,48807,5,4,2:3:0:0:
52,84,48889,1,0,0:0:0:0:
52,84,48970,1,0,0:0:0:0:
52,84,49052,1,0,0:0:0:0:
52,84,49133,2,0,P|143:75|210:63,1,136.499993751526,0|12,3:0|0:3,0:0:0:0:
264,84,49622,2,0,P|317:77|358:71,1,68.2499968757631,8|8,0:1|3:2,0:0:0:0:
408,96,49948,1,8,0:3:0:0:
285,218,50111,5,0,1:0:0:0:
285,218,50193,1,0,0:0:0:0:
285,218,50274,1,0,0:0:0:0:
285,218,50356,1,0,0:0:0:0:
285,218,50437,2,0,P|276:145|260:68,1,136.499993751526,4|0,1:3|0:0,0:0:0:0:
215,20,50927,2,0,P|282:48|357:73,1,136.499993751526,4|0,1:3|1:0,0:0:0:0:
425,60,51416,2,0,P|366:104|307:156,1,136.499993751526,4|4,0:3|3:2,0:0:0:0:
256,192,51823,12,4,53046,1:1:0:0:
234,240,56307,5,0,0:0:0:0:
255,168,56524,5,0,0:0:0:0:
228,84,56742,5,0,0:0:0:0:
132,45,56959,6,0,P|82:40|44:34,1,84,4|0,0:1|0:0,0:0:0:0:
49,35,58264,1,2,0:1:0:0:
269,315,61524,5,0,0:0:0:0:
329,360,61742,1,0,0:0:0:0:
338,287,61959,1,0,0:0:0:0:
269,315,62177,2,0,P|259:338|254:351,1,28,4|0,0:0|0:0,0:0:0:0:
298,185,62611,6,0,P|283:200|261:235,1,48.9999985046387
385,48,63046,6,0,P|333:68|303:87,1,70
191,214,63481,1,8,0:1:0:0:
191,214,63916,5,0,0:0:0:0:
259,252,64133,2,0,P|274:254|313:257,2,41.9999987182618,2|0|0,0:0|0:0|0:0,0:0:0:0:
360,207,64785,2,0,P|380:208|401:211,2,41.9999987182618,2|0|0,0:0|0:0|0:0,0:0:0:0:
469,248,65437,1,2,0:0:0:0:
467,171,65655,1,0,0:0:0:0:
400,134,65872,1,0,0:0:0:0:
310,150,66090,5,2,0:1:0:0:
275,266,66307,1,0,0:0:0:0:
158,286,66524,1,8,0:3:0:0:
48,214,66742,5,0,0:0:0:0:
90,69,66959,5,4,0:3:0:0:
258,0,67177,5,0,0:0:0:0:
452,66,67394,6,0,P|416:140|503:118,1,209.999993591309,4|0,1:3|0:0,0:0:0:0:
452,66,68047,5,0,0:1:0:0:
400,71,68155,5,0,0:1:0:0:
364,108,68264,5,0,0:1:0:0:
360,159,68372,5,0,0:1:0:0:
389,202,68481,5,0,0:1:0:0:
439,216,68590,5,0,0:1:0:0:
486,196,68698,6,0,P|270:182|-11:157,1,472.500018024445,4|0,1:1|0:0,0:0:0:0:
486,196,70003,1,10,0:0:0:0:
486,196,70437,5,0,0:0:0:0:
366,365,70655,2,0,P|356:308|344:252,1,83.9999974365235,2|0,0:0|3:0,0:0:0:0:
333,206,71090,1,0,1:0:0:0:
428,271,71307,6,0,P|414:205|401:127,1,97.9999970092774,2|0,1:2|0:0,0:0:0:0:
389,94,71742,1,0,3:0:0:0:
333,206,71959,6,0,P|316:133|306:87,1,105.000004005432,2|8,0:0|2:3,0:0:0:0:
289,27,72394,1,4,2:3:0:0:
232,85,72611,5,14,0:0:0:0:
202,75,72720,1,0,0:0:0:0:
172,72,72829,1,0,0:0:0:0:
142,75,72937,1,0,0:0:0:0:
112,83,73046,1,4,2:3:0:0:
85,98,73155,1,0,0:0:0:0:
62,118,73264,1,2,0:0:0:0:
43,141,73372,1,0,0:0:0:0:
29,169,73481,1,0,2:1:0:0:
21,198,73590,1,0,0:0:0:0:
18,229,73698,1,0,1:1:0:0:
22,259,73807,1,0,0:0:0:0:
32,288,73916,6,0,P|248:274|529:249,1,472.500018024445,2|0,1:1|0:0,0:0:0:0:
32,288,75220,1,10,0:0:0:0:
32,288,75655,5,0,0:0:0:0:
48,193,75872,1,2,0:0:0:0:
122,125,76090,1,0,3:0:0:0:
122,125,76198,1,0,0:0:0:0:
122,125,76307,1,0,1:0:0:0:
222,121,76524,1,2,1:2:0:0:
302,181,76742,1,0,0:0:0:0:
302,181,76850,1,0,0:0:0:0:
302,181,76959,1,0,3:0:0:0:
324,278,77177,1,2,0:0:0:0:
279,366,77394,1,8,2:3:0:0:
279,366,77503,1,0,0:0:0:0:
279,366,77611,1,4,2:3:0:0:
233,284,77829,5,14,0:0:0:0:
223,254,77938,1,0,0:0:0:0:
220,224,78047,1,0,0:0:0:0:
223,194,78155,1,0,0:0:0:0:
231,164,78264,1,4,1:3:0:0:
246,137,78373,1,0,0:0:0:0:
266,114,78482,1,2,0:0:0:0:
289,95,78590,1,0,0:0:0:0:
317,81,78699,1,8,2:3:0:0:
346,73,78808,1,0,0:0:0:0:
377,70,78916,1,4,2:3:0:0:
407,74,79025,1,0,0:0:0:0:
434,86,79133,6,0,P|447:175|469:320,1,195.999994018555,8|0,1:1|0:0,0:0:0:0:
413,355,79785,1,2,0:0:0:0:
330,329,80003,2,0,P|296:326|216:315,1,97.9999970092774,0|0,3:0|1:0,0:0:0:0:
35,277,80437,2,0,B|116:276|176:249|176:249|147:277|143:295,1,195.999994018555,10|0,0:0|0:0,0:0:0:0:
232,317,81090,1,2,0:0:0:0:
213,177,81308,1,0,3:2:0:0:
213,177,81416,1,0,3:2:0:0:
213,177,81525,1,0,1:0:0:0:
228,26,81742,6,0,P|351:-3|483:323,1,525.000020027161,2|4,1:2|1:3,0:0:0:0:
219,162,83046,6,0,P|102:144|20:329,1,350,4|0,1:2|0:0,0:0:0:0:
253,272,84350,6,0,P|311:251|398:390,1,251.999992309571,4|0,1:1|0:0,0:0:0:0:
401,382,88264,5,0,0:0:0:0:
332,349,88698,1,0,0:0:0:0:
432,312,89133,1,0,0:0:0:0:
363,280,89568,1,2,0:1:0:0:
256,192,89677,12,4,94867,0:0:0:0:
462,348,95865,5,0,0:0:0:0:
462,348,96117,1,2,0:0:0:0:
412,249,96571,5,0,0:0:0:0:
332,199,97054,5,0,0:2:0:0:
260,191,97608,5,0,0:0:0:0:
260,191,98808,6,0,L|253:224,1,26.25
236,291,99133,2,0,B|236:325|259:350|274:335|301:340|324:390|272:398|275:345|300:330|319:340|332:308|320:276|320:276|320:276|320:276|320:276|320:276|343:300|378:300|377:279|400:263|451:283|420:326|384:284|393:257|413:252|399:219|369:205|369:205|368:205|368:205|367:205|367:205|402:206|426:182|411:167|416:140|466:117|475:169|420:166|406:141|416:122|384:109|352:121|352:121|352:121|352:121|352:121|352:121|376:97|377:63|356:64|340:41|359:-9|403:21|361:57|333:48|329:28|295:42|281:71|281:71|281:73|281:73|281:73|281:73|281:39|257:13|243:29|216:24|194:-24|246:-33|242:19|217:34|199:23|185:57|196:88|196:88|197:89|197:89|197:89|197:89|174:64|139:64|140:84|117:100|66:80|97:38|132:79|124:106|105:111|118:144|148:159|148:159|149:159|149:159|150:159|150:159|116:158|90:183|106:196|101:225|51:246|43:194|96:199|111:222|101:241|133:256|165:243|165:243|165:243|165:243|165:242|165:242|140:266|140:302|161:300|178:323|158:375|114:344|155:308|184:315|189:335|222:321|234:294,1,1528.8000513208,4|0,0:0|0:0,0:0:0:0:
