osu file format v14

[General]
AudioFilename: audio.mp3
AudioLeadIn: 0
PreviewTime:26796
Countdown: 1
SampleSet: Soft
StackLeniency: 0.3
Mode: 0
LetterboxInBreaks: 0
WidescreenStoryboard: 1

[Editor]
Bookmarks: 45911,56183,92868,93357,102433,108520
DistanceSpacing: 1.2
BeatDivisor: 6
GridSize: 4
TimelineZoom: 1.900006

[Metadata]
Title:Lotus of Haftkarsvar
TitleUnicode:七域的蕖华
Artist:HOYO-MiX
ArtistUnicode:HOYO-MiX
Creator:ScubDomino
Version:Hard
Source:Genshin Impact
Tags:妮露 ニィロウ にぃろう نیلو Nilou Theme 闪耀的群星3 The Stellar Moments vol. volume 3 inaugural character album Mihoyo HoYoverse OST demo trailer Sumeru Zubayr Theatre Theater instrumental neofolk persian arabian modern traditional folk orchestral video game games gacha hydro Hisako Kanemoto 金元 寿子 ひさこ かねもと anime girl anime_girl jungkyuyoung natsume shiki natsume_shiki scub domino [keqing] 8972308 left island jaehyeok 5062061 kazato asa kazato_asa shikibe mayu shikibe_mayu ayesha altugle ayesha_altugle Shizuku- shizukup vahn10 1125647 nik nikolomara 10077264 Dimeng Yuan 苑迪萌 Yu-Peng Chen Zhiyi 陈致逸 RPG action open world 原神 Yuánshén yuanshen fantasy @HOYO-MiX Dance of Lotuslight the Delicate Lotus 絨毯に舞い落ちる蓮光 莲光落舞筵 Twirling Lotos Somno ahriii ahriii7 aaaalililili qiqi~ kdka4748 奇奇- 奇奇-ahriii 七域の蓮華 Seven Regions
BeatmapID:3946025
BeatmapSetID:1910088

[Difficulty]
HPDrainRate:5
CircleSize:4
OverallDifficulty:7
ApproachRate:7
SliderMultiplier:2
SliderTickRate:0.5

[Events]
//Background and Video events
0,0,"ahriii7.jpg",0,0
//Break Periods
2,23341,26059
2,95067,98233
//Storyboard Layer 0 (Background)
//Storyboard Layer 1 (Fail)
//Storyboard Layer 2 (Pass)
//Storyboard Layer 3 (Foreground)
//Storyboard Layer 4 (Overlay)
//Storyboard Sound Samples
Sample,2298,0,"nilou ;wholesome;.ogg",70

[TimingPoints]
1059,909.090909090909,4,2,1,35,1,0
1513,-100,4,2,1,45,0,0
1923,1200,4,2,2,50,1,0
3623,1000,4,2,1,45,1,0
3873,1348.31460674157,4,2,1,45,1,0
4323,1132.07547169811,4,2,1,45,1,0
4323,-133.333333333333,4,2,1,45,0,0
4889,-133.333333333333,4,2,1,35,0,0
5077,-133.333333333333,4,2,1,45,0,0
5455,1420.11834319527,4,2,2,45,1,0
6165,-100,4,2,1,45,0,0
6875,1212.12121212121,4,2,1,50,1,0
10511,1420.11834319527,4,2,1,50,1,0
11931,1200,4,2,1,50,1,0
11931,-66.6666666666667,4,2,1,50,0,0
14031,-66.6666666666667,4,2,1,35,0,0
14437,1304.34782608696,4,2,1,50,1,0
15089,-100,4,2,1,45,0,0
15306,-100,4,2,2,50,0,0
17045,1113.17254174397,4,2,1,45,1,0
18158,1259.1815320042,4,2,2,45,1,0
21725,-100,4,2,1,45,0,0
21941,1200,4,2,1,45,1,0
22541,-100,4,2,2,25,0,0
23141,-100,4,2,1,40,0,0
24351,652.173913043478,4,2,1,50,1,0
26959,-100,4,2,1,45,0,0
28264,-100,4,2,1,55,0,0
29568,-100,4,2,1,60,0,0
30437,-111.111111111111,4,2,1,60,0,0
30872,-111.111111111111,4,2,2,70,0,0
31524,-83.3333333333333,4,2,2,70,0,0
32177,-83.3333333333333,4,2,2,80,0,0
41959,-62.5,4,2,2,80,0,0
42611,-83.3333333333333,4,2,2,80,0,0
53155,-83.3333333333333,4,2,1,80,0,0
53916,-83.3333333333333,4,2,1,60,0,0
55655,-83.3333333333333,4,2,2,60,0,0
56307,-133.333333333333,4,2,1,60,0,0
57611,-133.333333333333,4,2,2,60,0,0
57937,-133.333333333333,4,2,1,60,0,0
59568,-133.333333333333,4,2,2,50,0,0
59785,-133.333333333333,4,2,1,60,0,0
60220,-133.333333333333,4,2,2,50,0,0
60437,-133.333333333333,4,2,1,60,0,0
60872,-133.333333333333,4,2,2,60,0,0
60981,-133.333333333333,4,2,1,60,0,0
63481,-153.846153846153,4,2,1,60,0,0
64133,-117.647058823529,4,2,1,60,0,0
64785,-95.238095238095,4,2,1,60,0,0
65437,-80,4,2,1,60,0,0
66090,-68.9655172413793,4,2,1,60,0,0
67394,-285.714285714286,4,2,1,60,0,0
68046,-285.714285714286,4,2,1,50,0,0
68264,-285.714285714286,4,2,1,60,0,0
68481,-285.714285714286,4,2,1,70,0,0
68698,-83.3333333333333,4,2,1,80,0,0
83046,-200,4,2,1,80,0,0
84997,-200,4,2,1,75,0,0
85649,-200,4,2,1,60,0,0
86302,-200,4,2,1,55,0,0
86953,-200,4,2,1,50,0,0
87606,-200,4,2,1,45,0,0
90057,-133.333333333333,4,2,1,45,0,0
92177,-181.818181818181,4,2,1,45,0,0
94350,687.679083094556,4,2,1,45,1,0
94785,-181.818181818181,4,2,2,45,0,0
94867,664.819944598338,4,2,2,45,1,0
95865,674.157303370787,4,2,2,45,1,0
96117,909.090909090909,4,2,2,45,1,0
96571,967.741935483871,4,2,2,45,1,0
97054,1108.54503464203,4,2,2,45,1,0
97608,1200,4,2,2,45,1,0
99133,652.173913043478,4,2,1,50,1,0
99242,-181.818181818181,4,2,2,5,0,0

[Colours]
Combo1 : 199,225,91
Combo2 : 39,190,228
Combo3 : 240,207,176
Combo4 : 234,118,68

[HitObjects]
371,58,1059,6,0,L|308:68,2,50
429,0,1923,2,0,P|512:103|408:172,1,283.333333333333,4|0,0:0|0:0,0:0:0:0:
383,103,4323,2,0,B|344:98|308:137|316:181|316:181|325:162|343:156,1,150.000005722046,8|0,0:1|0:2,0:0:0:0:
422,320,6431,1,0,0:0:0:0:
363,370,6875,6,0,P|313:357|255:348,1,100,4|2,0:1|0:1,0:0:0:0:
136,274,10511,2,0,P|96:267|70:270,1,62.5
7,307,11398,1,0,0:0:0:0:
60,190,11931,6,0,P|129:156|520:160,1,450.000017166138,4|0,0:2|0:0,0:0:0:0:
493,149,14031,1,0,0:0:0:0:
418,84,14437,6,0,P|356:90|305:23,1,150,4|0,0:1|0:0,0:0:0:0:
482,0,16638,2,0,P|483:33|484:42,1,37.5
492,46,17045,6,0,B|461:153|524:140|492:243,1,200,2|4,0:1|0:0,0:0:0:0:
436,299,21941,5,0,0:0:0:0:
436,299,23141,1,0,0:0:0:0:
157,98,26959,6,0,P|55:80|125:218,1,333.333333333333,8|0,0:1|0:0,0:0:0:0:
180,176,28264,2,0,P|228:165|285:161,1,66.6666666666667,2|0,0:1|0:0,0:0:0:0:
322,154,28698,1,0,0:0:0:0:
354,226,28916,2,0,P|395:252|438:289,1,66.6666666666667
472,309,29350,1,0,0:0:0:0:
407,354,29568,6,0,B|293:355|324:384|183:389,1,200,4|0,0:2|0:0,0:0:0:0:
139,338,30437,2,0,P|106:335|77:317,1,59.9999981689454
170,263,30872,2,0,P|169:217|188:255,1,119.999996337891,4|0,0:0|0:0,0:0:0:0:
271,204,31524,6,0,P|266:118|193:140,1,179.999994506836
193,141,32177,6,0,P|182:199|187:286,1,119.999996337891,4|0,1:1|0:0,0:0:0:0:
259,280,32666,2,0,P|251:300|154:340,1,119.999996337891,0|0,2:1|0:0,0:0:0:0:
94,293,33155,2,0,P|96:270|106:293,1,59.9999981689454,0|0,1:0|0:0,0:0:0:0:
164,355,33481,6,0,P|225:378|303:382,1,119.999996337891,0|0,3:3|0:0,0:0:0:0:
444,287,34133,2,0,P|383:310|305:314,1,119.999996337891,8|8,3:1|0:3,0:0:0:0:
276,253,34622,1,0,1:0:0:0:
276,253,34785,6,0,P|282:206|273:164,1,59.9999981689454,0|0,1:0|0:0,0:0:0:0:
212,148,35111,2,0,L|185:15,2,119.999996337891,0|0|0,0:0|3:0|1:0,0:0:0:0:
144,198,35927,1,0,0:0:0:0:
144,198,36090,6,0,B|130:165|90:165|90:165|58:193|24:189,1,119.999996337891,4|8,3:2|0:3,0:0:0:0:
93,259,36579,2,0,B|107:292|147:292|147:292|179:264|213:268,1,119.999996337891,8|0,0:1|0:0,0:0:0:0:
208,348,37068,2,0,L|284:333,1,59.9999981689454,0|8,0:0|0:3,0:0:0:0:
339,367,37394,6,0,P|411:343|477:350,2,119.999996337891,2|0|0,1:3|0:0|3:0,0:0:0:0:
432,243,38372,2,0,P|479:231|499:212,1,59.9999981689454,0|0,1:0|0:0,0:0:0:0:
434,163,38698,6,0,P|459:109|454:49,1,119.999996337891,0|8,3:0|0:3,0:0:0:0:
391,3,39187,1,8,0:1:0:0:
391,3,39350,1,8,3:2:0:0:
269,87,39677,2,0,P|253:74|275:81,1,59.9999981689454,0|0,1:0|0:0,0:0:0:0:
174,74,40003,6,0,P|90:80|-18:120,2,179.999994506836,2|0|0,1:0|1:0|0:0,0:0:0:0:
275,217,41307,6,0,P|206:172|92:160,1,179.999994506836,4|0,3:2|0:0,0:0:0:0:
34,190,41959,6,0,B|-18:214|6:295|6:295|84:300|102:233,1,239.999992675781,8|8,3:2|0:2,0:0:0:0:
110,157,42611,6,0,P|181:140|226:54,1,119.999996337891,6|0,1:3|0:0,0:0:0:0:
131,70,43100,2,0,B|227:57|205:34|315:20,1,179.999994506836,4|4,2:3|1:3,0:0:0:0:
386,55,43753,1,0,0:0:0:0:
386,55,43916,6,0,P|442:69|487:59,1,59.9999981689454,0|0,3:3|0:0,0:0:0:0:
388,145,44242,2,0,L|234:172,2,119.999996337891,4|8|8,2:3|3:1|0:3,0:0:0:0:
460,189,45057,1,0,1:0:0:0:
460,189,45220,6,0,P|470:273|425:320,1,119.999996337891,4|0,1:3|0:0,0:0:0:0:
370,291,45709,2,0,P|423:341|393:368,1,119.999996337891,4|0,2:3|0:0,0:0:0:0:
323,354,46198,2,0,P|262:358|186:404,1,119.999996337891,4|4,1:3|3:2,0:0:0:0:
135,379,46687,5,0,0:0:0:0:
135,379,46850,2,0,P|132:335|154:282,1,59.9999981689454,8|8,0:3|0:1,0:0:0:0:
56,301,47177,5,8,3:2:0:0:
147,166,47503,2,0,P|137:131|133:86,1,59.9999981689454,4|8,2:3|0:3,0:0:0:0:
53,79,47829,6,0,P|150:73|237:31,1,179.999994506836,2|4,1:1|2:3,0:0:0:0:
291,0,48481,2,0,P|344:6|390:21,1,59.9999981689454,0|0,3:0|0:0,0:0:0:0:
423,60,48807,2,0,P|369:58|279:99,2,119.999996337891,4|0|12,2:3|3:0|0:3,0:0:0:0:
377,140,49785,1,8,3:2:0:0:
205,179,50437,6,0,P|302:173|389:131,1,179.999994506836,4|4,1:3|1:3,0:0:0:0:
423,60,51090,2,0,P|476:66|522:81,1,59.9999981689454,0|0,3:0|1:0,0:0:0:0:
383,140,51416,2,0,P|381:193|422:283,1,119.999996337891,4|4,0:3|3:2,0:0:0:0:
402,255,52068,1,4,0:3:0:0:
396,355,52394,6,0,P|462:284|480:380,1,239.999992675781,8|4,3:2|1:1,0:0:0:0:
480,379,54350,1,4,0:0:0:0:
396,355,55655,1,4,0:2:0:0:
242,372,56307,2,0,L|172:390,2,50.0000019073487
286,306,56959,1,4,0:1:0:0:
233,230,57611,1,0,0:0:0:0:
233,230,58264,6,0,P|157:226|117:115,1,200.000007629395,2|0,0:1|0:0,0:0:0:0:
49,220,59568,2,0,L|-17:233,2,50.0000019073487,2|0|0,0:0|0:0|0:0,0:0:0:0:
66,296,60220,2,0,L|0:309,2,50.0000019073487,2|0|0,0:0|0:0|0:0,0:0:0:0:
122,243,60872,1,4,0:0:0:0:
203,334,61524,2,0,P|202:359|198:384,2,50.0000019073487
271,291,62177,2,0,P|353:278|407:278,1,100.000003814697,4|0,0:0|0:0,0:0:0:0:
495,272,63046,1,0,0:0:0:0:
495,271,63481,6,0,P|496:222|504:179,1,86.6666626993817,8|0,0:1|0:0,0:0:0:0:
502,184,64133,1,2,0:0:0:0:
453,119,64350,2,0,P|399:105|363:101,1,56.6666677474976
364,33,64785,2,0,B|294:25|309:46|211:40,1,139.999995727539,2|0,0:0|0:0,0:0:0:0:
203,132,65437,2,0,P|232:142|205:128,1,83.3333333333333,2|0,0:0|0:0,0:0:0:0:
252,227,65872,1,0,0:0:0:0:
342,193,66090,6,0,P|324:321|328:410,2,193.333339233399,2|8|4,0:1|0:3|0:3,0:0:0:0:
512,10,67394,6,0,B|501:75|488:66|474:127,1,116.666663106283,4|0,1:3|0:1,0:0:0:0:
493,231,68698,6,0,B|486:146|422:86|422:86|347:117|300:204,1,319.999990234375,4|0,1:1|3:0,0:0:0:0:
234,211,69785,1,0,1:0:0:0:
212,290,70003,2,0,B|229:334|273:339|273:339|309:302|286:247,1,159.999995117188,10|0,0:0|0:0,0:0:0:0:
310,188,70655,6,0,P|363:183|407:194,2,79.9999975585938,2|0|0,0:0|3:0|1:0,0:0:0:0:
263,116,71307,2,0,P|296:74|335:51,2,79.9999975585938,2|0|0,1:2|0:0|3:0,0:0:0:0:
178,98,71959,2,0,P|173:45|184:1,2,79.9999975585938,2|8|4,0:0|2:3|2:3,0:0:0:0:
57,186,72611,6,0,P|20:170|-13:158,2,39.9999987792969,14|0|0,0:0|0:0|0:0,0:0:0:0:
85,211,72937,6,0,P|105:245|127:276,2,39.9999987792969,0|4|0,0:0|2:3|0:0,0:0:0:0:
77,173,73264,6,0,P|80:133|81:97,2,39.9999987792969,2|0|0,0:0|0:0|2:1,0:0:0:0:
62,209,73590,6,0,P|35:239|13:269,2,39.9999987792969,0|0|0,0:0|1:1|0:0,0:0:0:0:
96,191,73916,6,0,B|260:162|248:242|419:203,1,319.999990234375,2|0,1:1|3:0,0:0:0:0:
489,231,75003,1,0,1:0:0:0:
427,286,75220,2,0,B|405:330|430:377|430:377|449:333|534:311,1,159.999995117188,10|0,0:0|0:0,0:0:0:0:
488,229,75872,6,0,P|499:170|517:111,2,79.9999975585938,2|0|0,0:0|3:0|1:0,0:0:0:0:
412,179,76524,2,0,P|378:129|349:75,2,79.9999975585938,2|0|0,1:2|0:0|3:0,0:0:0:0:
325,205,77177,2,0,P|266:194|207:176,2,79.9999975585938,2|8|4,0:0|2:3|2:3,0:0:0:0:
426,332,77829,6,0,P|462:348|496:360,2,39.9999987792969,14|0|0,0:0|0:0|0:0,0:0:0:0:
398,307,78155,6,0,P|377:273|355:242,2,39.9999987792969,0|4|0,0:0|1:3|0:0,0:0:0:0:
406,345,78482,6,0,P|402:385|401:421,2,39.9999987792969,2|0|8,0:0|0:0|2:3,0:0:0:0:
421,309,78808,6,0,P|447:279|469:249,2,39.9999987792969,0|4|0,0:0|2:3|0:0,0:0:0:0:
388,329,79133,6,0,P|296:340|120:381,1,239.999992675781,8|2,1:1|0:0,0:0:0:0:
75,354,80003,1,0,3:0:0:0:
30,291,80220,1,0,1:0:0:0:
51,217,80437,5,10,0:0:0:0:
51,217,81090,2,0,P|47:166|36:119,2,79.9999975585938,2|0|0,0:0|3:2|1:0,0:0:0:0:
88,66,81742,6,0,P|87:170|262:116,1,319.999990234375,2|8,1:2|1:3,0:0:0:0:
288,72,82829,1,4,1:3:0:0:
368,110,83046,6,0,P|413:108|472:3,1,166.666666666667,4|0,1:2|0:0,0:0:0:0:
473,14,84350,5,4,1:1:0:0:
256,192,84568,12,0,86959,0:0:0:0:
186,126,87937,5,0,0:0:0:0:
252,174,88264,2,0,B|288:169|288:169|258:138,2,66.6666666666667
186,126,89568,6,0,P|157:135|130:137,1,50,2|0,0:1|0:0,0:0:0:0:
127,141,90057,2,0,B|73:123|48:51|48:51|-4:133|13:214|62:262,1,337.500012874604
106,306,91742,2,0,L|186:323,1,50.0000019073487
204,380,92177,2,0,P|319:337|402:349,1,183.333338928223,4|0,0:0|0:0,0:0:0:0:
448,384,93481,2,0,L|465:306,2,73.3333355712891
448,384,94867,5,4,0:0:0:0:
256,192,99133,12,0,102611,0:0:0:0:
